#TITLE:Insane Techniques;
#SUBTITLE:;
#ARTIST:kors k;
#TITLETRANSLIT:;
#SUBTITLETRANSLIT:;
#ARTISTTRANSLIT:;
#GENRE:Hi-Tech Full On;
#CREDIT:;
#BANNER:Insane Techniques-bn.png;
#BACKGROUND:Insane Techniques-bg.png;
#LYRICSPATH:;
#CDTITLE:;
#MUSIC:Insane Techniques.mp3;
#OFFSET:1.474999;
#SAMPLESTART:13.730479;
#SAMPLELENGTH:13.150685;
#LASTBEATHINT:1.155831;
#SELECTABLE:YES;
#DISPLAYBPM:146.000000;
#BPMS:0.000000=146.000000
,133.000000=73.000000
,149.000000=146.000000
,267.000000=292.000000
,269.000000=146.000000
;
#STOPS:267.000000=0.103000,
267.500000=0.103000,
268.000000=0.103000,
268.500000=0.103000
;
#BGCHANGES:;
#KEYSOUNDS:;
#ATTACKS:;

//---------------dance-single - ----------------
#NOTES:
     dance-single:
     :
     Hard:
     10:
     0.679928,0.776482,0.134404,0.181841,0.699693,562.000000,17.000000,23.000000,0.000000,0.000000,0.000000,0.679928,0.776482,0.134404,0.181841,0.699693,562.000000,17.000000,23.000000,0.000000,0.000000,0.000000:
0000
0000
0000
0000
,
0000
0000
0000
0000
,
0000
0000
0000
0000
,
0000
0000
0000
0000
,
0000
0000
0000
0000
,
0000
0000
0000
0000
,
0000
0000
0000
0000
,
0000
0200
0000
0000
,
0000
0000
0000
0300
,
0000
0000
0010
0000
1000
0000
0001
0100
0001
0000
1000
0000
0100
0010
0100
0010
,
0100
0000
1000
0000
0001
0000
0000
0100
0010
0000
1000
0000
0001
0000
1000
0100
,
1000
0000
0010
0000
0100
0000
0001
1000
0001
0000
0010
0000
0100
0010
0100
0010
,
0001
0000
1000
0000
0001
0000
0000
0100
0010
0000
1000
0000
0001
0000
0010
0000
,
0001
0000
0010
0000
0100
0000
0000
0100
1000
0000
0010
0000
0100
0000
0100
0000
,
0100
0000
0100
0000
0001
0000
1000
0000
0010
0000
0100
0001
1000
0001
1000
0001
,
1000
0000
0100
0000
0010
0000
0001
0000
1000
0010
0100
0000
0110
0000
0000
0000
,
0001
0000
0101
0000
1000
0000
2000
0000
3000
0000
0001
0000
0001
0100
0000
0100
,
0000
0000
0010
0000
1000
0000
0100
0000
0010
0001
1000
0001
1000
0100
0010
0000
,
0001
0000
1000
0000
0010
0000
0100
0000
0010
1000
0010
0000
0100
0001
0100
0010
,
1000
0000
0001
0000
0010
0000
0001
0000
0100
0010
1000
0001
0010
0001
1000
0010
,
1000
0000
0001
0000
0010
0000
0100
0000
1000
0010
0100
0010
1000
0001
0100
0000
,
0001
0000
1000
0000
0110
0000
1000
0000
0100
1000
0100
0010
0100
1000
0100
0000
,
0010
0000
0001
0000
1000
0000
0001
0000
0010
0001
1000
0100
0010
0001
1000
0010
,
0200
0000
0000
0000
0301
0000
0001
0100
0000
0100
0010
0000
0010
1000
0000
1000
,
0100
0010
0002
0000
1000
0000
1003
0001
,
2002
0000
0000
0000
3003
0000
0000
0000
1001
0000
0001
0100
0000
0100
0010
1000
,
0010
0000
0100
0000
0001
0000
0010
0000
0001
0100
0001
0100
0010
1000
0010
1000
,
0001
0000
1000
0000
0100
0000
0010
0000
0100
0000
1000
0100
0000
0100
1000
0001
,
1000
0000
0010
0000
1000
0000
0100
0000
0010
0001
0010
0001
1000
0001
1000
0001
,
0100
0000
1001
0000
0010
0000
0000
0000
0011
0000
0010
0100
0000
0100
1000
0100
,
0010
0000
0001
0000
1000
0000
0010
0000
0100
0010
0100
0010
1000
0001
1000
0001
,
0100
0010
0010
0010
,
0010
0000
0000
0000
1000
0000
0100
0000
1000
0000
0100
0000
0010
0001
0010
0001
,
1000
0000
0000
0000
0020
0000
0000
2030
0000
0000
3200
0000
0000
0320
0000
0000
,
0032
0000
0000
0203
0000
0000
0320
0000
0000
2030
0000
0000
3200
0000
0000
0310
,
0001
1000
0001
1000
0010
0100
0000
0010
0100
0000
0010
0100
0000
0001
1000
0000
,
0001
1000
0000
0001
0010
0000
0001
0010
0000
0100
1000
0000
0100
1000
0000
0010
,
0100
0001
1000
0100
0010
0000
0000
0000
0010
0000
0000
0000
0010
0000
0000
0000
,
0010
0010
0010
0010
,
0000
0001
0001
0001
,
0001
1000
1000
1000
,
0000
0010
0100
0000
0100
0000
0100
0000
,
0100
0100
0100
0100
,
0000
0010
0010
1000
,
1000
1001
0000
0000
,
0000
0000
0000
0000
1000
0001
1000
0001
1000
0001
1000
0001
1000
0001
1000
0001
,
1000
0000
0000
0000
0001
1000
0001
1000
0001
1000
0001
1000
0001
1000
0001
1000
,
0001
0000
0000
0000
1000
0001
1000
0001
1000
0001
1000
0001
1000
0001
1000
0001
,
1000
0000
0000
0000
0001
1000
0001
1000
0001
1000
0001
1000
0001
1000
0001
1000
,
0100
0000
0100
0000
1000
0001
1000
0001
1000
0001
1000
0001
1000
0001
1000
0001
,
0010
0000
0010
0000
0001
0000
0100
0000
0010
0000
1000
0001
0100
0000
0101
0000
,
2002
0000
3003
0000
1000
0000
1000
0010
0000
0010
0100
0000
0100
0001
0000
0001
,
0010
0000
0000
0000
0000
0000
0010
0000
0000
0000
0000
0000
0100
0000
0000
0010
0000
0000
0001
0000
0000
0010
0000
0000
0100
0000
0000
1000
0000
0000
0100
0000
0000
0010
0000
0000
0001
0000
1000
0000
0100
0000
1000
0000
0001
0000
0100
0000
,
0001
1000
0100
0010
0001
1000
0200
0000
0000
0000
0000
0000
0000
0000
0000
0000
0000
0000
0000
0000
0000
0000
0000
0000
,
0000
0000
0000
0300
,
0000
0000
0000
0000
1001
0000
1000
0100
0000
0100
1000
0010
0100
0010
0100
0010
,
1000
0000
0001
0000
0010
0000
0001
0100
0000
0100
0001
0000
1000
0001
0100
0001
,
1000
0000
0010
0000
0100
0000
0001
1000
0000
1000
0010
1000
0001
1000
0001
1000
,
0010
0000
0100
0000
0010
0000
1000
0001
0000
1000
0001
1000
0100
0010
0001
0010
,
0100
0000
0010
0000
0001
0000
1000
0010
0000
0100
0001
1000
0001
0100
0001
1000
,
0001
0000
0100
0000
0010
0000
1000
0100
0000
0010
0001
0000
1000
0010
1000
0001
,
0100
0000
0001
0000
1000
0000
0010
0100
0000
0001
1000
0001
0010
0100
1000
0001
,
0100
0010
1000
1010
0000
0101
1001
0000
,
0010
1000
0010
1000
0001
0000
0100
0000
0020
0000
1030
0000
0100
0010
0100
0000
,
1000
0000
0001
0000
0100
0000
0010
0000
2000
0000
3100
0000
0010
0001
0000
0001
,
0200
0000
0000
0000
0301
0000
1000
0000
0001
0000
0100
0000
0010
1000
0001
0000
,
0010
0100
2000
0000
0000
0000
3001
1100
,
0101
0000
1001
0000
0010
0000
0100
0000
0001
0000
1000
0000
0100
0010
0100
0000
,
1000
0000
0000
0000
0001
0000
0000
0000
0100
0000
0000
0000
0010
0000
0000
0000
1000
0000
0000
0000
0001
0000
0000
0000
1000
0100
1000
0000
0000
0000
0100
0000
,
0000
0000
0100
0000
1000
0000
0010
0000
1000
0000
0001
0000
0010
0000
0100
1000
,
0001
0000
0000
0000
0100
0000
0010
0000
0100
0000
0001
0000
1000
0001
1000
0001
,
1000
0001
1000
0001
2000
0000
0000
0000
0000
0000
0000
0000
0000
0000
0000
0000
,
0000
0000
0000
3000
;

//---------------dance-single - ----------------
#NOTES:
     dance-single:
     :
     Medium:
     7:
     0.449520,0.488896,0.086968,0.173935,0.102780,365.000000,11.000000,22.000000,0.000000,0.000000,0.000000,0.449520,0.488896,0.086968,0.173935,0.102780,365.000000,11.000000,22.000000,0.000000,0.000000,0.000000:
0000
0000
0000
0000
,
0000
0000
0000
0000
,
0000
0000
0000
0000
,
0000
0000
0000
0000
,
0000
0000
0000
0000
,
0000
0000
0000
0000
,
0000
0000
0000
0000
,
0000
0020
0000
0000
,
0000
0000
0000
0030
,
0000
0000
1000
0000
0001
0100
0010
0100
,
0001
0000
1000
0000
0010
1000
0100
0010
,
0001
0000
0010
0000
0100
1000
0001
0100
,
0010
0000
0100
0000
0010
1000
0100
0010
,
0100
0000
1000
0000
0101
0000
0010
0100
,
0100
0100
0010
0000
0001
1000
0010
1000
,
0001
0000
0100
0000
0010
0100
0020
0000
,
1030
0100
0010
0010
0000
0001
0002
0000
,
0000
0003
1000
0010
0100
0001
0010
0100
,
1000
0001
0100
0001
0010
0100
1000
0001
,
0100
0000
0010
1000
0010
0100
0001
1000
,
0100
0010
0001
0010
0100
1000
0001
0100
,
0010
0000
1000
0100
1000
0001
0100
0001
,
0010
0100
1000
0010
1000
0100
0010
0001
,
1000
0000
0000
0000
0001
0000
0000
0100
0000
0000
0001
0000
0000
1000
0000
0000
,
0100
0010
0002
0000
0100
0000
0103
0001
,
2000
0000
3000
0000
1001
0000
0010
1000
,
0001
0000
0100
0010
0100
0001
1000
0100
,
0010
0000
0100
0000
1100
0000
1000
0001
,
0100
0000
0010
1000
0001
0010
1000
0010
,
0001
0000
0100
0000
1001
0000
1000
0100
,
0010
0000
0100
0010
0001
1000
0001
0100
,
0010
0100
0001
1000
,
0010
0000
1000
0001
1000
0001
1000
0100
,
0020
0000
0000
0000
0031
0000
0000
0100
0000
0000
0001
0000
0000
0100
0000
0000
,
0001
0000
0000
1000
0000
0000
0100
0000
0000
1000
0000
0000
0100
0000
0000
0010
,
0200
0000
0000
0000
1300
0000
0000
0001
0000
0000
0100
0000
0000
0001
0000
0000
,
0010
0000
0000
0100
0000
0000
1000
0000
0000
0001
0000
0000
0100
0000
0000
0001
,
2000
3100
0010
0100
,
0010
0100
0010
0001
,
0000
1000
0100
1000
,
0100
1000
0010
0100
,
0000
0001
0100
0001
,
0100
0001
1000
0010
,
0000
0100
0010
0100
,
0010
2002
0000
0000
,
3003
0000
0010
1000
0010
1000
0010
1000
,
0001
0000
0010
0100
0010
0100
0010
0100
,
1000
0000
0010
1000
0010
1000
0010
1000
,
0001
0000
0100
0001
0100
0001
0100
0001
,
0010
0010
0100
1000
0100
1000
0100
1000
,
0001
0001
0010
0100
0010
0100
0100
1000
,
2200
0000
3300
0000
0010
0000
0000
0001
0000
0000
1000
0000
0000
0100
0000
0000
,
0010
0100
1000
0001
0100
0010
1000
0001
,
0100
0010
0100
0010
0200
0000
0000
0000
0000
0000
0000
0000
0000
0000
0000
0000
,
0000
0000
0000
0300
,
0000
0000
0000
0000
1001
0000
0000
0001
0000
0000
0100
0000
0001
0000
1000
0000
,
0100
0000
0000
0000
0010
0000
0000
0100
0000
0000
0010
0000
0001
0000
1000
0000
,
0010
0000
0000
0000
0100
0000
0000
0001
0000
0000
1000
0000
0010
0000
0100
0000
,
0001
0000
0000
0000
1000
0000
0000
0010
0000
0000
1000
0000
0100
0000
0010
0000
,
0100
0000
0000
0000
0010
0000
0000
0001
0000
0000
0100
0000
0010
0000
0100
0000
,
0001
0000
1000
0000
0100
0000
0000
0010
0000
0000
0100
0000
1000
0000
0010
0000
,
0100
0000
0010
0000
1000
0000
0000
0001
0000
0000
0100
0000
0010
0000
1000
0000
,
0100
0010
0001
1000
0000
0100
1100
0000
,
1002
0000
0103
0001
0020
0000
0130
1000
,
0100
0000
1000
0000
0001
0000
0010
0000
0200
0000
0000
0000
1300
0001
0000
0001
,
0200
0000
0310
0100
0002
0000
1003
0100
,
0001
0100
2000
0000
0000
0000
3010
0100
,
0010
1001
0001
0100
0020
0000
1030
0100
,
1000
0000
0010
0000
0100
0000
0001
0000
1000
0000
0001
0000
0100
0000
0000
0100
,
0000
0010
1000
0100
1000
0100
0010
0001
,
0010
0001
0100
0010
1000
0100
0001
0100
,
1000
0001
2002
0000
0000
0000
0000
0000
,
0000
0000
0000
3003
;

//---------------dance-single - ----------------
#NOTES:
     dance-single:
     :
     Easy:
     5:
     0.330928,0.373861,0.047437,0.126498,0.027671,271.000000,6.000000,16.000000,0.000000,0.000000,0.000000,0.330928,0.373861,0.047437,0.126498,0.027671,271.000000,6.000000,16.000000,0.000000,0.000000,0.000000:
0000
0000
0000
0000
,
0000
0000
0000
0000
,
0000
0000
0000
0000
,
0000
0000
0000
0000
,
0000
0000
0000
0000
,
0000
0000
0000
0000
,
0000
0000
0000
0000
,
0000
0000
0000
0000
,
0000
0000
0000
0000
,
0000
1000
0010
0100
,
0001
0010
0100
1000
,
0001
0100
0001
0000
0010
0000
0100
0000
,
1000
0010
0100
0010
,
1000
0001
0100
0000
0110
0000
1000
0001
,
1000
0001
1000
0000
0010
0000
0100
0000
,
0001
0010
0100
2000
,
3100
0010
0001
0100
,
0000
0010
0100
0001
,
0100
0010
1000
0100
,
1000
0100
0010
0000
0001
0000
1000
0000
,
0010
0100
0001
1000
,
0010
0100
0001
0000
1000
0000
0100
0000
,
0010
0100
1000
0001
,
2000
0000
3010
0000
0000
1001
0000
0000
,
0100
0020
0000
0000
,
0200
0330
1001
0010
,
0010
0000
0001
0100
1000
0000
1000
0100
,
0001
1000
0001
0100
,
0100
0000
0010
1000
0001
0000
0001
1000
,
0010
0100
0110
1000
,
0001
0000
1000
0010
0001
0000
0001
0010
,
2000
3100
0100
0100
,
0100
0000
0010
0000
0001
0000
1000
0001
,
1000
0100
0010
0001
,
1000
0010
0100
0001
,
0020
0000
0000
0000
0130
0000
0000
0100
0000
0000
1000
0000
0000
1000
0000
0000
,
0001
0000
0000
0001
0000
0000
0100
0000
0000
0100
0000
0000
0010
0000
0000
0010
,
1000
0001
0100
0001
,
0100
0010
1000
0001
,
0000
1000
0100
1000
,
0100
0010
0001
1000
,
0000
0010
0100
0010
,
1000
0001
0100
0010
,
0000
1000
0100
1000
,
0100
0010
0000
0000
,
0000
0000
0001
0000
1000
0000
0010
0100
,
0010
0000
1000
0000
0001
0000
0100
0010
,
0100
0000
0001
0000
1000
0000
0010
0100
,
0010
0000
1000
0000
0001
0000
0100
0010
,
0200
0000
0301
0000
1000
0000
0010
0100
,
0020
0000
1030
0000
0100
0010
0100
0010
,
0002
0000
0000
0000
1003
0000
0000
0001
0000
0000
1000
0000
0000
0001
0000
0000
,
1000
0000
0010
0000
0100
0000
0001
0010
,
0100
1000
0002
0000
0000
0000
0000
0000
,
0000
0000
0000
0003
,
0000
0000
1001
0000
0100
0000
0001
1000
,
0100
0000
0010
0000
0100
0000
1000
0010
,
0100
0000
0010
0000
1000
0000
0100
0010
,
0001
0000
1000
0000
0001
0000
0010
0001
,
0100
0000
0010
0000
1000
0000
0001
0100
,
0010
0000
1000
0000
0001
0000
0100
0010
,
1000
0000
0010
0000
0100
0000
0001
0100
,
0010
0000
1000
1000
0000
0100
0010
0000
,
1001
0010
2000
3001
,
0010
0100
1000
0000
0010
0000
0010
0100
,
0002
0000
0103
0000
0010
0000
1000
0100
,
0020
0000
0002
0000
0000
0033
1000
0100
,
1000
0001
1000
0000
0010
0000
0100
0000
,
0010
1000
0100
0000
0010
0000
0200
0000
,
0000
0300
0010
0000
0001
0000
1000
0000
,
0010
0000
0100
0000
0001
0000
1000
0100
,
0010
0001
0200
0000
0000
0000
0000
0000
,
0000
0000
0000
0300
;

//---------------dance-single - ----------------
#NOTES:
     dance-single:
     :
     Beginner:
     3:
     0.216854,0.258827,0.118592,0.229278,0.000000,148.000000,15.000000,29.000000,0.000000,0.000000,0.000000,0.216854,0.258827,0.118592,0.229278,0.000000,148.000000,15.000000,29.000000,0.000000,0.000000,0.000000:
0000
0000
0000
0000
,
0000
0100
0000
0000
,
0000
0000
0000
0000
,
0000
0001
0000
0000
,
0000
1000
0000
0000
,
0000
0100
0000
0000
,
0000
0000
0000
0000
,
0000
0020
0000
0000
,
0000
0000
0000
0030
,
0000
0100
0000
0010
,
0000
1000
0000
0001
,
0000
0010
0000
0001
,
0000
1000
0000
0100
,
0000
0010
0000
0200
,
0300
0100
0000
1000
,
0000
0001
0000
0020
,
0030
0010
0010
0010
,
0000
0100
0000
1000
,
0000
0001
0000
0100
,
0000
1000
0000
0100
,
0000
0001
0000
0010
,
0000
0100
0000
1000
,
0000
0010
0000
0100
,
0000
0001
0000
1000
,
0000
2002
0000
3003
,
0000
0110
0110
0000
,
0000
1000
0100
1000
,
0000
0101
0101
0000
,
0000
0010
0100
0010
,
0000
1001
1001
0000
,
0000
0100
0001
0100
,
0000
0020
0000
0030
,
0000
1000
0010
1000
,
0000
0002
0003
0200
,
0300
0020
0030
2000
,
3000
0200
0300
0020
,
0030
0002
0003
2000
,
3000
0010
0010
0010
,
0010
0010
0010
0010
,
0000
1000
1000
1000
,
1000
1000
1000
1000
,
0000
0001
0001
0001
,
0001
0001
0001
0001
,
0000
0100
0100
0100
,
0100
0200
0000
0300
,
0000
0010
0000
0010
,
0000
1000
0000
1000
,
0000
0001
0000
0001
,
0000
0100
0000
0100
,
0000
0010
0000
0100
,
0000
0001
0000
1000
,
1000
2002
0000
3003
,
0000
0220
0000
0330
,
0000
2002
0000
0000
,
0000
0000
0000
3003
,
0000
1001
0000
0010
,
1000
0001
0000
0010
,
0000
0100
0100
0100
,
0000
1000
1000
1000
,
0000
0010
0000
0100
,
0001
1000
0000
0100
,
0000
0010
0010
0010
,
0000
0110
0000
1001
,
0000
0001
0002
0003
,
0001
0100
0200
0300
,
2002
3003
0010
0000
,
1000
0020
0000
0030
,
0010
0010
0000
1000
,
0000
0001
1000
2000
,
3000
0100
0000
0100
,
0000
0010
0000
0001
,
1000
0220
0000
0000
,
0000
0000
0000
0330
;

//---------------dance-double - ----------------
#NOTES:
     dance-double:
     :
     Hard:
     10:
     0.507122,0.776482,0.150217,0.102780,0.517852,417.000000,19.000000,13.000000,0.000000,0.000000,0.000000,0.507122,0.776482,0.150217,0.102780,0.517852,417.000000,19.000000,13.000000,0.000000,0.000000,0.000000:
// measure 0
00000000
00000000
00000000
00000000
,  // measure 1
00000000
00000000
00000000
00000000
,  // measure 2
00000000
00000000
00000000
00000000
,  // measure 3
00000000
00000000
00000000
00000000
,  // measure 4
00000000
00000000
00000000
00000000
,  // measure 5
00000000
00000000
00000000
00000000
,  // measure 6
00000000
00000000
00000000
00000000
,  // measure 7
00000000
00000200
00000000
00000000
,  // measure 8
00000000
00000000
00000000
00000300
,  // measure 9
00000000
00000000
00001000
00000000
00000010
00000000
00000100
00000010
00010000
00000000
00000100
00000000
00010000
00001000
00010000
00001000
,  // measure 10
00100000
00000000
01000000
00000000
00100000
00000000
00010000
10000000
01000000
00000000
10000000
00000000
00010000
00100000
00010000
00100000
,  // measure 11
00001000
00000000
00010000
00000000
00000100
00000000
00000010
00000100
00010000
00000000
00001000
00000000
00100000
00001000
00010000
00001000
,  // measure 12
00100000
00000000
00010000
00000000
10000000
00000000
01000000
00100000
00001000
00000000
00010000
00000000
00000100
00000000
00000010
00000000
,  // measure 13
00000001
00000010
00001000
00000000
00001010
00000000
00001000
00000010
00000001
00000000
00000100
00000000
00001000
00000000
00001000
00000000
,  // measure 14
00001000
00000000
00001000
00000000
00010000
00000000
00001000
00000000
00100000
00000000
00010000
10000000
00010000
10000000
00010000
10000000
,  // measure 15
00100000
00000000
01000000
00000000
00020000
00000000
00100000
00000000
00130000
00001000
00010000
00000000
00000200
00000000
00000000
00000000
,  // measure 16
00000310
00000000
00000011
00000000
00001000
00000000
00001000
00000000
00000000
00000000
00000100
00000000
00010000
00001000
00000000
00001000
,  // measure 17
00000000
00000000
00010000
00000000
00001000
00000000
00100000
00000000
00010000
00000000
00010000
00100000
00000000
01000000
10000000
00000000
,  // measure 18
00010000
00000000
00100000
00000000
00101000
00000000
00010000
00000000
00000100
00000000
00000010
00000100
00000000
00001000
00000001
00000000
,  // measure 19
00000100
00000000
00000001
00000000
00000110
00000000
00001000
00000000
00000001
00000000
00000100
00001000
00000000
00010000
00100000
00000000
,  // measure 20
01000000
00000000
00010000
00000000
10100000
00000000
10000000
00000000
00010000
00000000
00100000
00001000
00000000
00001000
00010000
00001000
,  // measure 21
00010000
00000000
00000100
00000000
00000110
00000000
00000010
00000000
00000100
00000000
00001000
00000100
00000000
00000001
00000100
00000000
,  // measure 22
00001000
00000000
00000100
00000000
00010100
00000000
00001000
00000000
00100000
00000000
00010000
01000000
00000000
00100000
01000000
00000000
,  // measure 23
00020000
00000000
00000000
00000000
10030000
00000000
00000000
11000000
00000000
00000000
01010000
00000000
00000000
00011000
00000000
00000000
,  // measure 24
00000100
00000110
00000002
00000000
00000200
00000000
00000003
00000010
,  // measure 25
00000310
00000000
00000000
00000000
00001001
00000000
00000000
00000000
10010000
00000000
00000000
01000000
00000000
00010000
01000000
00000000
,  // measure 26
00100000
00000000
00000000
00000000
10000000
00000000
01000000
00000000
00100000
01000000
00000000
00100000
00010000
00100000
00010000
00100000
,  // measure 27
00001000
00000000
00010000
00000000
00001000
00000000
00000100
00000000
00000110
00000000
00000000
00000001
00000000
00001000
00000100
00000000
,  // measure 28
00010000
00000000
00000000
00000000
00001000
00000000
00100000
00000000
00010000
00100000
00010000
00100000
00001000
00010000
00001000
00010000
,  // measure 29
00000100
00000000
00010000
00000000
00000110
00000000
00000000
00000000
01100000
00000000
00000000
00010000
00000000
00100000
00001000
00000000
,  // measure 30
00010000
00000000
00000000
00000000
00000100
00000000
00000100
00000000
00000010
00000100
00000000
00000010
00000001
00001000
00000001
00001000
,  // measure 31
00000200
00010300
00010000
00010000
,  // measure 32
00010000
00000000
00000000
00000000
00001000
00000000
00010000
00000000
00001000
00000000
00010000
00000000
00001000
00100000
00001000
00100000
,  // measure 33
00020000
00000000
00000000
00000000
10030000
00000000
00000000
01000000
00000000
00000000
00100000
00000000
00000000
00010000
00000000
00000000
,  // measure 34
00001000
00000000
00000000
00000100
00000000
00000000
00000010
00000000
00000000
00000001
00000000
00000000
00000100
00000000
00000000
00000010
,  // measure 35
00001000
00000001
00001000
00000001
00000010
00000100
00000000
00000010
00000001
00000000
00000100
00001000
00000000
00010000
01000000
00000000
,  // measure 36
10000000
00100000
00000000
00010000
00100000
00000000
10000000
01000000
00000000
00100000
00001000
00000000
00010000
00000010
00000000
00000100
,  // measure 37
00000001
00000100
00000010
00000100
00000001
00000000
00000001
00000000
00000000
00000000
00000100
00000000
00000100
00000000
00000000
00000000
,  // measure 38
00000010
00000010
00000000
00001000
00001000
00000000
00000100
00000100
,  // measure 39
00000000
00010000
00010000
00000000
00001000
00001000
00000000
00100000
,  // measure 40
00100000
00000000
01000000
01000000
00000000
10000000
10000000
00000000
,  // measure 41
00000000
00000000
00010000
01000000
00010000
00000000
00010000
00000000
00000000
00000000
00100000
00000000
00100000
00000000
00000000
00000000
,  // measure 42
00001000
00001000
00000000
00000100
00000100
00000000
00000010
00000010
,  // measure 43
00000000
00001000
00001000
00000000
00000100
00000100
00000000
00000010
,  // measure 44
00000010
00002002
00000000
00000000
,  // measure 45
00003003
00000000
00000000
00000000
00000001
00001000
00000001
00001000
00000001
00001000
00000001
00001000
00000001
00001000
00000001
00001000
,  // measure 46
00000001
00000000
00000000
00000000
00010000
00001000
00010000
00001000
00010000
00001000
00010000
00001000
00010000
00001000
00010000
00001000
,  // measure 47
00100000
00000000
00000000
00000000
00010000
10000000
00010000
10000000
00010000
10000000
00010000
10000000
00010000
10000000
00010000
10000000
,  // measure 48
00100000
00000000
00000000
00000000
00010000
00001000
00010000
00001000
00010000
00001000
00010000
00001000
00010000
00001000
00010000
00001000
,  // measure 49
00010000
00000000
00000100
00000000
00000010
00000100
00000010
00000100
00000010
00000100
00000010
00000100
00000010
00000100
00000010
00000100
,  // measure 50
00001000
00000000
00001000
00000000
00000010
00000000
00010000
00000000
00001000
00000000
00100000
00010000
10000000
00010000
00100000
00000000
,  // measure 51
00010000
00000000
10000000
01000000
00100000
00000000
00100000
00001000
00000000
00001000
00010000
00000000
00010000
00000010
00000000
00000010
,  // measure 52
00000100
00000000
00000000
00000000
00000000
00000000
00001000
00000000
00000000
00000000
00000000
00000000
00000100
00000000
00000000
00000001
00000000
00000000
00000100
00000000
00000000
00000001
00000000
00000000
00001000
00000000
00000000
00000010
00000000
00000000
00001000
00000000
00000000
00000010
00000000
00000000
00010000
00000000
00001000
00000000
00010000
00000000
00001000
00000000
00010000
00000000
00001000
00000000
,  // measure 53
00010000
00001000
00010000
00001000
00010000
00001000
00020000
00000000
00000000
00000000
00000000
00000000
00000000
00000000
00000000
00000000
00000000
00000000
00000000
00000000
00000000
00000000
00000000
00000000
,  // measure 54
00000000
00000000
00000000
00030000
,  // measure 55
00000000
00000000
00000000
00000000
00011000
00000000
00001000
00100000
00000000
00100000
00010000
10000000
01000000
10000000
01000000
10000000
,  // measure 56
00010000
00000000
00100000
00000000
00001000
00000000
00010000
00001000
00000000
00001000
00010000
00000000
00000100
00000010
00000100
00000010
,  // measure 57
00000001
00000000
00000000
00000000
,  // measure 58
00000000
00000000
00000000
00000000
,  // measure 59
00000000
00000000
00000000
00000000
,  // measure 60
00000000
00000000
00000000
00000000
,  // measure 61
00000000
00000000
00000000
00000000
,  // measure 62
00000000
00000000
00000000
00000000
,  // measure 63
00000000
00000000
00000000
00000000
,  // measure 64
00000000
00000000
00000000
00000000
,  // measure 65
00000000
00000000
00000000
00000000
,  // measure 66
00000000
00000000
00000000
00000000
,  // measure 67
00000000
00000000
00000000
00000000
,  // measure 68
00000000
00000000
00000000
00000000
,  // measure 69
00000000
00000000
00000000
00000000
,  // measure 70
00000000
00000000
00000000
00000000
,  // measure 71
00000000
20020000
00000000
00000000
,  // measure 72
00000000
00000000
00000000
30030000
;
