#VERSION:0.82;
#TITLE:I know You know;
#SUBTITLE:;
#ARTIST:Suke+Suke feat. Ribbon;
#TITLETRANSLIT:;
#SUBTITLETRANSLIT:;
#ARTISTTRANSLIT:;
#GENRE:New 80's;
#ORIGIN:;
#CREDIT:;
#BANNER:I know You know-bn.png;
#BACKGROUND:I know You know-bg.png;
#PREVIEWVID:;
#JACKET:I know You know-jk.png;
#CDIMAGE:;
#DISCIMAGE:;
#LYRICSPATH:;
#CDTITLE:;
#MUSIC:I know You know.ogg;
#OFFSET:-0.103000;
#SAMPLESTART:43.567883;
#SAMPLELENGTH:14.117645;
#SELECTABLE:YES;
#BPMS:0.000=136.000;
#STOPS:;
#DELAYS:;
#WARPS:;
#TIMESIGNATURES:0.000=4=4;
#TICKCOUNTS:0.000=4;
#COMBOS:0.000=1;
#SPEEDS:0.000=1.000=0.000=0;
#SCROLLS:0.000=1.000;
#FAKES:;
#LABELS:0.000=Song Start;
#BGCHANGES:;
#KEYSOUNDS:;
#ATTACKS:
;

//---------------dance-single - ----------------
#NOTEDATA:;
#CHARTNAME:;
#STEPSTYPE:dance-single;
#DESCRIPTION:;
#CHARTSTYLE:;
#DIFFICULTY:Hard;
#METER:8;
#RADARVALUES:0.549460,0.541388,0.115058,0.550634,0.131495,387.000000,14.000000,67.000000,0.000000,0.000000,0.000000,0.000000,0.000000,0.549460,0.541388,0.115058,0.550634,0.131495,387.000000,14.000000,67.000000,0.000000,0.000000,0.000000,0.000000,0.000000;
#CREDIT:DJ OMiY;
#NOTES:
// measure 0
0000
0000
0000
0000
,  // measure 1
0000
0000
0000
0000
,  // measure 2
0000
0000
0000
0000
,  // measure 3
0000
0000
0000
0000
,  // measure 4
0000
0000
0000
0000
,  // measure 5
1000
0100
0001
0100
1000
0000
1000
0100
,  // measure 6
0001
0000
0100
0000
1000
0000
0000
0000
0001
0000
0000
0100
0000
0000
0001
0000
,  // measure 7
0010
0100
0100
0000
1000
0001
1000
0020
,  // measure 8
0000
0000
0000
0130
0000
0000
0001
0000
0000
1000
0001
1000
0001
0000
0000
1000
0000
0000
0200
0000
0000
0000
0000
0000
,  // measure 9
0310
0010
0001
0001
1000
1000
0001
0001
,  // measure 10
0100
0100
0010
0010
1000
0001
0000
0010
,  // measure 11
0100
1000
0100
0010
0200
0000
1300
0001
,  // measure 12
0000
0100
0000
0001
0000
0010
0000
0100
,  // measure 13
1000
1000
0001
0001
0010
0010
0100
0100
,  // measure 14
0010
0010
0001
0001
1000
1000
0000
0010
,  // measure 15
0200
0000
0301
0020
0000
0230
0000
1300
,  // measure 16
0000
0001
0001
0100
0001
0010
0100
1000
,  // measure 17
0001
0000
1100
0000
0101
0000
1000
0100
,  // measure 18
0000
0100
1000
0001
0100
0001
0010
0100
,  // measure 19
1000
0000
0011
0000
1010
0000
0100
0001
,  // measure 20
0000
0001
0100
0010
0000
1000
1000
0100
,  // measure 21
0010
0001
0100
0000
1010
1000
0000
0001
,  // measure 22
0010
0000
0110
0100
0010
0001
1000
0001
,  // measure 23
0200
0000
0310
2000
0000
3200
0000
0310
,  // measure 24
0001
0000
1000
0000
1000
0000
0001
0000
0100
0000
0000
0001
1000
0000
0010
0100
,  // measure 25
0010
1000
0100
0010
0001
0100
0010
2000
,  // measure 26
0000
3002
0000
0023
0000
0130
0100
0100
,  // measure 27
0010
0001
0100
0010
1000
0100
0010
0002
,  // measure 28
0000
0203
0000
0302
0000
0013
0100
1000
,  // measure 29
0000
0010
0100
1000
0000
0100
0010
0001
,  // measure 30
0000
0100
0010
0001
0000
2000
0000
0002
,  // measure 31
0000
0000
0000
0000
3003
0000
0010
0200
,  // measure 32
0000
0000
0310
0000
1000
0000
0010
0000
0100
0000
0001
1000
0200
0000
1300
0000
,  // measure 33
0001
0010
0100
0010
0001
0100
1000
0200
,  // measure 34
0000
0302
0000
0023
0000
0130
0100
0100
,  // measure 35
1000
0010
1000
0001
0010
0100
0010
0002
,  // measure 36
0000
2003
0000
3200
0000
0310
0100
1000
,  // measure 37
0002
0000
0000
0023
0000
0030
0220
0000
0000
0000
0330
0000
0001
0000
1000
0000
,  // measure 38
0200
0000
0000
2300
0000
3000
2002
0000
0000
0000
3003
0000
0100
0000
0000
0000
,  // measure 39
0020
0000
0030
0020
0000
0030
0020
0000
0000
0000
1030
0000
0100
0000
0020
0000
,  // measure 40
0000
0001
0031
1000
0001
0100
0001
1000
,  // measure 41
0001
0000
1000
0000
0001
0000
0000
0010
0000
0100
0000
0000
1000
0000
0000
0100
,  // measure 42
0000
0010
0000
0000
0001
0000
0100
0000
1000
0000
0100
0000
0001
0000
1000
0000
,  // measure 43
0001
0000
0000
0000
0001
0000
0100
0000
0000
0000
0100
0000
0010
0000
0000
0000
0010
0000
1000
0000
0000
0001
0000
0000
,  // measure 44
0010
0001
0100
0010
0100
1000
0100
0001
,  // measure 45
1000
0000
0000
0010
0000
0000
0100
0010
0000
1000
0000
0100
0000
1000
0001
0000
,  // measure 46
0020
0000
0000
0000
0000
0000
0030
0000
0000
0001
0000
0000
0100
0000
0000
0000
0001
0000
1000
0000
0000
0000
1000
0000
,  // measure 47
0020
0000
0100
0000
0130
0001
1000
2002
,  // measure 48
0000
0000
3003
1000
0000
0001
1000
0000
0010
0000
0000
0010
1000
0000
1000
0001
,  // measure 49
0010
0001
1000
0001
0100
1000
0100
0002
,  // measure 50
0000
2003
0000
3200
0000
0310
0010
0010
,  // measure 51
0001
0010
0100
1000
0100
0010
0001
2000
,  // measure 52
0000
3020
0000
0032
0000
0013
0100
0001
,  // measure 53
0020
0000
0000
0032
0000
0003
2200
0000
0000
0000
3300
0000
1000
0000
0010
0000
,  // measure 54
2000
0000
0000
3020
0000
0030
0202
0000
0000
0000
0303
0000
1000
0000
0001
0000
,  // measure 55
0020
0000
0030
0020
0000
0030
0020
0000
0000
0000
0031
0000
1000
0000
0020
0000
,  // measure 56
0000
0000
0030
0000
0000
0000
0000
0000
0100
0000
0002
0000
0103
0000
0010
1000
,  // measure 57
0001
0100
1000
0100
0001
0000
0001
0100
,  // measure 58
1000
0100
0001
0000
1000
0010
1010
0000
,  // measure 59
1000
0100
0001
0100
1000
0000
1000
0100
,  // measure 60
0001
0200
0000
2300
0000
3020
0100
0130
,  // measure 61
0001
0010
1000
0010
0001
0000
0001
0010
,  // measure 62
1000
0000
0010
0000
0001
0000
0000
0000
1000
0000
0000
0100
0000
0000
0010
0000
,  // measure 63
0200
1000
1300
0001
0100
0000
0010
0110
,  // measure 64
0010
0000
1000
0002
1003
0100
0020
0031
,  // measure 65
1020
0000
0000
0000
0000
0001
0000
0130
;

//---------------dance-single - ----------------
#NOTEDATA:;
#CHARTNAME:;
#STEPSTYPE:dance-single;
#DESCRIPTION:;
#CHARTSTYLE:;
#DIFFICULTY:Challenge;
#METER:10;
#RADARVALUES:0.759616,0.730874,0.328736,0.665691,0.505432,526.000000,40.000000,81.000000,0.000000,0.000000,0.000000,0.000000,0.000000,0.759616,0.730874,0.328736,0.665691,0.505432,526.000000,40.000000,81.000000,0.000000,0.000000,0.000000,0.000000,0.000000;
#CREDIT:DJ OMiY;
#NOTES:
// measure 0
0000
0000
0000
0000
,  // measure 1
0000
0000
0000
0000
,  // measure 2
0000
0000
0000
0000
,  // measure 3
0000
0000
0000
0000
,  // measure 4
0000
0000
0000
0000
,  // measure 5
1100
1000
0001
0100
0010
0100
0001
1000
,  // measure 6
0001
0000
0001
0000
0001
0000
0010
0000
0100
0000
0100
0010
0000
0010
0001
0000
,  // measure 7
1000
0010
0100
0001
1000
0100
0010
0110
,  // measure 8
0000
0000
0000
0000
0000
0000
1001
0000
0000
0000
0000
0000
1000
0000
0000
0000
0000
0000
0001
0000
0100
0000
0001
0000
0100
0000
0000
0010
0000
0000
1000
0000
0000
0000
0000
0000
0001
0000
1000
0000
0001
0000
1000
0000
0000
0000
0000
0000
,  // measure 9
0100
0100
0010
0010
0001
0001
0100
0100
,  // measure 10
1000
0000
1000
0000
0100
0000
0200
0000
0302
0000
0203
0000
0310
1000
0001
1000
,  // measure 11
0100
1000
0001
0100
0010
0010
1000
0001
,  // measure 12
0000
0000
0010
0001
0010
0001
1000
0001
1000
0100
1000
0001
0100
0010
1000
0001
,  // measure 13
1000
1000
0010
0010
1000
1000
0100
0100
,  // measure 14
0010
0010
0001
0002
0203
0302
1003
0100
,  // measure 15
0010
0001
0100
2000
0000
3200
0000
0302
,  // measure 16
1003
0000
0101
0000
0100
0000
0100
0000
0110
0000
1000
0001
1000
0000
0010
0000
,  // measure 17
0200
0301
0200
0310
0200
0301
1000
0001
,  // measure 18
0010
0000
0001
0000
1000
0000
0100
1000
0100
0000
0010
0000
0001
0000
0100
0000
,  // measure 19
0002
0013
0002
0103
0002
0013
0100
2000
,  // measure 20
3010
0000
0100
0000
0001
0000
0010
0100
0010
0000
0100
0000
1000
0000
0010
0000
,  // measure 21
0110
1000
0001
1000
0001
0100
0010
0002
,  // measure 22
0013
0000
0000
1000
0000
0000
0001
0000
0000
0010
0100
0010
0100
0000
0000
1000
0000
0000
0001
0000
0000
1000
0000
0000
,  // measure 23
1100
0000
0001
0202
0303
2002
3003
0220
,  // measure 24
0300
0000
0000
0000
0000
0000
1030
0000
0000
0000
0001
0000
1000
0000
0000
0000
0001
0000
1000
0000
0000
0000
0000
0000
0020
0000
0000
0000
0000
0000
0000
0000
0030
1000
0000
0000
0100
0000
0000
0000
0000
0000
0010
0000
0000
0100
0000
0000
,  // measure 25
1000
0001
0001
1000
1000
0010
0100
2020
,  // measure 26
3030
0220
0330
0202
0303
1000
1000
1000
,  // measure 27
0001
0010
0001
1000
0100
0010
0001
0202
,  // measure 28
0303
2002
3003
2200
3300
0010
0100
1000
,  // measure 29
0010
0001
0010
1000
0100
0001
0100
1000
,  // measure 30
0010
0001
0010
1000
0001
1000
0100
0010
,  // measure 31
0001
0000
1000
0010
0100
0000
0001
0100
0010
0000
1000
0100
0010
0000
0002
0000
,  // measure 32
0000
0000
0000
0000
0000
0000
0100
0000
0000
0000
0000
0000
0100
0000
0000
0000
0000
0000
1000
0000
0000
0000
0000
0000
1003
0000
0000
0000
0000
0000
0001
0000
0000
1000
0000
0000
0001
0000
0010
0000
0001
0000
0010
0000
0000
0100
0000
0000
,  // measure 33
1000
0010
0100
0001
0010
0100
0010
2002
,  // measure 34
3003
0220
0330
2002
3003
0010
0010
0010
,  // measure 35
1000
0001
1000
0100
0010
0001
1000
2020
,  // measure 36
3030
0000
0220
0000
0330
0000
0202
0000
0303
1000
0001
0100
0001
0000
0010
0000
,  // measure 37
0100
0000
0100
0010
0000
0000
0011
0000
0000
0000
0001
0000
1001
0000
1000
0000
,  // measure 38
0010
0000
0010
1000
0000
0000
1100
0000
0000
0000
1000
0000
1001
0000
0000
0000
,  // measure 39
0100
0000
0001
1000
0001
1000
0100
0000
0010
0000
0100
0000
0100
0000
0220
0000
,  // measure 40
0330
0000
0000
0000
0000
0000
1000
0000
0000
0000
0000
0000
0001
0000
0000
0000
0000
0000
0100
0000
0000
0000
0000
0000
0001
0000
0000
0100
0000
0000
0001
0000
0000
1000
0000
0000
0001
0000
0010
0000
0100
0000
1000
0000
0100
0000
0010
0000
,  // measure 41
0001
0000
1000
0000
0010
0000
0100
0002
0000
2003
0000
3000
0100
0000
1000
0020
,  // measure 42
0000
0230
0000
0301
0100
0001
0100
0010
1000
0001
1000
0100
0010
0001
1000
0100
,  // measure 43
1000
0000
0000
0010
0000
1000
0000
0100
0000
0010
0000
0001
0000
1000
0000
0010
0000
1000
0000
0010
0000
0200
0000
0000
,  // measure 44
0301
0000
0000
0000
0000
0000
0010
0000
0000
0001
0000
0000
0010
0000
0000
0001
0000
0000
1000
0000
0001
0000
1000
0000
0001
0000
0000
0000
0000
0000
0100
0000
0000
0000
0000
0000
0110
0000
0000
0000
0000
0000
1000
0000
0000
0000
0000
0000
,  // measure 45
0001
0000
0100
0001
0000
1000
0001
0100
0000
0010
0000
1000
0000
0100
1000
0100
,  // measure 46
0020
0000
0000
0000
0000
0000
0030
0000
0000
0001
0100
0001
0100
0000
0010
0000
1000
0000
0100
0000
0010
0000
0001
0000
,  // measure 47
0200
0000
0000
0000
0000
0000
0000
0000
0000
0000
0000
0000
0010
0000
0000
0000
0000
0000
0000
0000
0000
0000
0000
0000
0310
0000
0000
0000
0000
0000
1000
0000
0100
0000
0010
0000
0001
0000
0000
1000
0000
0000
0002
0000
0000
0000
0000
0000
,  // measure 48
0000
0000
0000
0103
0000
0100
0001
0000
2000
0000
3000
0001
0100
0000
0010
0100
,  // measure 49
0010
1000
0100
1000
0001
0010
0100
2002
,  // measure 50
3003
0220
0330
2002
3003
0100
0100
0100
,  // measure 51
0001
1000
0010
1000
0100
1000
0001
0022
,  // measure 52
0033
0000
2002
0000
3003
0000
2200
0000
3300
0001
0010
0001
1000
0000
0001
0000
,  // measure 53
0010
0000
0010
0100
0000
0000
1100
0000
0000
0000
0001
0000
1001
0000
0100
0000
,  // measure 54
0010
0000
0010
1000
0000
0000
0101
0000
0000
0000
1000
0000
1001
0000
0000
0000
,  // measure 55
0020
0000
0000
2030
0000
0000
3200
0000
0000
0000
0300
0000
0010
0000
0011
0000
,  // measure 56
0000
0000
0000
0000
0000
0000
0000
0000
0000
0000
1000
0000
0000
0000
0000
0000
1000
0000
0001
0000
0000
0000
0000
0000
0100
0000
0000
0000
0000
0000
0001
0000
1000
0000
0001
0000
0100
0000
0000
0000
0000
0000
0010
0000
0000
0100
0000
0000
,  // measure 57
0010
0000
1000
0100
0000
0100
1000
0000
0001
0000
0100
0001
0000
0000
1000
0001
,  // measure 58
0000
0100
0010
0100
0010
0000
1000
0000
0001
0010
0000
0200
0000
0300
1000
0000
,  // measure 59
0010
0100
0001
0000
1000
0000
0001
0000
0010
0000
0100
0010
0000
0000
0001
0000
,  // measure 60
0100
0100
1000
0100
0002
2003
3020
0130
,  // measure 61
0101
0000
0001
1000
0000
1000
0001
0000
0010
0000
0001
0100
0000
0000
0010
1000
,  // measure 62
0000
1000
0010
0100
0010
0000
1000
0000
0001
1000
0000
0200
0000
0300
1000
0000
,  // measure 63
0010
0100
0010
0000
1000
0000
0001
0000
0100
0000
0001
0010
0000
0001
1000
0001
,  // measure 64
0100
0000
0000
0100
0000
0001
0100
0000
0001
1000
0001
1000
0001
0000
0000
0100
0000
0000
0010
0100
0010
1000
0000
0000
,  // measure 65
0020
0000
0000
0000
0000
0100
0000
0031
;

//---------------dance-single - ----------------
#NOTEDATA:;
#CHARTNAME:;
#STEPSTYPE:dance-single;
#DESCRIPTION:;
#CHARTSTYLE:;
#DIFFICULTY:Medium;
#METER:5;
#RADARVALUES:0.408572,0.406041,0.098621,0.484886,0.032874,277.000000,12.000000,59.000000,0.000000,0.000000,0.000000,0.000000,0.000000,0.408572,0.406041,0.098621,0.484886,0.032874,277.000000,12.000000,59.000000,0.000000,0.000000,0.000000,0.000000,0.000000;
#CREDIT:DJ OMiY;
#NOTES:
// measure 0
0000
0000
0000
0000
,  // measure 1
0000
0000
0000
0000
,  // measure 2
0000
0000
0000
0000
,  // measure 3
0000
0000
0000
0000
,  // measure 4
0000
0000
0000
0000
,  // measure 5
0010
1000
0100
0010
0001
0000
0010
1000
,  // measure 6
0100
0010
0001
0000
1000
0000
0101
0000
,  // measure 7
1000
0000
0010
0000
0100
0000
0001
2000
,  // measure 8
0000
0000
0000
3000
0200
0010
0310
0010
,  // measure 9
0200
2300
3020
0230
,  // measure 10
0301
0100
0001
1000
0010
0000
0100
0000
,  // measure 11
0001
0010
0100
0000
0010
0000
0002
2000
,  // measure 12
0000
0000
0000
0000
3003
0000
0010
1000
,  // measure 13
0002
0023
0230
2300
,  // measure 14
3010
1000
0100
0010
0001
1000
0000
0000
,  // measure 15
0010
0000
1000
0200
0000
0310
0000
2002
,  // measure 16
0000
0000
0000
0000
3003
0001
0100
0010
,  // measure 17
0100
0000
0100
0000
0100
0000
0010
1000
,  // measure 18
0000
0100
0010
0001
0000
1000
0010
1000
,  // measure 19
0001
0000
0001
0000
0001
0000
0010
0100
,  // measure 20
0000
0010
0001
1000
0000
0000
0010
0000
,  // measure 21
1000
0100
1000
0000
0002
0000
0003
0100
,  // measure 22
0000
0010
0100
0001
0000
0000
0010
0100
,  // measure 23
1000
0000
0000
0002
0000
0203
0000
0320
,  // measure 24
0000
0000
0000
2030
0000
0001
3001
1000
,  // measure 25
0100
0000
0010
0000
0100
0000
1000
0002
,  // measure 26
0000
0203
0000
0302
0000
0013
0100
1000
,  // measure 27
0010
0000
1000
0000
0010
0000
0100
0020
,  // measure 28
0000
2030
0000
3200
0000
0310
0000
0001
,  // measure 29
0000
0010
0000
1000
0000
0010
0000
0001
,  // measure 30
0000
0010
0000
0100
0000
1001
0000
2002
,  // measure 31
0000
0000
0000
0000
3003
0000
0100
0010
,  // measure 32
0000
0010
0100
0000
0001
1000
0001
1000
,  // measure 33
0010
0000
0100
0000
0001
0000
1000
0020
,  // measure 34
0000
2030
0000
3002
0000
0103
0010
0100
,  // measure 35
0001
0000
1000
0000
0100
0000
0010
0002
,  // measure 36
0000
0023
0000
0230
0000
0300
1000
0000
,  // measure 37
0101
0000
0000
0001
0000
0000
0002
0000
0000
0000
0000
0000
0003
0000
0000
0000
,  // measure 38
1100
0000
0000
1000
0000
0000
2000
0000
0000
0000
0000
0000
3000
0000
0000
0000
,  // measure 39
0010
0000
0000
0100
0000
0000
0020
0000
0000
0000
0000
0000
0000
0000
2000
0000
,  // measure 40
0000
0000
3030
0000
0010
1000
0001
0010
,  // measure 41
0100
0100
1000
0010
,  // measure 42
0001
0100
1000
0001
,  // measure 43
0010
0002
0000
2003
0000
3200
0000
0310
,  // measure 44
0100
0000
1000
0000
0010
0100
0110
0000
,  // measure 45
1000
0000
0001
0000
0010
0001
1000
0000
,  // measure 46
0020
0000
0000
1030
0000
0000
0001
0000
0001
1000
0000
1000
,  // measure 47
0002
0000
0000
0000
0003
0010
0001
0220
,  // measure 48
0000
0000
0000
0330
1000
0100
0010
0001
,  // measure 49
1000
0000
0001
0000
0100
0000
0001
0020
,  // measure 50
0000
0230
0000
2300
0000
3010
0100
0010
,  // measure 51
1000
0000
0001
0000
1000
0000
0100
2000
,  // measure 52
0000
3002
0000
0203
0000
0301
0010
0000
,  // measure 53
1001
0000
0000
1000
0000
0000
2000
0000
0000
0000
0000
0000
3000
0000
0000
0000
,  // measure 54
0110
0000
0000
0010
0000
0000
0020
0000
0000
0000
0000
0000
0030
0000
0000
0000
,  // measure 55
0100
0000
0000
0100
0000
0000
0002
0000
0000
0000
0000
0000
0100
0000
2000
0000
,  // measure 56
0000
0000
0000
3003
0001
0001
0100
0000
,  // measure 57
0010
1000
0100
0010
0001
0000
0010
1000
,  // measure 58
0100
0010
0001
0000
1000
0000
0101
0000
,  // measure 59
0010
0001
0100
0010
2000
0000
3000
0001
,  // measure 60
0100
0010
0000
0010
0000
0100
0000
0010
,  // measure 61
0000
1000
0100
0010
0001
0000
0001
1000
,  // measure 62
0100
0010
0001
0000
0100
0000
0110
0000
,  // measure 63
0020
0000
0000
0000
1030
0000
0001
0200
,  // measure 64
0000
0000
0010
0000
0310
0000
1000
0001
,  // measure 65
2000
0000
0000
0000
0000
0010
0000
3001
;

//---------------dance-single - ----------------
#NOTEDATA:;
#CHARTNAME:;
#STEPSTYPE:dance-single;
#DESCRIPTION:;
#CHARTSTYLE:;
#DIFFICULTY:Easy;
#METER:3;
#RADARVALUES:0.254771,0.378972,0.073966,0.394484,0.000000,160.000000,9.000000,48.000000,0.000000,0.000000,0.000000,0.000000,0.000000,0.254771,0.378972,0.073966,0.394484,0.000000,160.000000,9.000000,48.000000,0.000000,0.000000,0.000000,0.000000,0.000000;
#CREDIT:DJ OMiY;
#NOTES:
0000
0000
0000
0000
,
0000
0000
0000
0000
,
0000
0000
0000
0000
,
0000
0000
0000
0000
,
0000
0000
0000
0000
,
1000
0001
0000
1001
,
0010
0010
0200
0300
,
1000
0000
0010
0200
,
0000
0000
0301
0000
,
0010
0010
0001
0001
,
1000
1000
0010
0000
,
0200
0000
0302
0000
,
2000
0000
3003
0000
,
0100
0100
1000
1000
,
0001
0001
0100
0000
,
0020
0000
2030
0000
,
0002
0000
3003
0010
,
0200
0010
0310
0000
,
1000
0001
0010
0000
,
0002
0100
0103
0000
,
0010
1000
0100
0000
,
1000
0000
1000
0000
,
0100
0010
0001
0000
,
0200
0000
0302
0000
,
0023
0000
0100
0130
,
1000
0001
0010
0000
,
1000
0100
0001
0000
,
0100
0010
1000
0000
,
0001
0010
0100
2000
,
3000
0002
0003
0200
,
0300
0020
0030
2002
,
0000
3003
0000
0200
,
0300
0020
0030
1000
,
0001
0010
0001
0000
,
0100
0010
1000
0000
,
0010
1000
0100
0000
,
0001
0010
1000
0000
,
0002
0000
0103
0000
,
2000
0000
3010
0000
,
2002
0000
0000
3003
,
0220
0000
0330
1000
,
0002
0003
0020
0030
,
0200
0300
1000
0100
,
1000
1000
1000
1000
,
0010
0100
0002
0003
,
0010
0001
0100
0000
,
0020
0030
2000
3002
,
2003
3000
1010
0202
,
0000
0303
1000
0001
,
0010
0100
1000
0000
,
0010
0100
0001
0000
,
0010
0001
0100
0000
,
1000
0010
0001
0000
,
0002
0000
0013
0000
,
2000
0000
3100
0000
,
2002
0000
0000
3003
,
0220
0330
0001
1000
,
0010
0010
0100
0000
,
0010
0100
0001
0001
,
0100
0001
1000
0000
,
0020
0030
2000
3000
,
0100
0010
0001
0000
,
0100
1000
0200
0300
,
0001
0000
1000
0100
,
0010
0000
0001
1000
,
0220
0000
0000
0000
0000
0000
0000
0330
;

//---------------dance-single - ----------------
#NOTEDATA:;
#CHARTNAME:;
#STEPSTYPE:dance-single;
#DESCRIPTION:;
#CHARTSTYLE:;
#DIFFICULTY:Beginner;
#METER:1;
#RADARVALUES:0.156150,0.216555,0.032874,0.156150,0.000000,110.000000,4.000000,19.000000,0.000000,0.000000,0.000000,0.000000,0.000000,0.156150,0.216555,0.032874,0.156150,0.000000,110.000000,4.000000,19.000000,0.000000,0.000000,0.000000,0.000000,0.000000;
#CREDIT:;
#NOTES:
0000
0000
0000
0000
,
0000
0000
0000
0000
,
0000
0000
0000
0000
,
0000
0000
0000
0000
,
0000
0000
0000
0000
,
0000
0010
0010
0000
,
0010
0010
0020
0030
,
1000
0000
0000
0001
,
0000
0000
0010
0000
,
0100
0100
0100
0100
,
0100
0100
0100
0000
,
1000
0000
0001
0000
,
1000
0000
0000
0000
,
0010
0010
0010
0010
,
0010
0010
0010
0000
,
0100
0000
0001
0000
,
0010
0000
0000
0000
,
0100
0000
1000
0000
,
0001
0001
0000
0100
,
0100
0000
0010
0000
,
1000
1000
0000
0001
,
0001
0000
0000
0000
,
0100
0000
0000
0000
,
0010
0000
0000
0000
,
1000
0000
0000
0000
,
1001
0000
0010
0000
,
0001
0000
0000
0000
,
1000
0000
0010
0000
,
0100
0000
0000
0001
,
0000
0001
0000
1000
,
0000
1000
0000
2002
,
0000
0000
0000
0000
0000
0000
0000
3003
,
0000
0000
0000
0010
,
0010
0000
0100
0000
,
0001
0000
0000
0000
,
0010
0000
0100
0000
,
1000
0000
0000
0000
,
0020
0000
0030
0000
,
2000
0000
3000
0000
,
0002
0000
0000
0000
0000
0000
0000
0003
,
0000
0000
0010
0010
,
0010
0000
0100
0000
,
1000
0000
0001
0000
,
0200
0000
0300
0100
,
0100
0000
0010
0010
,
0010
0000
1000
0000
,
0001
0000
0010
0010
,
0010
0000
1000
0000
,
2002
0000
3003
1001
,
0001
0000
0100
0000
,
0020
0000
0030
0000
,
2000
3000
0002
0003
,
0200
0000
0300
0000
,
0020
0000
0030
0000
,
2000
0000
3000
0000
,
0200
0000
0300
0000
,
0020
0000
0000
0030
,
0000
0001
0001
0000
,
1000
1000
0000
0000
,
0000
0100
0100
0000
,
0010
0000
0001
0000
,
0000
1000
1000
0000
,
0010
0010
0020
0030
,
0010
0000
0000
0100
,
0000
0000
0001
0000
,
2000
0000
0000
0000
0000
0000
0000
3000
;
