#VERSION:0.81;
#TITLE:Gossip Girls;
#SUBTITLE:;
#ARTIST:GIRLS' GENERATION;
#TITLETRANSLIT:;
#SUBTITLETRANSLIT:;
#ARTISTTRANSLIT:;
#GENRE:Clash House;
#ORIGIN:;
#CREDIT:;
#BANNER:Gossip Girls-bn.png;
#BACKGROUND:Gossip Girls-bg.png;
#PREVIEWVID:;
#JACKET:Gossip Girls-jk.png;
#CDIMAGE:;
#DISCIMAGE:;
#LYRICSPATH:;
#CDTITLE:;
#MUSIC:Gossip Girls.mp3;
#OFFSET:-0.037000;
#SAMPLESTART:56.242218;
#SAMPLELENGTH:21.333332;
#SELECTABLE:YES;
#DISPLAYBPM:135.000000;
#BPMS:0.000=135.000,
120.000=270.000,
121.000=135.000;
#STOPS:120.000=0.222;
#DELAYS:;
#WARPS:;
#TIMESIGNATURES:0.000=4=4;
#TICKCOUNTS:0.000=4;
#COMBOS:0.000=1;
#SPEEDS:0.000=1.000=0.000=0;
#SCROLLS:0.000=1.000,
120.000=0.500,
121.000=1.000;
#FAKES:;
#LABELS:0.000=Song Start,
303.000=Song End;
#BGCHANGES:;
#KEYSOUNDS:;
#ATTACKS:
;

//---------------dance-single - ----------------
#NOTEDATA:;
#CHARTNAME:;
#STEPSTYPE:dance-single;
#DESCRIPTION:;
#CHARTSTYLE:;
#DIFFICULTY:Hard;
#METER:8;
#RADARVALUES:0.566058,0.497490,0.350268,0.313782,0.244458,452.000000,48.000000,43.000000,0.000000,0.000000,0.000000,0.000000,0.000000,0.566058,0.497490,0.350268,0.313782,0.244458,452.000000,48.000000,43.000000,0.000000,0.000000,0.000000,0.000000,0.000000;
#CREDIT:DJ OMiY;
#DISPLAYBPM:135.000000;
#NOTES:
// measure 0
0000
0000
0000
0000
,  // measure 1
0000
0000
0000
0000
,  // measure 2
0000
0000
0000
0000
,  // measure 3
0000
0000
0000
0000
,  // measure 4
1000
0000
0001
0100
0000
0000
0010
0000
1000
0000
1000
0000
0001
0000
0001
0000
,  // measure 5
0010
0000
0100
0010
0000
0000
0001
0000
1000
0000
1000
0000
0001
0000
0001
0000
,  // measure 6
1000
0000
0010
0100
0000
0000
0001
0000
0001
0000
0010
0000
0010
0000
0100
0000
,  // measure 7
1000
0000
0010
1000
0000
0000
0100
0000
0100
0000
0010
0000
0010
0000
0001
0000
,  // measure 8
0101
0000
0000
0000
0000
0000
0001
0000
0001
0000
1000
0001
0000
0000
1000
0000
,  // measure 9
1100
0000
0000
0000
0000
0000
1000
0000
1000
0000
0001
0100
0000
0000
0010
0000
,  // measure 10
0110
0000
0000
0000
0000
0000
0010
0000
0010
0000
1000
0010
1000
0000
0000
0000
,  // measure 11
0001
0000
0100
0000
0010
0000
1000
0100
,  // measure 12
1100
0000
0000
0000
0010
0000
0010
0000
1000
0000
1000
0001
0000
0000
0100
0000
,  // measure 13
0101
0000
0000
0000
0100
0000
0100
0000
0010
0000
0010
1000
0000
0000
0001
0000
,  // measure 14
0011
0000
0000
0000
1000
0000
1000
0000
0001
0000
0001
0010
0001
0000
2000
0000
,  // measure 15
0200
0000
0000
3300
,  // measure 16
1001
0000
0000
0000
0000
0000
0101
0000
0000
0000
1000
0001
1000
0000
0100
0000
,  // measure 17
0110
0000
0000
0000
0000
0000
0011
0000
0000
0000
0001
1000
0001
0000
0010
0000
,  // measure 18
0110
0000
0000
1001
0000
1000
0001
1000
,  // measure 19
0100
0001
0001
0100
1000
0000
1001
0000
,  // measure 20
0110
0000
0000
0000
0000
0000
1010
0000
0000
0000
0001
0010
0001
0000
1000
0000
,  // measure 21
1100
0000
0000
0000
0000
0000
0011
0000
0000
0000
0010
0100
0010
0000
0100
0000
,  // measure 22
1100
0000
0000
0110
0000
0001
1000
0001
,  // measure 23
0100
0000
1000
0000
1000
0000
0100
0000
0001
0000
0000
0000
1000
0001
1000
0001
,  // measure 24
1000
0000
0010
0000
1000
0000
0100
0000
1000
0000
0000
1000
0010
0000
0100
0000
,  // measure 25
0001
0000
0010
0000
0001
0000
0100
0000
0001
0000
0000
0001
1000
0000
0010
0000
,  // measure 26
0100
0000
0100
0000
0001
0000
0001
0000
1000
0000
1000
0100
0000
0000
0010
0000
,  // measure 27
0100
0000
0100
0000
1000
0000
1000
0000
0001
0000
0001
0010
0000
0000
0100
0000
,  // measure 28
1000
0000
0010
0000
0100
0000
0010
0000
1000
0000
0001
0100
0001
0000
1000
0000
,  // measure 29
0010
0000
1000
0000
0001
0000
1000
0000
0100
0000
0010
0100
0010
0000
0001
0000
,  // measure 30
1001
0000
0001
0010
1000
0000
0001
0100
,  // measure 31
1000
0000
0001
0000
1000
0000
0000
0000
0010
0000
0100
0000
0001
1000
0001
1000
,  // measure 32
0001
0000
0000
0101
0000
0000
1001
0000
0000
0000
1000
0000
1000
0000
1000
0000
,  // measure 33
0100
0000
0000
0011
0000
0000
1010
0000
0000
0000
0001
0000
0100
0000
0001
0000
,  // measure 34
0001
0000
1000
0000
1000
0000
0010
0100
0010
0000
0100
0010
0000
0000
1000
0000
,  // measure 35
1000
0000
0100
0000
0100
0000
0010
0001
0010
0000
0001
0020
0000
0000
0030
0000
,  // measure 36
1100
0000
0000
0011
0000
0000
1100
0000
0000
0000
0001
0000
0001
0000
0001
0000
,  // measure 37
0101
0000
0000
1010
0000
0000
0101
0000
0000
0000
1000
0000
0010
0000
0100
0000
,  // measure 38
0100
0000
0001
0000
0001
0000
1000
0010
1000
0000
0010
1000
0000
0000
0001
0000
,  // measure 39
0010
0000
0100
0000
1000
0000
0100
0000
0010
0000
0001
2000
0000
0000
3000
0000
,  // measure 40
0002
0000
0000
0203
0000
0000
0320
0000
0000
0000
2000
0000
0030
0000
0000
0000
,  // measure 41
0001
0000
0001
0000
3001
1000
0001
0000
,  // measure 42
0200
0000
0000
0302
0000
0000
0023
0000
0000
0000
2000
0000
0030
0000
0000
0000
,  // measure 43
3020
0000
0031
0010
0200
0000
1300
0100
,  // measure 44
0011
0100
1001
0010
,  // measure 45
0001
0000
0000
0001
0100
0000
0000
0010
1000
0000
0000
0001
0100
0000
0010
0000
,  // measure 46
1000
0000
0000
1000
0100
0000
0000
0010
0001
0000
0000
1000
0100
0000
0010
0000
,  // measure 47
0001
0100
1000
0100
0001
0010
1000
0010
,  // measure 48
0011
0100
1001
0100
,  // measure 49
0010
0000
0000
1000
0010
0000
0000
0100
0001
0000
0000
1000
0010
0000
0000
0000
,  // measure 50
0100
0000
0000
0001
0010
0000
0000
0100
1000
0000
0000
0001
0010
0000
0000
0000
,  // measure 51
0001
0100
1000
0100
0001
0010
1000
0010
,  // measure 52
0002
0000
0000
0203
0000
0000
1300
0000
0000
0000
1000
0000
1000
0000
1000
0000
,  // measure 53
2000
0000
0000
3020
0000
0000
0032
0000
0000
0000
0000
0000
1003
0000
0000
0000
,  // measure 54
0001
0000
0000
0000
0001
0000
0000
0000
1000
0000
0000
0001
0000
0000
0000
0000
,  // measure 55
0010
0000
0000
0000
0010
0000
0000
0000
0100
0000
0000
0010
0000
0000
0001
0000
,  // measure 56
2000
0000
0000
3020
0000
0000
0031
0000
0000
0000
0001
0000
0001
0000
0001
0000
,  // measure 57
0002
0000
0000
0203
0000
0000
2300
0000
0000
0000
0000
0000
3001
0000
0000
0000
,  // measure 58
1000
0000
0000
0000
1000
0000
0000
0000
1000
0000
0000
0001
0000
0000
0001
0000
,  // measure 59
0100
0000
0010
0000
0100
0000
0001
0000
1000
0000
0000
0000
0100
0010
0100
0010
,  // measure 60
0100
0000
0000
1100
0000
0000
0101
0000
0000
0000
0010
0000
0010
0000
0010
0000
,  // measure 61
1010
0000
0000
0101
0000
0000
1001
0000
0000
0000
0010
0000
1000
0000
0001
0000
,  // measure 62
0010
0100
1000
0001
0100
0001
1000
0100
,  // measure 63
0010
0001
0100
1000
0100
0001
1000
0001
,  // measure 64
0101
0000
0000
1100
0000
0000
0101
0000
0000
0000
1000
0000
1000
0000
1000
0000
,  // measure 65
1010
0000
0000
0011
0000
0000
1010
0000
0000
0000
0001
0000
0010
0000
0100
0000
,  // measure 66
1000
0001
0100
0001
1000
0100
1000
0010
,  // measure 67
0100
0000
0100
0000
0001
0000
0001
0000
0010
0000
0010
1000
0000
0000
0010
0000
,  // measure 68
0002
0000
0000
2003
0000
0000
3020
0000
0000
0000
0200
0000
0000
0000
0000
0000
,  // measure 69
0000
0000
0030
0000
0301
1000
0010
0000
,  // measure 70
2000
0000
0000
3200
0000
0000
0320
0000
0000
0000
0002
0000
0030
0000
0000
0000
,  // measure 71
2003
0000
3010
1000
0100
0000
0011
0000
,  // measure 72
1020
0000
0000
2030
0000
0000
3002
0000
0000
0000
0200
0000
0000
0000
0000
0000
,  // measure 73
0000
0000
0003
0000
0310
1000
0100
0000
,  // measure 74
0021
0000
0000
0230
0000
0000
2300
0000
0000
0000
0200
0000
3000
0000
0000
0000
,  // measure 75
0320
0000
0031
1000
0020
0000
0030
0000
;

//---------------dance-single - ----------------
#NOTEDATA:;
#CHARTNAME:;
#STEPSTYPE:dance-single;
#DESCRIPTION:;
#CHARTSTYLE:;
#DIFFICULTY:Medium;
#METER:6;
#RADARVALUES:0.436792,0.442213,0.167837,0.321079,0.076621,352.000000,23.000000,44.000000,0.000000,0.000000,0.000000,0.000000,0.000000,0.436792,0.442213,0.167837,0.321079,0.076621,352.000000,23.000000,44.000000,0.000000,0.000000,0.000000,0.000000,0.000000;
#CREDIT:DJ OMiY;
#DISPLAYBPM:135.000000;
#NOTES:
0000
0000
0000
0000
,
0000
0000
0000
0000
,
0000
0000
0000
0000
,
0000
0000
0000
0000
,
1000
0000
0001
0100
0010
0100
0010
0000
,
0100
0000
0001
0010
0100
1000
0100
0000
,
0010
0000
0100
1000
0100
1000
0001
0000
,
0100
0000
0010
1000
0001
1000
0001
0000
,
0101
0000
0000
1001
0000
0000
0110
0000
,
2000
0000
0000
3020
0000
0000
0130
0000
,
0101
0000
0000
1100
0000
0000
0110
0000
,
0001
0000
0010
0000
1000
0010
0001
0000
,
1010
0000
0000
0101
0000
0000
1010
0000
,
0002
0000
0000
2003
0000
0000
3010
0000
,
1100
0000
0000
0011
0000
0000
1100
0000
,
1000
0000
0100
0000
0001
0100
1000
0000
,
0010
0000
0000
0110
0000
0100
0100
0000
,
0001
0000
0000
1001
0000
0010
0010
0000
,
1000
0000
0000
1100
0000
0100
0100
0000
,
0010
0001
0000
0010
1000
0000
0020
0000
,
0031
0000
0000
1001
0000
0001
0001
0000
,
0100
0000
0000
0101
0000
1000
1000
0000
,
0010
0000
0000
1001
0000
0100
0100
0000
,
1000
0100
0000
0001
0100
0000
2000
0000
,
3010
0000
0100
0000
0001
0000
0010
0100
,
1000
0000
0001
0000
1000
0000
0100
0010
,
0001
0001
0001
0000
1000
1000
1000
0000
,
0010
0100
0100
0000
0001
0001
1000
0000
,
0001
0000
0100
0000
0010
1000
0100
0000
,
0010
0000
0100
0000
1000
0001
0100
0000
,
0220
0330
0000
0000
0000
0000
1000
0000
0000
0001
0000
0000
0100
0000
0000
0000
0000
0000
0010
0000
0000
1000
0000
0000
,
0010
1000
0001
0000
1000
0100
0010
0100
,
1000
0000
0000
1000
0000
0000
1000
0000
0000
0000
0001
0000
0100
0000
0001
0000
,
0100
0000
0000
0100
0000
0000
0100
0000
0000
0000
0000
0000
0000
0000
0010
0000
,
1000
0100
1000
0001
0100
0000
0001
0000
,
0100
0001
0010
0001
1000
0000
0100
0000
,
0010
0000
0000
0010
0000
0000
0010
0000
0000
0000
0100
0000
1000
0000
0100
0000
,
1000
0000
0000
1000
0000
0000
1000
0000
0000
0000
0000
0000
0000
0000
0010
0000
,
0100
0001
0100
0001
0010
0000
0001
0000
,
1000
0000
1000
0000
0100
0000
0100
0000
0010
0000
0000
0010
0000
0000
0000
0000
,
0002
0000
0000
0203
0000
0000
0320
0000
0000
0000
2000
0000
0000
0000
0000
0000
,
0000
0000
0000
0030
0000
0100
3100
0000
,
2000
0000
0000
3020
0000
0000
0230
0000
0000
0000
0002
0000
0300
0000
0000
0000
,
0023
0000
0130
0010
0001
0000
1000
0000
,
1001
0100
0110
1000
,
0001
0000
1000
0000
0010
0100
0001
0001
,
0010
0100
1000
0000
0100
0010
0001
1000
,
1000
0010
1000
0001
0100
0000
0001
0000
,
0110
1000
0110
0001
,
1000
0000
0001
0000
0100
0010
1000
0000
,
0100
0010
0001
0010
0010
0100
1000
0000
,
0010
0000
0100
0000
0001
1000
0001
0100
,
0010
0000
0000
0010
0000
0000
0010
0000
0000
0000
1000
0000
0001
0000
1000
0000
,
0001
0000
0000
0001
0000
0000
0002
0000
0000
0000
0000
0000
0000
0000
0103
0000
,
0010
1000
0001
0100
0010
0000
1000
0000
,
0001
0010
0001
1000
0200
0000
0320
0000
,
0031
0000
0000
0001
0000
0000
0001
0000
0000
0000
1000
0000
0100
0000
1000
0000
,
0100
0000
0000
0100
0000
0000
0200
0000
0000
0000
0000
0000
0000
0000
0310
0000
,
0100
1000
0001
0010
0100
0000
0010
0000
,
0001
0000
0001
0000
0100
0000
0100
0000
0010
0000
0000
0010
1000
0000
0100
0000
,
0010
0000
0000
0010
0000
0000
0100
0000
0000
0000
1000
0000
0001
0000
1000
0000
,
0010
0000
0000
0010
0000
0000
0100
0000
0000
0000
0000
0000
0001
0000
0010
0000
,
0002
1003
0010
0200
,
0301
1000
0010
1000
,
0001
0000
0000
0001
0000
0000
1000
0000
0000
0000
0010
0000
0100
0000
0010
0000
,
1000
0000
0000
1000
0000
0000
0001
0000
0000
0000
0000
0000
0010
0000
0100
0000
,
2000
3010
0100
0002
,
0013
0000
0010
0000
0100
0000
0100
0000
1000
0000
0000
1000
0001
0000
0000
0000
,
0200
0000
0000
0302
0000
0000
2003
0000
0000
0000
0200
0000
0000
0000
0000
0000
,
0000
0000
0000
3000
0000
0010
0310
0000
,
0002
0000
0000
2003
0000
0000
3002
0000
0000
0000
0020
0000
0003
0000
0000
0000
,
0230
0000
1300
0001
1000
0000
0010
0100
,
0020
0000
0000
2030
0000
0000
3002
0000
0000
0000
0200
0000
0000
0000
0000
0000
,
0000
0000
0000
0003
0000
0010
0310
0000
,
2000
0000
0000
3002
0000
0000
2003
0000
0000
0000
0020
0000
3000
0000
0000
0000
,
0230
0000
0301
0010
0200
0000
0300
0000
;

//---------------dance-single - ----------------
#NOTEDATA:;
#CHARTNAME:;
#STEPSTYPE:dance-single;
#DESCRIPTION:;
#CHARTSTYLE:;
#DIFFICULTY:Easy;
#METER:4;
#RADARVALUES:0.303357,0.304022,0.051081,0.262701,0.021892,248.000000,7.000000,36.000000,0.000000,0.000000,0.000000,0.000000,0.000000,0.303357,0.304022,0.051081,0.262701,0.021892,248.000000,7.000000,36.000000,0.000000,0.000000,0.000000,0.000000,0.000000;
#CREDIT:DJ OMiY;
#DISPLAYBPM:135.000000;
#NOTES:
0000
0000
0000
0000
,
0000
0000
0000
0000
,
0000
0000
0000
0000
,
0000
0000
0000
0000
,
0020
0000
1030
0001
,
0200
0000
0310
1000
,
0002
0000
0013
0100
,
2000
0000
3010
0100
,
0002
0000
0003
0001
0000
0000
0001
0000
,
1000
0010
0100
0001
,
0200
0000
0300
0100
0000
0000
0100
0000
,
0010
0001
0100
1000
,
0020
0000
0030
0010
0000
0000
0010
0000
,
0100
0010
1000
1000
,
0002
0000
0003
0001
0000
0000
0001
0000
,
0010
0010
0100
1000
,
0001
0000
0000
0100
0000
0000
1001
0000
,
2001
0000
0000
3010
0000
0000
0110
0000
,
0210
0000
0000
0301
0000
0000
0001
0000
,
0010
0010
0000
0010
0010
0000
0010
0000
,
0200
0000
0000
1300
0000
0000
1000
0000
,
0002
0000
0000
0103
0000
0000
0100
0000
,
0020
0000
0000
1030
0000
0000
1000
0000
,
0001
0001
0000
1000
1000
0000
0001
0000
,
0100
0010
0100
0100
,
0001
0100
0010
0010
,
1000
0100
0001
0100
,
1000
0010
0001
0100
,
1000
0010
1000
0100
,
0100
0010
0001
1000
,
2002
3003
0000
0000
0000
0000
0010
0000
0000
0000
0000
0000
0100
0000
0000
0000
0000
0000
0010
0000
0000
0000
0000
0000
,
0010
0200
0000
0301
,
0001
0100
0010
0100
,
0001
1000
0010
1000
,
0100
0010
0200
1300
,
0010
0001
0020
0130
,
0001
0010
0100
0010
,
0100
1000
0001
1000
,
0010
0100
0020
1000
,
0130
0100
0020
0030
,
1000
0000
0000
0001
0000
0000
1000
0000
0000
0000
0001
0000
0000
0000
0000
0000
,
0000
0000
0000
0100
,
1000
0000
0000
0001
0000
0000
1000
0000
0000
0000
0001
0000
0000
0000
0000
0000
,
0020
0032
0203
0300
,
0020
1000
0230
0001
,
0310
0100
0010
1000
,
0001
0000
0001
1000
,
0100
0001
0100
0010
,
0200
0010
2300
0010
,
3001
0000
0001
1000
,
0010
0100
0010
1000
,
0100
0001
0100
0010
,
0001
0000
0000
0001
0000
0000
0100
0000
,
0100
0000
0000
0100
0000
0000
0000
0000
,
0010
0010
0100
0000
,
0100
0100
0001
0000
,
1000
0000
0000
1000
0000
0000
0010
0000
,
0010
0000
0000
0010
0000
0000
0000
0000
,
0100
0001
0100
0000
,
0010
1000
0001
1001
,
0010
1000
0100
1000
,
0001
0010
0001
0100
,
0020
0000
1030
0100
,
0100
0010
0200
0300
,
1000
0001
1000
0100
,
0010
0001
1000
0001
,
0200
0000
0301
0010
,
0010
0100
0020
0030
,
0001
0000
0000
1000
0000
0000
0001
0000
0000
0000
1000
0000
0000
0000
0000
0000
,
0000
0000
0000
0100
,
1000
0000
0000
0001
0000
0000
1000
0000
0000
0000
0001
0000
0000
0000
0000
0000
,
0200
0302
2003
3000
,
0010
0000
0000
0100
0000
0000
0010
0000
0000
0000
0100
0000
0000
0000
0000
0000
,
0000
0000
0000
0001
,
0100
0000
0000
0010
0000
0000
0100
0000
0000
0000
0010
0000
0000
0000
0000
0000
,
2000
3002
0013
1001
;

//---------------dance-single - ----------------
#NOTEDATA:;
#CHARTNAME:;
#STEPSTYPE:dance-single;
#DESCRIPTION:;
#CHARTSTYLE:;
#DIFFICULTY:Beginner;
#METER:1;
#RADARVALUES:0.153242,0.221107,0.058378,0.335673,0.000000,93.000000,8.000000,46.000000,0.000000,0.000000,0.000000,0.000000,0.000000,0.153242,0.221107,0.058378,0.335673,0.000000,93.000000,8.000000,46.000000,0.000000,0.000000,0.000000,0.000000,0.000000;
#CREDIT:DJ OMiY;
#DISPLAYBPM:135.000000;
#NOTES:
0000
0000
0000
0000
,
0000
0000
0000
0000
,
0000
0000
0000
0000
,
0000
0000
0000
0000
,
1000
0000
0000
0000
,
0100
0000
0000
0000
,
0010
0000
0000
0000
,
0001
0000
0000
0000
,
2000
0000
3000
0000
,
0020
0000
0030
0000
,
0200
0000
0300
0000
,
0001
0000
1000
0000
,
0002
0000
0003
0000
,
0200
0000
0300
0000
,
0020
0000
0030
0000
,
1000
0000
0100
0000
,
0020
0000
0000
0030
0000
0000
0100
0000
,
0200
0000
0000
0300
0000
0000
1000
0000
,
2000
0000
0000
3000
0000
0000
0000
0000
,
2002
0000
0000
3003
,
0002
0000
0000
0003
0000
0000
0010
0000
,
0020
0000
0000
0030
0000
0000
0100
0000
,
0200
0000
0000
0300
0000
0000
0000
0000
,
2002
0000
0000
3003
,
1000
0000
0000
0000
,
0010
0000
0000
0000
,
0100
0000
0100
0000
,
0001
0000
0001
0000
,
0010
0000
0000
0000
,
0100
0000
0000
0000
,
2000
3000
0000
0000
0000
0000
0000
0000
0000
0000
0000
0000
1000
0000
0000
0000
0000
0000
0000
0000
0000
0000
0000
0000
,
1000
1000
0000
0000
,
0010
0000
1000
0000
,
0001
0000
0100
0000
,
0020
0000
0030
0000
,
0200
0000
0300
0000
,
0001
0000
0010
0000
,
0100
0000
1000
0000
,
0002
0000
0003
0000
,
2000
0000
3000
0000
,
0220
0000
0000
0000
,
0000
0000
0330
0000
,
0220
0000
0330
0000
,
1000
0000
1000
0000
,
0002
0000
0000
0000
,
0003
0000
0000
0000
,
0100
0000
0010
0000
,
1000
0000
0001
0000
,
2000
0000
0000
0000
,
3000
0000
0000
0000
,
0100
0000
0010
0000
,
0001
0000
1000
0000
,
0020
0000
0030
0000
,
2000
0000
3000
0000
,
0002
0000
0003
0000
,
0200
0000
0300
0000
,
0002
0000
0003
0000
,
0020
0000
0030
0000
,
0200
0000
0300
0000
,
2000
0000
3000
0000
,
0010
0000
0100
0000
,
0010
0000
1000
0000
,
0002
0000
0000
0000
,
0000
0000
0003
0000
,
1000
0000
0010
0000
,
1000
0000
0001
0000
,
0200
0000
0300
0000
,
0010
0000
0010
0000
,
0220
0000
0000
0000
,
0000
0000
0330
0000
,
0220
0000
0330
0000
,
1000
0000
0001
0000
,
0220
0000
0000
0000
,
0000
0000
0330
0000
,
0220
0000
0330
0000
,
0100
0100
0200
0300
;
