#TITLE:[×V×]FANTASTIC NxxD BABY[×_×];
#SUBTITLE:;
#ARTIST:P*Light feat. mow*2;
#TITLETRANSLIT:FANTASTIC NxxD BABY;
#SUBTITLETRANSLIT:;
#ARTISTTRANSLIT:;
#GENRE:Full Electro;
#CREDIT:;
#BANNER:FANTASTIC NxxD BABY-bn.png;
#BACKGROUND:FANTASTIC NxxD BABY-bg.png;
#LYRICSPATH:;
#CDTITLE:;
#MUSIC:FANTASTIC NxxD BABY.ogg;
#OFFSET:-1.060000;
#SAMPLESTART:42.025517;
#SAMPLELENGTH:13.241379;
#LASTBEATHINT:264.000000;
#SELECTABLE:YES;
#BPMS:0.000000=145.000000
;
#STOPS:
;
#BGCHANGES:;
#KEYSOUNDS:;
#ATTACKS:;

//---------------dance-single - S-HEAVY----------------
#NOTES:
     dance-single:
     DJ OMiY-HSP:
     Hard:
     8:
     0.502637,0.511530,0.261629,0.108260,0.202988,390.000000,361.000000,29.000000,12.000000,0.000000,0.000000,0.502637,0.511530,0.261629,0.108260,0.202988,390.000000,361.000000,29.000000,12.000000,0.000000,0.000000:
// measure 0
0000
0000
0000
0000
,  // measure 1
0000
0000
0000
0000
,  // measure 2
0000
0000
0000
0000
,  // measure 3
0000
0000
0000
0000
,  // measure 4
0000
0000
0000
0000
,  // measure 5
1001
0000
0001
0000
0000
0100
0000
0001
0100
0000
0100
0000
0000
0000
0110
0000
,  // measure 6
0010
0000
1000
0000
0000
0001
0000
0100
0001
0000
1000
0000
0000
0000
0100
0000
,  // measure 7
1000
0010
0100
0001
1000
0100
0010
0001
,  // measure 8
0100
0100
0000
0010
0100
0000
0011
0000
,  // measure 9
1100
0000
0010
0000
0001
0100
1000
0000
,  // measure 10
1000
0100
0001
1000
0001
0010
1000
0000
,  // measure 11
0010
0000
0010
0001
0100
0010
0010
0010
,  // measure 12
0100
0000
0000
0000
0000
0000
0001
0000
0000
1000
0000
0000
0100
0000
0010
0000
0100
0000
1000
0000
0000
0000
0000
0000
,  // measure 13
1001
0000
0100
0000
0010
1000
0100
0000
,  // measure 14
1000
0010
0001
1000
0001
0010
0100
0000
,  // measure 15
0001
0000
1000
0100
1000
0010
0010
0010
,  // measure 16
0100
0000
0000
0000
0001
0000
0100
0000
0001
1000
0000
0110
0000
0000
1000
0000
,  // measure 17
0010
0000
0000
0010
0000
0000
0110
0000
0000
0000
1000
0000
0010
0000
0010
0000
,  // measure 18
0100
0000
0000
0100
0000
0000
0101
0000
0000
0000
0001
0000
0010
0000
0010
0000
,  // measure 19
0100
0000
0000
1000
0000
0000
0100
0000
0000
0000
0010
0000
0100
0000
1000
0000
,  // measure 20
0001
0010
0100
0010
0001
0100
0001
1000
,  // measure 21
0100
0000
0000
0100
0000
0000
1100
0000
0000
0000
0001
0000
0100
0000
0100
0000
,  // measure 22
0010
0000
0000
0010
0000
0000
1010
0000
0000
0000
1000
0000
0100
0000
0010
0000
,  // measure 23
0001
0000
0000
0100
0000
0000
0001
0000
0000
0000
0010
0000
0100
0000
0010
0000
,  // measure 24
0000
0000
1100
0000
0000
0110
0000
0000
0012
0000
0000
0000
0103
0000
0001
0000
,  // measure 25
1000
0000
0000
1000
0000
0000
0010
0000
0001
0000
0000
0001
0000
0000
0010
0000
,  // measure 26
1000
0000
0000
1000
0000
0000
0100
0000
0001
0000
0000
0001
0000
0000
0100
0000
,  // measure 27
1000
0000
0000
1000
0000
0000
0010
0000
0100
0000
0000
0000
0001
0000
0010
0000
,  // measure 28
0001
0100
0001
0010
0001
0100
0001
0001
,  // measure 29
0010
0000
0000
0010
0000
0000
1000
0000
0010
0000
0000
0010
0000
0000
0001
0000
,  // measure 30
0100
0000
0000
0100
0000
0000
1000
0000
0100
0000
0000
0100
0000
0000
0001
0000
,  // measure 31
0010
0000
0000
0010
0000
0000
1000
0000
0010
0000
0000
0000
0001
0000
1000
0000
,  // measure 32
0010
0000
0000
0000
0100
0001
1000
0001
0200
0000
0000
0000
0300
0000
0000
0000
,  // measure 33
0001
0010
0001
0010
0100
0010
0100
1000
,  // measure 34
0100
0010
0001
0100
0010
0100
0001
1000
,  // measure 35
0100
1000
0010
0100
0001
0010
1000
0020
,  // measure 36
0000
0032
0000
0203
0000
0310
0100
0100
,  // measure 37
0001
0100
0001
0100
0010
1000
0010
1000
,  // measure 38
0100
0010
0100
1000
0001
0010
0100
0010
,  // measure 39
0001
0100
1000
0100
0001
0010
0100
2000
,  // measure 40
0000
3020
0000
0230
0000
0301
1000
0000
,  // measure 41
1100
0010
0101
0010
,  // measure 42
1001
0100
1010
0001
,  // measure 43
0110
0000
0101
0000
1010
1000
1100
0001
,  // measure 44
0201
0000
0000
0000
0300
0000
0010
0100
,  // measure 45
0001
0000
0000
0001
0000
0000
0010
0000
1000
0000
0000
1000
0000
0000
0010
0000
,  // measure 46
0001
0000
0000
0001
0000
0000
0100
0000
1000
0000
0000
1000
0000
0000
0100
0000
,  // measure 47
0001
0000
0000
0001
0000
0000
1000
0000
0100
0000
0000
0000
0010
0000
0100
0000
,  // measure 48
1000
0100
0001
0100
1000
0010
0010
1000
,  // measure 49
0100
0000
0000
0100
0000
0000
0001
0000
0100
0000
0000
0100
0000
0000
1000
0000
,  // measure 50
0010
0000
0000
0010
0000
0000
0001
0000
0010
0000
0000
0010
0000
0000
1000
0000
,  // measure 51
0002
0000
0000
0020
0000
0000
0003
0000
0130
0010
0100
0010
0100
0010
0100
0000
,  // measure 52
0000
0000
0000
0000
1000
0000
0001
0000
0000
0000
0100
0000
0001
0010
0000
0000
,  // measure 53
0001
0100
1000
0100
1000
0100
0001
0100
,  // measure 54
0010
1000
0100
0010
0001
0100
0010
1000
,  // measure 55
0001
0010
0001
1000
0010
0100
0010
1010
,  // measure 56
0000
0011
0000
1010
0000
0011
0000
0001
,  // measure 57
0100
0000
0001
0000
0010
0001
0000
0000
1000
0000
0100
0000
0010
0100
0000
0000
,  // measure 58
1000
0000
0010
0000
0100
0010
0000
0000
1000
0000
0100
0000
0010
0001
0000
0000
,  // measure 59
0100
1000
0100
0001
0100
1000
0100
0001
,  // measure 60
0000
1100
0000
0101
0000
1010
0010
0000
,  // measure 61
0200
0000
0000
0000
,  // measure 62
0000
0000
0000
0000
,  // measure 63
0300
0000
0000
0000
;

//---------------dance-single - S-STANDARD----------------
#NOTES:
     dance-single:
     DJ OMiY-SSP:
     Medium:
     5:
     0.311893,0.369438,0.126304,0.135325,0.009022,242.000000,228.000000,14.000000,15.000000,0.000000,0.000000,0.311893,0.369438,0.126304,0.135325,0.009022,242.000000,228.000000,14.000000,15.000000,0.000000,0.000000:
0000
0000
0000
0000
,
0000
0000
0000
0000
,
0000
0000
0000
0000
,
0000
0000
0000
0000
,
0000
0000
0000
0000
,
0001
1000
0000
0000
0010
0000
0000
1000
,
0001
1000
0000
0000
0100
0000
0000
0000
,
1000
1000
0001
0001
1000
0001
1000
0001
,
0100
0000
0000
0010
,
0100
0000
0000
0000
0001
0100
0001
0000
,
1000
0000
0000
0000
0100
1000
0100
0000
,
1000
0000
0010
0100
,
0001
0000
0001
1001
,
0100
0000
0000
0000
0010
1000
0001
0000
,
0100
0000
0000
0000
0001
0010
0100
0000
,
1000
0000
0010
0100
,
0010
0000
1000
0110
,
0002
0000
0003
0001
0100
0000
0010
0000
,
2000
0000
3000
1000
0100
0000
0010
0000
,
0200
0000
0300
0100
0010
0000
0001
1000
,
0001
0000
0000
0100
,
0020
0000
0030
0010
0100
0000
0001
0000
,
2000
0000
3000
1000
0010
0000
0100
0000
,
0001
0000
0000
1000
0000
0000
0001
0000
0000
0000
1000
0000
0100
0000
2000
0000
,
0000
0000
3000
1001
,
0010
0000
0000
0010
0001
0000
0000
0001
,
0100
0000
0000
0100
0010
0000
0000
0010
,
1000
0000
0000
1000
0100
0000
1000
0001
,
1000
0000
0100
0000
1000
0000
0010
0100
,
0010
0000
0000
0010
1000
0000
0000
1000
,
0100
0000
0000
0100
0010
0000
0000
0010
,
0001
0000
0000
0001
0100
0000
0010
0100
,
0010
2000
3100
0110
,
0001
0001
0010
0010
,
0100
0100
1000
1000
,
0010
0000
0100
0000
0001
0000
1000
0100
,
0000
0100
0000
0010
0000
0010
0001
0000
,
1000
1000
0100
0100
,
0010
0010
0001
0001
,
0100
0010
1000
0001
,
0010
0001
0100
0010
,
1010
0000
0101
0000
,
1010
0000
0101
0000
,
1001
0110
1001
0110
,
0002
0000
0000
0000
0000
0000
0103
0010
,
1000
0000
0000
1000
0100
0000
0000
0100
,
0001
0000
0000
0001
0100
0000
0000
0100
,
1000
0000
0000
1000
0010
0000
0100
0001
,
0100
0000
0010
0000
0100
0000
0001
0010
,
0002
0000
0003
0001
0200
0000
0300
0100
,
2000
0000
3000
1000
0200
0000
0300
0100
,
0002
0000
0000
2000
0000
0000
0000
0000
0000
0000
0000
0000
0000
0000
3003
0000
,
0000
0000
0010
0100
0010
0000
1001
0000
,
0010
0001
0010
0000
0100
1000
0100
0000
,
1000
0010
0100
0001
,
1000
0010
1000
0000
0001
0100
0001
0000
,
0100
0010
0100
1001
,
0100
1000
0100
0000
0010
0001
0010
0000
,
0001
1000
0100
1000
,
0010
0100
0010
0000
1000
0100
1000
0100
,
0000
0010
0000
0001
0000
1000
0001
0000
,
0020
0000
0000
0000
,
0000
0000
0000
0000
,
0030
0000
0000
0000
;

//---------------dance-single - S-LIGHT----------------
#NOTES:
     dance-single:
     DJ OMiY-LSP:
     Easy:
     3:
     0.219098,0.284183,0.063152,0.162390,0.000000,170.000000,163.000000,7.000000,18.000000,0.000000,0.000000,0.219098,0.284183,0.063152,0.162390,0.000000,170.000000,163.000000,7.000000,18.000000,0.000000,0.000000:
0000
0000
0000
0000
,
0000
0000
0000
0000
,
0000
0000
0000
0000
,
0000
0000
0000
0000
,
0000
0000
0000
0000
,
0000
0000
0000
0000
,
0000
0000
0000
0000
,
1000
0100
0001
0010
,
2000
0000
3000
1001
,
0010
0100
0010
0000
,
1000
0100
0010
0001
,
1000
0000
0001
0100
,
0001
0000
1000
1000
,
0100
0010
0100
0000
,
1000
0001
0100
0001
,
1000
0000
0010
0100
,
0010
0000
0001
0110
,
1000
0100
1000
0000
,
0001
0100
0001
0000
,
1000
0010
0100
0001
,
2000
0000
3000
0100
,
0010
0001
0010
0000
,
0100
1000
0100
0000
,
1000
0001
0100
0020
,
0000
0000
0030
1001
,
0001
0001
0001
0100
,
1000
1000
1000
0100
,
0001
0010
1000
0010
,
0002
0000
0003
0001
,
1000
1000
1000
0100
,
0001
0001
0001
0100
,
1000
0010
0001
0010
,
2000
0000
0002
3003
,
0010
0000
0100
0010
,
1000
0000
0100
0010
,
0001
0000
0100
0001
,
2000
0000
0000
3100
,
1000
0000
0010
0100
,
0001
0000
0010
0100
,
0010
0000
0001
1000
,
0001
0100
0001
1000
,
0100
0000
0100
0000
,
0010
0000
0010
0000
,
0001
0010
0100
1000
,
0020
0000
0030
1001
,
1000
1000
1000
0010
,
0001
0001
0001
0010
,
1000
0100
0001
0100
,
2000
0000
3000
1001
,
0002
0003
0200
0300
,
0002
0003
0020
0030
,
0200
0000
2000
0000
0000
0000
0000
3300
,
0000
1000
0000
1001
,
0010
0000
0001
0100
,
0001
0000
1000
0100
,
0010
0000
0100
1000
,
0010
0010
0010
0000
,
0100
0000
0010
0100
,
0001
0000
1000
0100
,
0010
0000
0001
0010
,
0200
0000
0000
1300
,
2002
0000
0000
0000
,
0000
0000
0000
0000
,
3003
0000
0000
0000
;

//---------------dance-single - BEGINNER----------------
#NOTES:
     dance-single:
     DJ OMiY-BEG:
     Beginner:
     1:
     0.126304,0.192613,0.000000,0.090217,0.000000,98.000000,98.000000,0.000000,10.000000,0.000000,0.000000,0.126304,0.192613,0.000000,0.090217,0.000000,98.000000,98.000000,0.000000,10.000000,0.000000,0.000000:
0000
0000
0000
0000
,
0000
0000
0000
0000
,
0000
0000
0000
0000
,
0000
0000
0000
0000
,
0000
0000
0000
0000
,
0020
0000
0000
0000
,
0000
0000
0030
0000
,
0100
0100
0100
0100
,
0100
0000
0000
0000
,
0001
0000
1000
0000
,
0001
0000
0001
0000
,
1000
0000
0000
0100
,
0100
0000
0000
1000
,
1000
0000
0010
0000
,
1000
0000
1000
0000
,
0010
0000
0000
0100
,
0100
0000
0000
0001
,
0001
0000
0000
1000
,
1000
0000
0000
0010
,
0020
0000
0000
0000
,
0030
0000
0000
0100
,
0100
0000
0000
0001
,
0001
0000
0000
0010
,
0010
0000
0000
0200
,
0000
0000
0300
0000
,
1000
0000
1000
0000
,
0100
0000
0100
0000
,
0010
0000
0010
0000
,
0002
0000
0003
0000
,
0001
0000
0001
0000
,
0010
0000
0010
0000
,
0100
0000
0100
0000
,
2000
0000
3000
0000
,
0010
0000
0100
0000
,
0010
0000
0100
0000
,
0001
0000
1000
0000
,
0002
0000
0003
0000
,
1000
0000
0100
0000
,
1000
0000
0100
0000
,
0010
0000
0100
0000
,
0020
0000
0030
0000
,
0001
0000
0001
0000
,
1000
0000
1000
0000
,
0010
0010
0010
0010
,
0020
0000
0030
0000
,
0100
0000
0001
0000
,
0100
0000
0001
0000
,
0100
0000
0010
0000
,
0020
0000
0030
0000
,
1000
0000
0001
0000
,
1000
0000
0001
0000
,
0200
0000
0000
0000
0000
0000
0000
0300
,
0000
0000
0000
0010
,
0010
0000
1000
0000
,
0100
0000
0000
0000
,
0010
0000
0100
0000
,
0010
0000
0000
0000
,
0001
0000
0100
0000
,
0001
0000
0000
0000
,
1000
0000
0100
0000
,
0010
0000
0001
0000
,
0100
0000
0000
0000
;
