#TITLE:EXOTICA;
#SUBTITLE:;
#ARTIST:Sota Fujimori 3rd Season;
#TITLETRANSLIT:;
#SUBTITLETRANSLIT:;
#ARTISTTRANSLIT:;
#GENRE:Hindi Hardcore;
#CREDIT:;
#BANNER:EXOTICA-bn.png;
#BACKGROUND:EXOTICA-bg.png;
#LYRICSPATH:;
#CDTITLE:;
#MUSIC:EXOTICA.ogg;
#OFFSET:-1.080000;
#SAMPLESTART:27.746666;
#SAMPLELENGTH:21.333336;
#SELECTABLE:YES;
#BPMS:0.000000=180.000000
;
#STOPS:
;
#BGCHANGES:;
#KEYSOUNDS:;
#ATTACKS:;

//---------------dance-single - S-HEAVY----------------
#NOTES:
     dance-single:
     DJ OMiY-HSP:
     Hard:
     9:
     0.561191,0.724337,0.182898,0.318084,0.039760,494.000000,471.000000,23.000000,40.000000,0.000000,0.000000,0.561191,0.724337,0.182898,0.318084,0.039760,494.000000,471.000000,23.000000,40.000000,0.000000,0.000000:
0000
0000
0000
0000
,
0000
0000
0000
0000
,
0000
0000
0000
0000
,
0000
0000
0000
0000
,
0000
0000
0000
0000
,
0000
0000
0000
0000
,
0000
0000
0000
0000
,
0000
0000
0000
0000
,
0001
0000
1000
0001
0000
0001
0010
0000
,
0001
0000
1000
0010
0000
0010
0100
0000
,
0001
0000
1000
0001
1000
0010
0100
0000
,
0011
1000
0000
0101
1000
0000
0010
0001
,
1000
0100
0010
0100
1000
0010
0100
0001
,
0010
0100
1000
0001
0100
0001
1000
0010
,
0100
0001
0010
0100
0010
0001
0100
0001
,
1000
0000
0001
0000
0010
0000
0100
0000
0000
0000
0100
0000
0000
1001
0000
0000
,
0001
0100
0010
1000
1000
0010
0100
0002
,
0000
0203
0000
2300
0000
0000
3001
0000
,
0110
0000
0001
0010
0100
0010
1000
0010
,
0002
0000
1003
0010
0100
0010
1001
0000
,
0020
0000
0130
0001
0020
0000
0130
1000
,
0010
0100
1000
0100
0001
0010
0100
0010
,
0001
1000
0001
0000
0002
0000
0003
0000
,
0010
0000
0010
0100
2000
0000
3000
0000
,
0200
0000
0310
0001
0200
0000
0310
1000
,
0100
0010
0100
1000
0001
0010
0100
0010
,
0001
1000
0010
0000
0020
0000
0030
0000
,
2002
0000
3003
0100
,
0001
0100
0010
0100
0001
0100
0010
1000
,
0100
0000
0000
0000
0010
0000
0100
0000
1000
0000
0001
0000
0000
0100
0000
0000
,
0001
1000
0001
0100
0001
0000
1000
0000
,
0010
0000
1000
0100
0000
0100
1001
0000
,
0110
0000
0001
1000
0010
0100
0001
1000
,
0100
0000
0010
0000
0100
0000
1000
0000
0000
0000
0001
0000
0000
0110
0000
0000
,
1000
0001
0010
0001
0100
0000
0010
0000
,
0100
0001
0100
1000
0100
0001
0100
0000
,
0020
0000
2030
0000
,
3200
0000
0000
0000
0310
0100
0010
0000
,
0002
0000
2003
0000
,
3002
0000
0000
0000
0013
0001
0100
0000
,
0010
1000
0100
0010
0001
1000
0100
0010
,
0001
0100
0001
0100
0010
1000
0010
1000
,
0100
0000
1000
0010
0001
0010
1000
0100
,
0010
0010
0010
1001
,
0100
0001
1000
0100
1000
0001
0100
0000
,
1001
0100
0010
0000
2002
0000
3003
0000
,
0010
0000
0000
0000
1000
0000
0100
0000
1000
0001
1000
0000
0010
0000
0100
0000
,
0002
0000
0000
0003
,
0100
0100
0000
0100
0100
0000
0010
0000
,
2000
0000
0000
3001
0010
0000
0010
0000
,
0001
0001
0000
1000
0001
0001
1000
0000
,
0020
0000
0000
0130
0001
0000
1000
0000
,
0010
0010
0000
0100
0010
0010
0100
0000
,
0002
2003
3002
2003
,
3010
0010
0000
0100
0100
0000
0010
0000
,
2000
0000
3000
1000
0001
0000
0000
0000
,
0020
0032
0203
2300
,
3200
0000
0302
0000
0013
0001
1000
0000
,
0010
1000
0100
0010
0001
0100
0001
1000
,
0010
0100
0010
1000
0100
0010
0100
1000
,
0000
0001
0100
0010
0100
0001
1000
0001
,
0010
0001
1000
0100
0010
0001
0010
0001
,
0100
0010
1000
0001
0100
0010
0100
0001
,
0010
0100
1000
0001
0100
0001
1000
0100
,
0010
0001
0100
0010
1000
0010
0100
0001
,
1000
0001
0011
0000
1100
1000
0001
0000
,
0010
0001
0010
1000
0010
0001
0010
1000
,
0010
0001
0010
0100
0010
0100
1000
0010
,
0100
0000
0101
0100
0010
1000
0010
0100
,
0001
0010
0100
1000
0001
0010
0100
1000
,
0010
1000
0001
0100
0010
1000
0100
1000
,
0000
0110
0000
0202
0000
0000
0303
0000
,
0100
0010
1000
0001
0010
0001
1000
0100
,
0010
0000
0100
0000
0010
0000
0001
1000
0001
0000
0100
0000
0010
0000
0100
0000
,
0002
0000
0000
0000
,
0000
0000
0003
1001
,
1000
0100
0010
0000
0001
0100
0010
0000
,
1000
0100
0010
0000
0001
0100
0010
0100
,
0001
1000
0100
0010
0000
0001
0000
0110
,
0000
1001
0000
0220
0000
0000
0330
0000
,
0001
0010
0100
0000
1000
0010
0100
0000
,
0001
0010
0100
0000
1000
0010
0100
0001
,
1000
0001
0100
0010
0000
0101
0000
1000
,
0001
1000
0001
0000
0100
0000
0001
0000
0010
0000
0001
0000
0010
0000
0001
0000
,
0100
0010
0100
0000
0001
0000
1000
0000
0010
0000
1000
0000
0010
0000
1000
0000
,
0100
1000
0100
0000
0010
0000
0001
0000
1000
0100
1000
0000
0010
0000
0100
0000
,
0001
0010
0100
0000
1000
0000
0010
0000
1000
0000
0100
0000
1001
0000
0000
0000
;

//---------------dance-single - S-STANDARD----------------
#NOTES:
     dance-single:
     DJ OMiY-SSP:
     Medium:
     7:
     0.356708,0.482891,0.063617,0.214707,0.011928,314.000000,306.000000,8.000000,27.000000,0.000000,0.000000,0.356708,0.482891,0.063617,0.214707,0.011928,314.000000,306.000000,8.000000,27.000000,0.000000,0.000000:
// measure 0
0000
0000
0000
0000
,  // measure 1
0000
0000
0000
0000
,  // measure 2
0000
0000
0000
0000
,  // measure 3
0000
0000
0000
0000
,  // measure 4
0000
0000
0000
0000
,  // measure 5
0000
0000
0000
0000
,  // measure 6
0000
0000
0000
0000
,  // measure 7
0000
0000
0000
0000
,  // measure 8
1000
0100
0001
0000
,  // measure 9
1000
0010
0001
0000
,  // measure 10
1000
0100
0010
0001
,  // measure 11
1000
0001
0000
0100
0010
0000
1000
0001
,  // measure 12
0100
0010
1000
0100
,  // measure 13
1000
0000
0010
0100
0000
0100
0010
0000
,  // measure 14
1000
0001
0010
0001
,  // measure 15
1000
0000
0100
0010
0000
0000
0000
0000
,  // measure 16
0100
0000
1000
0000
0001
0000
0010
0100
,  // measure 17
0000
1000
0000
2002
0000
0000
3003
0000
,  // measure 18
0001
0100
0010
1000
,  // measure 19
0100
0000
1000
0010
0001
0010
1000
0000
,  // measure 20
0001
0000
0001
1000
0001
0000
0100
0000
,  // measure 21
0001
0000
0000
0000
0000
0000
1000
0000
0000
0000
0010
0000
0000
0100
0000
0000
,  // measure 22
0010
1000
0100
1000
,  // measure 23
0001
0000
0000
0010
0000
0010
0001
0000
,  // measure 24
0100
0000
0100
0010
0100
0000
0010
0000
,  // measure 25
1000
0000
0000
0000
0000
0000
0001
0000
0000
0000
1000
0000
0000
0100
0000
0000
,  // measure 26
1000
0001
0010
0001
,  // measure 27
0220
0000
0330
1001
,  // measure 28
0010
0000
0100
0001
0100
0000
0010
0000
,  // measure 29
1000
0000
0100
1000
0000
1000
0100
0000
,  // measure 30
0010
0100
1000
0001
,  // measure 31
0010
0000
0000
0100
0000
0010
0001
0000
,  // measure 32
1000
0010
0100
0001
,  // measure 33
1000
0100
0010
0000
0100
0010
0001
0000
,  // measure 34
2000
0200
0000
3300
,  // measure 35
0010
0000
0000
0000
0000
0000
0001
0000
0000
0000
1000
0000
0000
0010
0000
0000
,  // measure 36
0200
0300
0002
0003
,  // measure 37
0020
0030
0200
0300
,  // measure 38
2001
3000
0020
0030
,  // measure 39
0200
0000
0300
0000
0001
1000
0001
0000
,  // measure 40
0010
0100
1000
0010
,  // measure 41
0001
0010
1000
0100
,  // measure 42
0010
0000
0100
1000
0100
0010
0100
0010
,  // measure 43
0002
0000
0000
0003
,  // measure 44
0100
0001
0100
0010
,  // measure 45
1000
0001
0010
0000
0200
0000
0300
0000
,  // measure 46
1000
0000
0001
0010
0001
0100
0010
1000
,  // measure 47
0200
0000
0000
0300
,  // measure 48
1000
0000
0000
1000
0000
0000
0001
0000
,  // measure 49
0020
0000
0000
0030
,  // measure 50
0100
0000
0000
0100
0000
0000
0010
0000
,  // measure 51
0002
0000
0000
0003
,  // measure 52
1000
0000
0000
0001
1000
0000
0001
0000
,  // measure 53
0200
0000
0000
0300
,  // measure 54
0010
0000
0000
0010
0000
0000
0100
0000
,  // measure 55
0002
0000
1003
0000
,  // measure 56
0220
0000
0000
0000
,  // measure 57
0000
0000
0000
0330
,  // measure 58
0001
0100
0010
1000
,  // measure 59
0010
0100
0010
0000
1000
0001
1000
0000
,  // measure 60
0010
1000
0100
1000
,  // measure 61
0001
0010
0001
0010
0001
0100
0001
0100
,  // measure 62
0010
0100
0001
1000
,  // measure 63
0100
0010
0100
1000
,  // measure 64
0010
0001
0010
1000
,  // measure 65
0010
0100
0001
0000
0100
0010
1000
0000
,  // measure 66
0010
0100
0000
0001
0000
1000
0000
0010
,  // measure 67
0000
1000
0000
0100
0000
0010
0000
0001
,  // measure 68
0100
1001
0010
1000
,  // measure 69
0001
0010
0100
1000
0001
0010
0100
1000
,  // measure 70
0001
0000
0010
0000
0001
0000
0100
0010
,  // measure 71
0000
1000
0000
2002
0000
0000
3003
0000
,  // measure 72
0010
1000
0100
0000
0010
0001
0100
0000
,  // measure 73
0010
0000
1000
0001
0010
0100
1000
0000
,  // measure 74
0000
0000
0000
0000
,  // measure 75
0000
0000
0000
0110
,  // measure 76
1000
0010
0100
0010
,  // measure 77
1000
0001
0010
0001
,  // measure 78
0100
0010
0100
0010
0000
0000
0000
2000
,  // measure 79
0000
3002
0000
0023
0000
0000
0030
0000
,  // measure 80
0100
0010
0001
0100
,  // measure 81
1000
0100
0010
0010
,  // measure 82
1000
0010
0100
0001
0000
0000
0000
0000
,  // measure 83
0100
0000
0010
0010
0010
0000
0100
0000
,  // measure 84
0001
0000
1000
1000
1000
0000
0010
0000
,  // measure 85
0100
0100
0100
0000
0001
0001
0001
0000
,  // measure 86
1000
0010
1000
0000
0100
0010
0001
0000
;

//---------------dance-single - S-LIGHT----------------
#NOTES:
     dance-single:
     DJ OMiY-LSP:
     Easy:
     4:
     0.249923,0.344922,0.055665,0.190850,0.000000,220.000000,213.000000,7.000000,24.000000,0.000000,0.000000,0.249923,0.344922,0.055665,0.190850,0.000000,220.000000,213.000000,7.000000,24.000000,0.000000,0.000000:
0000
0000
0000
0000
,
0000
0000
0000
0000
,
0000
0000
0000
0000
,
0000
0000
0000
0000
,
0000
0000
0000
0000
,
0000
0000
0000
0000
,
0000
0000
0000
0000
,
0000
0000
0000
0000
,
1000
0000
0100
0000
,
1000
0010
0100
0000
,
0001
0001
0010
0000
,
2002
0000
0000
3003
0000
0000
0110
0000
,
0001
1000
0100
0000
,
1000
0000
1000
1000
,
0010
0100
0010
0000
,
1000
0000
0001
0001
,
0010
0001
0100
0020
,
0000
0000
0000
0030
0000
0000
1000
0000
,
0100
0000
0010
0000
,
0100
0100
1000
0001
,
0200
0300
0002
0003
,
0010
0001
1000
0000
,
0100
0010
0100
0000
,
1000
0010
0000
0000
,
2000
3000
0200
0300
,
0010
0100
1000
0000
,
0001
0100
0100
0000
,
0010
0100
0000
0000
,
0001
0001
1000
1000
,
0001
1000
0010
0000
,
0001
0100
1000
0000
,
0001
0010
1000
0000
,
0010
0100
0001
0001
,
0100
0010
1000
0000
,
0100
0000
0100
0010
,
0100
0000
1000
0100
,
0020
0030
0002
0003
,
2000
3000
0020
0030
,
0200
0300
0002
0003
,
0020
0030
0001
1000
,
0100
0100
0100
0000
,
0010
0010
0010
0000
,
0001
1000
1000
0001
,
0001
0000
0000
0010
,
0001
0001
0100
0100
,
0220
0330
0110
0000
,
1000
0100
0001
0010
,
1000
0000
0000
0000
,
0100
0000
0100
0010
,
0002
0000
0003
0000
,
1000
0000
1000
0001
,
0200
0000
0300
0000
,
0010
0000
0100
0010
,
2000
0000
0000
3000
,
0100
0000
0010
0100
,
0020
0000
0030
0000
,
0001
0000
1000
0000
,
0001
1000
0001
1000
,
1001
0010
0001
0001
,
0010
0100
1000
0000
,
0010
1000
0100
0000
,
0010
0001
0100
0000
,
0001
0000
1000
0000
,
0100
1000
0010
0000
,
0100
0100
0100
0000
,
0010
0100
0010
0000
,
1000
0100
0001
0100
,
1000
0010
0001
0100
,
1000
1001
0000
0000
,
1000
0100
0010
0001
,
1000
0000
0001
0000
,
0200
0000
0000
0300
,
0010
0000
1000
0000
,
0001
0010
0001
1000
,
0100
0000
0000
0000
,
0000
0000
0000
0010
,
1000
0000
0001
0000
,
0010
0000
0001
0100
,
0001
1000
0100
0000
,
0020
0000
0000
0030
,
0001
0000
1000
0000
,
0010
0000
1000
0100
,
0010
0001
1000
0000
,
0001
0001
0002
0003
,
1000
1000
2000
3000
,
0010
0010
0100
0100
,
0001
1000
0100
1001
;

//---------------dance-single - S-BEGINNER----------------
#NOTES:
     dance-single:
     DJ OMiY-BEG:
     Beginner:
     2:
     0.160178,0.275938,0.023856,0.143138,0.000000,141.000000,138.000000,3.000000,18.000000,0.000000,0.000000,0.160178,0.275938,0.023856,0.143138,0.000000,141.000000,138.000000,3.000000,18.000000,0.000000,0.000000:
0000
0000
0000
0000
,
0000
0000
0000
0000
,
0000
0000
0000
0000
,
0000
0000
0000
0000
,
0000
0000
0000
0000
,
0000
0000
0000
0000
,
0000
0000
0000
0000
,
0000
0000
0000
0000
,
1000
0000
0000
0000
,
0010
0000
0000
0000
,
1000
0000
0000
0000
,
0220
0000
0330
0000
,
0001
0000
0000
0000
,
0010
0000
0010
0000
,
0001
0000
0000
0000
,
0100
0000
0100
0000
,
0010
0000
1000
0000
,
0000
0000
0000
0000
,
0100
0000
0100
0000
,
0010
0000
0001
0000
,
0200
0300
0200
0300
,
0010
0000
1000
0000
,
0001
0001
0002
0000
,
0003
0000
0000
0000
,
2000
3000
2000
3000
,
0010
0000
0100
0000
,
0010
0010
0020
0000
,
0030
0000
0000
0000
,
1000
0000
0100
0000
,
0001
0000
0010
0000
,
1000
1000
1000
0000
,
0200
0000
0300
0000
,
0010
0000
0100
0000
,
1000
0000
0010
0000
,
0100
0100
0100
0000
,
0002
0000
0003
0000
,
0020
0000
0030
0000
,
0200
0000
0300
0000
,
2000
0000
3000
0000
,
0002
0000
0003
0000
,
0100
0000
0001
0000
,
1000
0000
0010
0000
,
1000
0000
0001
0001
,
0001
0000
0000
0000
,
0010
0000
0100
0000
,
1000
1000
1000
0000
,
0001
0000
1001
0000
,
1001
0000
0000
0000
,
0020
0000
0030
0000
,
0100
0000
0100
0000
,
2000
0000
3000
0000
,
0001
0000
1000
0000
,
0002
0000
0003
0000
,
0100
0000
0100
0000
,
0020
0000
0030
0000
,
1000
0000
0100
0000
,
0010
0000
0000
0000
,
0000
0000
0000
0000
,
0001
0000
0100
0000
,
0001
0000
1000
0000
,
0100
0000
0010
0000
,
0100
0100
0100
0000
,
1000
0000
0010
0000
,
0100
0000
0001
0000
,
1000
0000
0001
0000
,
0010
0010
0010
0000
,
0100
0000
1000
0000
,
0010
0000
0001
0000
,
0010
0000
1000
0000
,
0001
0001
0001
0000
,
0010
0000
0100
0000
,
1000
0000
0000
0000
,
0010
0000
0100
0000
,
0001
0000
1000
0000
,
0001
0000
0000
0000
,
0000
0000
0000
1000
,
1000
0000
0100
0000
,
1000
0000
0000
0000
,
0010
0000
0100
0000
,
0010
0000
0000
0000
,
1000
0000
0001
0000
,
1000
0000
0000
0000
,
0001
0000
0010
0000
,
0001
0001
0001
0000
,
1000
1000
1000
0000
,
0010
0000
0100
0000
,
0010
0010
0010
0010
;
