#TITLE:Dynamite;
#SUBTITLE:;
#ARTIST:USAO;
#TITLETRANSLIT:;
#SUBTITLETRANSLIT:;
#ARTISTTRANSLIT:;
#GENRE:Hybrid Twerk;
#CREDIT:;
#BANNER:Dynamite-bn.png;
#BACKGROUND:Dynamite-bg.png;
#LYRICSPATH:;
#CDTITLE:;
#MUSIC:Dynamite.ogg;
#OFFSET:-2.171999;
#SAMPLESTART:26.165031;
#SAMPLELENGTH:9.600002;
#SELECTABLE:YES;
#BPMS:0.000000=100.000000
,119.000000=200.000000
,248.000000=100.000000
;
#STOPS:119.000000=0.300000
;
#BGCHANGES:;
#KEYSOUNDS:;
#ATTACKS:;

//---------------dance-single - S-HEAVY----------------
#NOTES:
     dance-single:
     DJ OMiY-HSP:
     Hard:
     8:
     0.483063,0.693834,0.187424,0.203043,0.230375,433.000000,409.000000,24.000000,26.000000,0.000000,0.000000,0.483063,0.693834,0.187424,0.203043,0.230375,433.000000,409.000000,24.000000,26.000000,0.000000,0.000000:
// measure 0
0000
0000
0000
0000
,  // measure 1
0000
0000
0000
0000
,  // measure 2
0000
0000
0000
0000
,  // measure 3
0000
0000
0000
0000
0000
0000
0000
0000
0000
0000
0000
0000
0000
1000
0100
1000
,  // measure 4
0100
0010
0010
0001
0001
1000
0010
0001
,  // measure 5
0010
0000
1000
0000
1000
0000
0100
0000
0100
0000
0010
0000
0001
0100
0010
0100
,  // measure 6
0010
1000
1000
0001
0001
1000
0001
0100
,  // measure 7
0010
0100
0100
0001
0001
1000
0000
0000
,  // measure 8
0001
0001
0001
0001
,  // measure 9
1001
0000
1000
1000
1000
1000
0000
0000
,  // measure 10
0110
0000
0001
0000
1000
0000
0010
0010
0100
0010
0100
0010
0100
0010
0100
0000
,  // measure 11
0110
0000
0001
0000
1000
0000
0100
0100
1000
0000
0100
0100
0010
0001
1000
0000
,  // measure 12
1001
0000
0000
0000
0001
0000
0010
0010
0001
0010
0001
0010
0001
0010
0001
0010
,  // measure 13
0100
0000
1000
0000
0001
0000
0100
0010
0000
0000
1000
0100
0000
0000
0000
0000
,  // measure 14
0011
0000
1000
0000
0001
0000
0100
0100
0001
0100
0001
0100
0001
0100
0001
0000
,  // measure 15
1001
0000
0000
0000
0010
0000
0100
0100
0001
0000
0100
0100
0010
1000
0100
0000
,  // measure 16
1100
0000
0000
0000
0010
0000
0001
0001
1000
0001
1000
0001
1000
0001
0010
0001
,  // measure 17
0010
0000
0100
0000
0010
0000
0001
1000
0000
0000
0010
0100
0000
0000
0000
0000
,  // measure 18
1001
0000
0000
0000
0001
0000
1000
1000
0001
0000
1000
1000
0001
0000
0100
0000
,  // measure 19
1001
0000
0000
0000
0010
0000
0100
0100
0010
0000
0100
0100
0010
0000
0100
0000
,  // measure 20
1001
0000
0000
0000
0001
0000
0010
0010
0100
0000
1000
1000
0001
0000
0010
0000
,  // measure 21
0001
0000
0100
0000
0010
1000
0010
1000
0000
0000
0001
0010
0000
0000
0000
0000
,  // measure 22
0200
0000
2300
0000
,  // measure 23
3002
0000
0203
0000
,  // measure 24
0310
0000
0000
0010
0000
0000
0000
0000
1000
0000
0000
1000
0000
0000
0000
0000
,  // measure 25
0100
0000
0000
0100
0000
0000
0000
0000
0010
0000
0000
0010
0000
0000
0000
0000
,  // measure 26
1001
0010
0010
0100
0100
1000
0001
1000
,  // measure 27
1001
0010
0010
1000
1000
0001
0100
0010
,  // measure 28
1001
0100
0100
0001
1010
0100
0100
1000
,  // measure 29
0011
0100
0101
0010
1001
0110
0000
0000
,  // measure 30
1001
0000
0010
0000
0001
0000
1000
1000
,  // measure 31
0100
0010
0001
0010
0100
1000
0001
0000
,  // measure 32
0110
0000
0000
0000
1000
0000
0001
0001
,  // measure 33
0100
0000
0001
0001
0010
0100
1000
0000
,  // measure 34
0001
1000
0001
0000
0100
0000
0010
0010
,  // measure 35
0100
0001
0100
0001
0100
0010
1000
0001
,  // measure 36
0020
0000
0031
0000
1000
0000
0010
2000
,  // measure 37
0000
0000
3001
0020
0000
0000
0030
0000
,  // measure 38
0001
0000
1000
0000
0100
0000
0100
0010
,  // measure 39
0100
1000
0100
0010
0001
0010
0001
0000
,  // measure 40
1001
0000
0000
0000
0010
0000
0001
0001
,  // measure 41
0100
0000
0001
0001
1000
0100
1000
0000
,  // measure 42
0001
1000
0010
0000
0100
0000
0001
0100
,  // measure 43
0001
0100
0010
0100
0010
1000
0001
1000
,  // measure 44
0100
0000
0100
0000
0010
0001
0010
0200
,  // measure 45
0000
0000
1300
0020
0000
0000
0030
0000
,  // measure 46
1000
0100
0001
0100
0000
0000
1000
0000
,  // measure 47
0001
0010
1000
0010
0000
0000
0001
0000
,  // measure 48
0100
0010
1000
0001
0000
0000
0100
0000
,  // measure 49
0001
0010
0100
1000
0000
0000
0010
0000
,  // measure 50
0100
0010
0001
0010
1000
0000
0001
0000
,  // measure 51
1000
0010
0100
0010
0100
0000
0001
0000
,  // measure 52
1000
0000
0000
0100
0010
0000
0001
0000
,  // measure 53
1000
0000
0000
0100
0000
0000
1000
0000
0020
0000
0000
0000
0030
0000
0000
0000
,  // measure 54
0100
0010
0100
0010
1000
0000
0001
0010
,  // measure 55
0200
2300
3200
2300
,  // measure 56
3000
0000
0010
0100
0010
0000
0100
0001
,  // measure 57
0200
0320
0230
0320
,  // measure 58
1030
0001
1000
0100
0010
0000
0001
0010
,  // measure 59
0200
2300
3002
0203
,  // measure 60
0300
0000
0010
1000
0010
0000
0100
0001
,  // measure 61
2000
3200
0300
0000
,  // measure 62
0011
0000
0000
0000
1000
0000
0100
0100
0010
0100
0010
0100
0010
0100
0010
0000
,  // measure 63
1001
0000
0000
0000
0010
0000
0001
0001
0100
0000
0001
0001
1000
0001
1000
0000
,  // measure 64
0110
0000
0000
0000
1000
0000
0001
0001
0010
0001
0010
0001
0010
0001
1000
0000
,  // measure 65
0100
0000
0010
0010
0100
0000
1000
0001
2000
0000
0020
0000
0000
3030
0000
0000
;

//---------------dance-single - S-STANDARD----------------
#NOTES:
     dance-single:
     DJ OMiY-SSP:
     Medium:
     7:
     0.409432,0.642439,0.163996,0.007809,0.136663,367.000000,346.000000,21.000000,1.000000,0.000000,0.000000,0.409432,0.642439,0.163996,0.007809,0.136663,367.000000,346.000000,21.000000,1.000000,0.000000,0.000000:
0000
0000
0000
0000
,
0000
0000
0000
0000
,
0000
0000
0000
0000
,
0000
0000
0000
0000
0000
0000
0000
0001
,
1010
0001
0001
0100
0100
0001
1000
0100
,
0000
1000
1000
0010
0010
0100
0001
1000
,
0101
1000
1000
0010
0010
0100
0001
1000
,
0000
0001
0001
0010
0010
0100
1000
0000
,
1001
0010
0010
0010
,
1001
0000
0100
0000
0100
0100
0000
0000
,
0110
0000
0001
1000
1000
0001
1000
0001
,
0110
0000
1000
0010
0001
0010
1000
0001
,
1100
0000
0010
0001
1000
0010
1000
0010
,
0100
0000
0001
0000
0010
0000
0100
1000
0000
0000
1000
0100
0000
0000
0000
0000
,
0010
0001
0010
0100
0010
1000
0010
0001
,
1001
1000
0010
0001
0010
0100
0010
1000
,
1001
0010
0100
0001
0100
0010
0100
0001
,
1000
0000
0100
0000
0010
0000
0001
0010
0000
0000
0010
0100
0000
0000
0000
0000
,
1001
0000
0000
0000
1000
0000
0001
1000
0001
1000
0001
1000
0001
1000
0001
0000
,
1001
0000
0000
0000
1000
0000
0001
1000
0001
0000
1000
0001
1000
0001
1000
0000
,
1001
0000
0000
0000
0001
0000
1000
0001
1000
0001
1000
0001
1000
0001
1000
0001
,
1000
0000
0100
0000
1000
0000
0001
0100
0000
0000
0100
0001
0000
0000
0000
0000
,
0010
0000
0100
0000
,
1000
0000
0100
0000
,
0010
0000
0000
0001
0000
0000
0000
0000
0010
0000
0000
0100
0000
0000
0000
0000
,
1000
0000
0000
0001
0000
0000
0000
0000
0100
0000
0000
0010
0000
0000
0000
0000
,
1000
0100
0100
0010
0010
0001
1000
0001
,
0000
0100
0100
0001
0001
0010
0100
1000
,
0000
0010
0100
0001
0000
0010
0100
1000
,
0010
0001
0010
1000
0100
0010
0000
0000
,
1001
0000
0010
0001
,
0100
0000
0010
0000
1000
0001
1000
0000
,
0110
0000
0000
0000
0001
0000
1000
0100
,
1000
0000
0001
0100
0001
0000
0010
0000
,
0110
0000
0100
0010
,
0001
0000
1000
0000
0010
0000
0100
0001
,
1000
0000
0100
0000
1000
0000
0010
0100
,
0000
0000
0100
0010
0000
0000
0000
0000
,
0100
0001
0010
0001
,
0100
0000
0001
0000
1000
0100
1000
0000
,
0101
0000
1000
0000
0010
0000
1000
0100
,
1000
0000
0001
0100
0001
0000
0010
0000
,
0110
0000
1001
0000
0010
0000
0001
0010
,
0001
0000
0100
0000
0010
1000
0010
0000
,
0100
0000
0001
0000
0010
0000
0100
1000
,
0000
0000
1000
0001
0000
0000
0000
0000
,
0010
0000
0000
0001
0000
0000
0100
0000
,
0010
0000
0000
1000
0000
0000
0100
0000
,
1000
0000
0000
0001
0000
0000
0100
0000
,
0010
0000
0000
0100
0000
0000
0001
0000
,
0010
0000
0001
0010
0000
0000
0100
0000
,
1000
0000
0100
1000
0000
0000
0010
0000
,
0100
0000
0000
0001
1000
0000
0010
0000
,
1000
0000
0000
0001
0010
0000
0001
0000
,
1000
0000
0010
0100
0010
0000
1000
0001
,
1000
0010
0010
0010
,
0000
0000
0100
0001
0100
0000
0010
1000
,
0010
0100
0100
0100
,
0000
0000
0001
0010
0001
0000
1000
0100
,
1000
0001
0001
0001
,
0000
0000
0100
0010
0100
0000
0001
1000
,
0001
0100
0000
0000
,
0010
0000
0000
0000
1000
0000
0001
1000
0001
1000
0001
1000
0001
1000
0001
0000
,
1001
0000
0000
0000
1000
0000
0001
1000
0001
0000
1000
0001
1000
0001
1000
0000
,
1001
0000
0000
0000
0001
0000
1000
0001
1000
0001
1000
0001
1000
0001
1000
0000
,
1001
0000
0000
0000
0010
0000
0100
0010
0100
0010
0200
0000
0000
0300
0000
0000
;

//---------------dance-single - S-LIGHT----------------
#NOTES:
     dance-single:
     DJ OMiY-LSP:
     Easy:
     5:
     0.273326,0.411161,0.046856,0.085903,0.000000,245.000000,239.000000,6.000000,11.000000,0.000000,0.000000,0.273326,0.411161,0.046856,0.085903,0.000000,245.000000,239.000000,6.000000,11.000000,0.000000,0.000000:
0000
0000
0000
0000
,
0000
0000
0000
0000
,
0000
0000
0000
0000
,
0000
0000
0000
0000
,
1000
0100
0010
0001
,
0001
0000
0010
0000
0100
0000
1000
0001
,
1000
0100
0010
0001
,
0001
0010
0100
0000
,
1001
0100
0010
0100
,
1001
0000
0010
0000
0100
0010
0100
0000
,
1001
0001
0100
0000
0100
0000
0100
0000
,
0001
0000
1000
0000
0100
0000
0100
0001
,
0100
1000
0100
0000
0100
0000
0100
0000
,
0010
0000
0001
0100
0000
0010
0000
0000
,
1000
0001
0001
0001
,
1000
0000
0010
0000
0010
0000
0100
0001
,
0100
0010
1000
0000
1000
0000
1000
0100
,
0010
0000
0001
1000
0000
0010
0000
0000
,
0100
0000
0001
0010
0001
0010
0001
0010
,
0001
0000
1000
0100
1000
0100
1000
0100
,
1000
0000
0010
0100
0010
0100
0010
0100
,
0010
0000
1000
0001
0000
0010
0000
0000
,
0002
0000
0023
0000
,
0230
0000
2300
0000
,
3020
0000
0230
0000
,
0302
0000
2003
0000
,
3001
0010
0100
1000
,
0001
0010
0100
1000
,
0001
0100
1000
0100
,
0001
0010
0100
1000
0001
1000
0000
0000
,
0110
0000
1000
0010
,
1000
0010
1000
0010
,
0100
0000
0001
0010
,
0001
0010
0001
0010
,
0100
0000
1000
0001
,
1000
0001
1000
0010
,
0100
0000
0001
0100
,
0000
0010
0000
0000
,
1000
0100
0000
1000
,
0000
0001
0000
0100
,
0010
1000
0000
0001
,
0000
0010
0000
0001
,
1000
0100
1000
0100
,
0010
0001
0010
0001
,
0100
0010
0100
0001
,
0000
2000
0000
3000
,
0010
0000
0000
0100
0000
0000
0010
0000
,
1000
0000
0000
0001
0000
0000
1000
0000
,
0010
0000
0000
0100
0000
0000
0010
0000
,
1000
0000
0000
0001
0000
0000
0000
0000
,
0010
0000
0000
0001
0000
0000
1000
0000
,
0010
0000
0000
0100
0000
0000
0001
0000
,
1000
0000
0010
0000
,
0100
0000
0001
0000
,
1001
0010
0010
0100
,
1000
0001
1000
0001
,
0100
0010
0010
1000
,
0001
0010
0001
0010
,
0001
1000
1000
0010
,
0100
0001
0100
0001
,
0010
0001
0001
1000
,
0100
0010
0000
0000
,
1001
0000
0100
0010
0100
0010
0100
0010
,
0100
0000
0001
0010
0001
0010
0001
0010
,
0001
0000
1000
0100
1000
0100
1000
0100
,
1000
0000
0000
0000
0010
0000
0100
0000
0002
0000
2000
0000
0000
3003
0000
0000
;

//---------------dance-single - BEGINNER----------------
#NOTES:
     dance-single:
     DJ OMiY-BEG:
     Beginner:
     2:
     0.155071,0.205581,0.023428,0.078093,0.000000,139.000000,136.000000,3.000000,10.000000,0.000000,0.000000,0.155071,0.205581,0.023428,0.078093,0.000000,139.000000,136.000000,3.000000,10.000000,0.000000,0.000000:
0000
0000
0000
0000
,
0000
0000
0000
0000
,
0000
0000
0000
0000
,
0000
0000
0000
0000
,
1000
1000
1000
0000
,
0001
0001
0001
0000
,
1000
1000
1000
0000
,
0001
0001
0001
0000
,
0110
0000
0000
0000
,
1001
0000
0000
0000
,
0000
0100
0100
0100
,
0000
0001
0001
0001
,
0000
1000
1000
1000
,
1000
0000
0010
0000
,
0000
0100
0100
0100
,
0000
0001
0001
0001
,
0000
0010
0010
0010
,
0010
0000
0001
0000
,
1000
1000
1000
0000
,
0100
0100
0100
0000
,
0001
0001
0001
0000
,
0100
0100
0100
0000
,
1000
0000
0010
0000
,
1000
0000
0001
0000
,
0010
0000
0001
0000
,
0100
0000
0010
0000
,
0000
1000
1000
1000
,
0000
0001
0001
0001
,
0001
0000
1000
0000
,
0100
0100
0200
0000
,
0300
0000
0001
0000
,
0001
0001
0001
0000
,
1000
0000
1000
0000
,
1000
0000
1000
1000
,
1000
0000
0010
0000
,
0010
0010
0010
0000
,
0100
0000
0000
0000
,
0001
0000
0000
0000
,
0100
0100
0000
0001
,
0000
0100
0000
0001
,
0000
1000
0000
0010
,
0000
1000
0000
0010
,
0010
0000
0000
0000
,
0100
0000
0000
0000
,
0001
0000
1000
0000
,
0001
0000
0000
0000
,
2000
0000
0000
3000
0000
0000
0000
0000
,
0200
0000
0000
0300
0000
0000
0000
0000
,
0020
0000
0000
0030
0000
0000
0000
0000
,
0200
0000
0000
0300
0000
0000
0000
0000
,
1000
0000
0001
0000
,
0100
0000
0001
0000
,
0010
0000
0010
0000
,
0100
0000
0100
0000
,
1000
1000
1000
0000
,
0020
0000
0030
0000
,
0100
0100
0100
0000
,
0002
0000
0003
0000
,
0001
0001
0001
0000
,
0020
0000
0030
0000
,
0100
0100
0100
0000
,
2000
0000
3000
0000
,
1001
0000
0100
0100
,
0000
0010
0010
0010
,
0000
1000
1000
1000
,
0000
0000
0000
0000
0001
0000
0000
0000
0002
0000
0000
0000
0000
0003
0000
0000
;
