#TITLE:Discloze;
#SUBTITLE:;
#ARTIST:lapix;
#TITLETRANSLIT:;
#SUBTITLETRANSLIT:;
#ARTISTTRANSLIT:;
#GENRE:Psytrance;
#CREDIT:;
#BANNER:Discloze-bn.png;
#BACKGROUND:Discloze-bg.png;
#LYRICSPATH:;
#CDTITLE:;
#MUSIC:Discloze.ogg;
#OFFSET:-1.080999;
#SAMPLESTART:14.335410;
#SAMPLELENGTH:13.221379;
#LASTBEATHINT:276.026581;
#SELECTABLE:YES;
#BPMS:0.000000=145.000000
,100.000000=140.000000
,128.000000=128.000000
,196.000000=145.000000
;
#STOPS:
;
#BGCHANGES:;
#KEYSOUNDS:;
#ATTACKS:;

//---------------dance-single - S-HEAVY----------------
#NOTES:
     dance-single:
     DJ OMiY-HSP:
     Hard:
     7:
     0.375977,0.442215,0.115504,0.264009,0.086628,319.000000,305.000000,14.000000,32.000000,0.000000,0.000000,0.375977,0.442215,0.115504,0.264009,0.086628,319.000000,305.000000,14.000000,32.000000,0.000000,0.000000:
0000
0000
0000
0000
,
0000
0000
0000
0000
,
0000
0000
0000
0000
,
0000
0000
0000
0000
,
0000
0000
0000
0000
,
2002
0000
0000
0000
,
0000
0000
0000
3003
,
0001
0000
1000
0000
0001
1000
0001
1000
,
0000
0000
0000
0000
,
0001
0100
0010
0000
0100
1000
0100
0000
,
0001
0010
1000
0010
0001
1000
0001
0000
,
1000
0010
0000
0000
1000
0010
0000
0000
0100
0000
0001
0000
0100
0000
0000
0000
,
0001
0010
0100
1000
0001
0100
1000
0100
,
0001
0000
0110
0000
1000
0010
1000
0000
,
0002
0100
1000
0013
,
0001
0100
0001
0000
1000
0010
1000
0000
,
0200
0000
0001
1300
,
0100
0010
0001
0000
0100
1000
0100
0001
,
0100
0000
0010
0000
1000
0001
0010
0000
,
0100
1000
0000
0000
0100
1000
0000
0000
0001
0000
0010
0000
0001
0000
0000
0000
,
0100
0010
1000
0100
0010
0001
0010
1000
,
0010
0000
1001
0000
0100
0001
0010
0001
,
2000
0000
0001
0000
3100
1000
0001
0000
,
1000
0000
1001
0000
0001
0000
1000
2000
,
0000
0100
3100
0010
0002
0000
0003
0000
,
1001
0000
0001
0000
,
1000
0000
0001
0000
,
1001
0000
1000
0000
,
0001
0000
1000
0000
,
0010
0100
0010
0100
,
0001
0100
0001
0100
,
0001
0010
0100
0000
1000
0100
0010
0000
,
0002
0203
0320
2030
,
3002
0000
0000
0000
0103
0000
0001
0000
0000
0001
0000
0000
0100
0000
0000
0000
,
0020
0000
0000
0000
1030
0000
0100
0000
0000
0001
0000
0000
0100
0000
1000
0000
,
0002
0000
0000
0000
0013
0000
0001
0000
0000
0100
0000
0000
0001
0000
0000
0000
,
2000
0000
3001
0010
0001
0100
0001
0010
,
0200
0000
0000
0000
1300
0000
0100
0000
0000
0100
0000
0000
0010
0000
0000
0000
,
0002
0000
1003
0100
0010
0001
0010
0100
,
2000
0000
0000
0000
3010
0000
0100
0000
0000
0010
0000
0000
1000
0000
0000
0000
,
0200
0000
0310
0000
0001
1000
0001
1000
,
0010
0000
0100
0000
0010
0000
0000
1000
0000
0000
0010
0000
0010
0000
0000
0000
,
0100
0000
0001
0000
0100
0000
0000
0010
0000
0000
1000
0000
0100
0000
0100
0000
,
0010
0000
0001
0000
1000
0000
0000
0001
0000
0000
0100
0000
1000
0000
0000
0000
,
0200
0000
0000
0000
0301
0000
0000
0001
0000
0000
0010
0000
0001
0000
1000
0000
,
0001
0000
0010
0000
0100
0000
0000
0010
0000
0000
0001
0000
1000
0000
0000
0000
,
0010
0000
0000
0000
1000
0000
0001
1000
0000
0000
0001
0000
0010
0000
0010
0000
,
0001
0000
0000
0000
1000
0000
0000
0010
0000
0000
0100
0000
0001
0000
0000
0000
,
0020
0000
0032
0000
1003
0010
0100
0010
,
2000
0000
0000
0000
,
3200
0000
0000
0000
,
0320
0000
0031
1001
,
0002
0000
0000
0000
0003
1000
0100
0010
,
0001
1000
0010
0000
1000
0001
0010
0000
,
0001
1000
0100
1000
0001
1000
0010
0000
,
1000
0000
0000
0101
0000
0000
0000
0000
0010
0000
0001
0000
0100
0000
0000
0000
,
0010
1000
0010
1000
0100
0001
0100
1000
,
0010
0100
0001
0000
0010
0100
1000
0000
,
0010
1000
0001
0010
0001
0010
0100
0000
,
0010
0000
0000
1100
0000
0000
0000
0000
0010
0000
0001
0000
0100
0000
0000
0000
,
0010
0000
0100
0000
0000
0001
0000
0000
1000
0000
0000
0001
0000
0000
0100
0000
,
0220
0000
0330
0000
1000
0100
0010
0000
,
0202
0000
0303
0000
0001
0010
0100
0000
,
1000
0000
0000
1001
0000
0000
0000
0000
0010
0000
1000
0000
0001
0000
0000
0000
,
0100
0010
0100
0000
0001
1000
0001
0000
,
2002
0000
0000
0000
,
0000
3003
0000
0010
1000
0100
0001
0000
,
1001
0000
0000
0000
;

//---------------dance-single - S-STANDARD----------------
#NOTES:
     dance-single:
     DJ OMiY-SSP:
     Medium:
     5:
     0.292296,0.359300,0.189756,0.231008,0.024751,248.000000,225.000000,23.000000,28.000000,0.000000,0.000000,0.292296,0.359300,0.189756,0.231008,0.024751,248.000000,225.000000,23.000000,28.000000,0.000000,0.000000:
0000
0000
0000
0000
,
0000
0000
0000
0000
,
0000
0000
0000
0000
,
0000
0000
0000
0000
,
0000
0000
0000
0000
,
2002
0000
0000
0000
,
0000
0000
0000
3003
,
0100
0001
0010
0100
,
0000
0000
0000
0000
,
1001
0000
0010
0001
,
0100
0001
1000
0000
0010
0000
0000
0000
,
0110
1001
0010
0001
,
1000
0100
0010
0001
2000
0000
3002
0000
,
0103
0000
0001
0010
,
0002
0010
0013
0011
,
0100
0000
1000
0000
0010
0000
0100
0010
,
0200
0000
0000
0300
,
1001
0000
1000
0001
,
0010
0100
1000
0000
0010
0000
0000
0000
,
0101
1010
0001
0100
,
0001
0010
0100
1000
0002
0000
2003
0000
,
3100
0000
1000
0010
,
0100
0001
0010
0000
0100
1000
0010
0000
,
0220
0000
0330
0000
1001
0000
0000
0010
,
0000
1000
1000
0000
,
0100
0000
0100
0000
,
0010
0000
0100
0000
,
1000
0000
0100
0000
,
0001
0000
0100
0000
,
1000
0010
0100
0000
,
0001
0010
0100
0000
,
1000
0001
1000
0001
,
2000
0010
0010
3010
,
1001
0010
0001
0100
,
0010
1000
0100
1000
,
0110
0001
0100
0001
,
1000
0000
0010
0000
1000
0100
0001
0100
,
1000
0100
0010
0001
,
1000
0000
0010
0100
0010
0100
0010
0100
,
0001
0010
0001
0100
,
0020
0000
0000
0000
1030
0001
1000
0001
,
0010
0000
0000
0000
0001
0000
0000
1000
0000
0000
0001
0000
0001
0000
0000
0000
,
1000
0000
0000
0000
0010
0000
0000
0100
0000
0000
0010
0000
0010
0000
0000
0000
,
1000
0000
0000
0000
0100
0000
0000
1000
0000
0000
0001
0000
0002
0000
0000
0000
,
0003
0000
0000
0000
0110
0000
0000
0110
0000
0000
0000
0000
0001
0000
0000
0000
,
0010
0000
0000
0000
0100
0000
0000
1000
0000
0000
0100
0000
0100
0000
0000
0000
,
0010
0000
0000
0000
0001
0000
0000
1001
0000
0000
0000
0000
1000
0000
0001
0000
,
1000
0010
0100
0001
,
2000
0100
0100
3100
,
1200
0000
0000
0000
,
0320
0000
0000
0000
,
0032
0000
1000
0000
,
0103
0001
1000
0000
,
1001
0010
0001
0100
,
0010
0000
1000
0000
0100
0010
0001
0000
,
2002
0000
0000
3003
0000
0000
0000
0000
0001
0000
1000
0000
0001
0000
0000
0000
,
0100
0000
0001
0000
0010
0000
0100
1000
,
0100
1000
0010
0100
,
0001
0000
1000
0000
0010
1000
0100
0000
,
0220
0000
0000
0330
0000
0000
0000
0000
1000
0000
0001
0000
1000
0000
0000
0000
,
0010
0100
0010
0000
1000
0001
1000
0000
,
0202
0303
1000
0001
,
2200
3300
0001
1000
,
2002
0000
0000
3003
0000
0000
0000
0000
0001
0000
0000
0000
0010
0000
0000
0000
,
0001
0100
0001
0000
1000
0100
1000
0000
,
0200
0000
0000
0000
,
0000
0300
0000
0010
0000
0000
0100
0000
,
1001
0000
0000
0000
;

//---------------dance-single - S-LIGHT----------------
#NOTES:
     dance-single:
     DJ OMiY-LSP:
     Easy:
     3:
     0.177970,0.248746,0.115504,0.107254,0.000000,151.000000,137.000000,14.000000,13.000000,0.000000,0.000000,0.177970,0.248746,0.115504,0.107254,0.000000,151.000000,137.000000,14.000000,13.000000,0.000000,0.000000:
0000
0000
0000
0000
,
0000
0000
0000
0000
,
0000
0000
0000
0000
,
0000
0000
0000
0000
,
0000
0000
0000
0000
,
2000
0000
0000
0000
,
0000
0000
0000
0000
,
0002
0000
0000
0000
,
3003
0000
0000
0000
,
1001
0000
0010
0000
,
0001
0100
0100
0000
,
0010
0010
1000
0000
,
0002
0003
0020
0030
,
1001
0000
0100
0000
,
1000
0100
0010
0001
,
1000
0000
0010
0000
,
0100
0000
0000
0000
,
1001
0000
0010
0100
,
0000
0000
0001
0000
,
1000
1000
0100
0000
,
0200
0300
0020
0030
,
1001
0000
0010
0000
,
0001
0010
0100
0000
,
1000
0000
0001
0100
,
0000
0000
0000
0000
,
0010
0000
0010
0000
,
0100
0000
0100
0000
,
0001
0000
0001
0000
,
1000
0000
1000
0000
,
0001
0000
0010
0000
,
0100
0000
1000
0000
,
0001
1000
0001
1000
,
0020
0000
0000
0030
,
1001
0000
0100
0001
,
1000
0000
0010
1000
,
0100
0000
0010
0001
,
0100
0000
0001
1000
,
0001
0000
0010
0100
,
1000
0001
0001
0001
,
0100
0000
0010
0100
,
0002
0000
0000
0003
,
1001
0100
0000
0100
,
0001
1000
0000
1000
,
0010
0100
0000
0100
,
0001
1000
1000
1000
,
0010
0000
0100
0000
,
0001
1001
0000
1001
,
0001
0010
0000
0010
,
0200
0000
0000
0300
,
0100
0000
0000
0000
,
0000
0000
0000
0000
,
0000
0000
0110
0000
,
2002
0000
3003
0000
,
0110
0000
1000
0000
,
0001
1000
0010
0000
,
0100
0001
0000
1000
,
0010
0100
0010
0000
,
1000
0000
0100
0000
,
1000
0001
0010
0000
,
0100
1000
0000
0001
,
0200
0010
0010
0310
,
1001
0000
0000
0000
,
0110
0000
0000
0000
,
0001
0010
0000
0100
,
1000
0001
1000
0001
,
0020
0000
0000
0000
,
0000
0000
0000
0030
0000
0000
0000
0000
,
0110
0000
0000
0000
;

//---------------dance-single - BEGINNER----------------
#NOTES:
     dance-single:
     DJ OMiY-BEG:
     Beginner:
     1:
     0.120218,0.193469,0.049502,0.000000,0.000000,102.000000,96.000000,6.000000,0.000000,0.000000,0.000000,0.120218,0.193469,0.049502,0.000000,0.000000,102.000000,96.000000,6.000000,0.000000,0.000000,0.000000:
// measure 0
0000
0000
0000
0000
,  // measure 1
0000
0000
0000
0000
,  // measure 2
0000
0000
0000
0000
,  // measure 3
0000
0000
0000
0000
,  // measure 4
0000
0000
0000
0000
,  // measure 5
0010
0000
0000
0000
,  // measure 6
0000
0000
0000
0000
,  // measure 7
0100
0000
0000
0000
,  // measure 8
0000
0000
0000
0000
,  // measure 9
0110
0000
0000
0000
,  // measure 10
0100
0000
0010
0000
,  // measure 11
0100
0000
0000
0000
,  // measure 12
0001
0000
1000
0000
,  // measure 13
0001
0000
1000
0000
,  // measure 14
0100
0000
0000
0000
,  // measure 15
1000
0000
0010
0000
,  // measure 16
0100
0000
0000
0000
,  // measure 17
1001
0000
0001
0000
,  // measure 18
1000
0000
0000
0000
,  // measure 19
0010
0010
0010
0000
,  // measure 20
1000
0000
0001
0000
,  // measure 21
1000
0000
0000
0000
,  // measure 22
0100
0000
0010
0000
,  // measure 23
0100
0000
0000
0000
,  // measure 24
0000
0000
0000
0000
,  // measure 25
0001
0000
0000
0000
,  // measure 26
1000
0000
0000
0000
,  // measure 27
0001
0000
0000
0000
,  // measure 28
1000
0000
0000
0000
,  // measure 29
0010
0000
0100
0000
,  // measure 30
0010
0000
0100
0000
,  // measure 31
0001
0000
0010
0000
,  // measure 32
0100
0000
0000
0000
,  // measure 33
1000
1000
0000
0100
,  // measure 34
0100
0000
0000
0000
,  // measure 35
0010
0010
0000
0001
,  // measure 36
0001
0000
0000
0000
,  // measure 37
0100
0100
0000
0010
,  // measure 38
0010
0000
0000
0000
,  // measure 39
1000
1000
0000
0001
,  // measure 40
0001
0000
0000
0000
,  // measure 41
0000
0010
0000
1000
,  // measure 42
0000
0001
0000
0010
,  // measure 43
0000
0001
0000
1000
,  // measure 44
0000
1001
0000
0000
,  // measure 45
0000
0010
0000
1000
,  // measure 46
0000
0100
0000
0010
,  // measure 47
0000
0001
0000
1000
,  // measure 48
1000
0000
0000
0000
,  // measure 49
0010
0000
0000
0000
,  // measure 50
0000
0000
0000
0000
,  // measure 51
0000
0000
0001
0000
,  // measure 52
0100
0100
0100
0000
,  // measure 53
0110
0000
1000
0000
,  // measure 54
0001
0000
0010
0010
,  // measure 55
0010
0000
0000
0000
,  // measure 56
0001
0000
0100
0000
,  // measure 57
0010
0000
0100
0000
,  // measure 58
0001
0000
1000
1000
,  // measure 59
1000
0000
0000
0000
,  // measure 60
0100
0000
1000
0000
,  // measure 61
1001
0000
0000
0000
,  // measure 62
1001
0000
0000
0000
,  // measure 63
0010
0000
0001
0000
,  // measure 64
1000
0000
0001
0000
,  // measure 65
0100
0000
0000
0000
,  // measure 66
0000
0000
0000
0000
,  // measure 67
0100
0000
0000
0000
;
