#TITLE:DON'T DON'T GO AWAY;
#SUBTITLE:IAN K REMIX;
#ARTIST:Foxxie;
#TITLETRANSLIT:;
#SUBTITLETRANSLIT:;
#ARTISTTRANSLIT:;
#GENRE:Diskore;
#CREDIT:;
#BANNER:Don't Don't Go Away (Ian K Remix)-bn.png;
#BACKGROUND:Don't Don't Go Away (Ian K remix)-bg.png;
#LYRICSPATH:;
#CDTITLE:;
#MUSIC:Don't Don't Go Away (Ian K Remix).OGG;
#OFFSET:-0.002000;
#SAMPLESTART:68.573425;
#SAMPLELENGTH:21.942856;
#LASTBEATHINT:336.000000;
#SELECTABLE:YES;
#BPMS:0.000000=175.000000
;
#STOPS:
;
#BGCHANGES:;
#KEYSOUNDS:;
#ATTACKS:;

//---------------dance-single - ----------------
#NOTES:
     dance-single:
     :
     Hard:
     9:
     0.653007,0.834492,0.110248,0.364666,0.275620,483.000000,13.000000,43.000000,0.000000,0.000000,0.000000,0.653007,0.834492,0.110248,0.364666,0.275620,483.000000,13.000000,43.000000,0.000000,0.000000,0.000000:
0000
0000
0000
0000
,
0000
0000
0000
0000
,
2002
0000
0000
0000
,
0000
0000
3000
0000
,
0020
0000
0000
0000
,
0000
0000
0003
0000
,
2000
0000
0000
0000
,
0000
0000
0030
0000
,
0200
0000
0000
0000
,
0000
0000
3000
0000
,
0301
0001
1000
1000
,
0001
0010
0100
2000
0000
3010
0100
0010
,
0100
0000
0100
0000
0010
0000
0010
1000
,
0000
0001
0010
0001
0000
1000
0001
0100
,
0010
0010
1000
1000
,
0001
0010
0100
2000
0000
3001
0010
0001
,
0001
0001
0100
0100
,
1001
0000
0000
0000
,
0010
0000
0000
0000
1000
0000
0000
0000
0001
0000
0010
0001
0000
0000
1000
0000
,
0010
0000
0100
0000
0100
0000
0000
0001
0000
0000
1000
0000
0100
0000
0000
0000
,
1000
0100
0001
0000
0001
0100
1000
0000
,
0010
0200
0000
0002
0000
0000
0303
0000
,
0010
0000
0000
0000
0010
0000
0000
0000
1000
0000
0001
0100
0000
0000
0000
0000
,
0010
0000
1000
0000
1000
0000
0000
0001
0000
0000
0010
0000
0001
0000
0000
0000
,
0100
0010
0100
0001
0100
0010
0100
0000
,
0001
0020
0000
0200
0000
0000
0330
0000
,
1000
0000
0000
0000
1000
0000
0000
0000
0001
0000
0100
0001
0000
0000
0010
0000
,
0001
0000
0100
0010
0100
0000
0001
1000
0000
0000
0010
0000
0100
0000
0000
0000
,
0002
0023
2030
3020
0032
0023
0230
1300
,
0010
0000
0100
0000
0010
0000
1000
0001
0000
0000
0000
0000
2000
0000
0000
0000
,
3100
0000
0000
0000
0100
0000
0000
0000
0010
0000
0100
1000
0000
0000
0001
0000
,
0100
0000
0001
1000
0001
0000
0010
0100
0000
0000
0010
0000
0001
0000
0000
0000
,
2000
3020
0032
0023
2030
3002
0203
0310
,
0100
0000
0001
0000
1000
0000
0100
0010
0000
0000
0000
0000
0000
0000
0000
0000
,
0001
0000
1000
0000
0001
0000
1000
0000
0010
0000
0000
0100
0000
0000
0000
0000
,
0001
0000
0000
0010
0000
0000
0001
0000
0000
1000
0000
0000
0010
0000
0010
0000
,
1000
0000
0100
0000
1000
0000
0100
0000
0010
0000
0000
0001
0000
0000
0000
0000
,
0100
0000
0000
0001
0000
0000
0010
0000
0000
1000
0000
0000
0010
0000
0001
0000
,
1000
0000
0010
0000
0100
0000
0010
0000
1000
0000
0000
0001
0000
0000
0000
0000
,
0010
0000
0000
0010
0000
0000
0100
0000
0000
0100
0000
0000
1000
0000
0001
0000
,
0100
0000
1000
0000
0100
0000
0001
0000
1000
0000
0000
0001
0000
0000
0000
0000
,
0010
0000
0000
0001
0000
0000
0100
0000
0000
1000
0000
0000
0100
0000
0001
0000
,
1000
0000
0010
0000
0100
0000
0010
0000
1000
0000
0001
0100
0000
0000
0000
0000
,
0001
0000
0010
0001
0000
0000
1000
0000
0010
1000
0000
0000
0010
0000
0100
0000
,
0001
0000
1000
0000
0100
0000
0010
0000
0001
0000
1000
0010
0000
0000
0000
0000
,
0100
0000
0001
1000
0000
0000
0010
0000
1000
0001
0000
0000
0100
0000
0001
0000
,
1000
0100
0010
0001
0010
0100
1000
0001
,
0100
0010
0100
0001
1000
0010
0100
0001
,
0010
0001
0010
0000
0001
1000
0001
0000
1000
0100
1000
0000
0010
0100
0010
0200
,
0002
0000
0003
1300
,
0101
0000
0000
0000
0101
0000
0000
0000
1000
0000
0010
0100
0000
0000
0001
0000
,
1000
0000
0001
0010
0001
0000
1000
0100
0000
0000
1000
0000
0001
0000
0000
0000
,
0010
0000
0100
0000
0010
0000
0001
0010
0000
0000
0001
0000
1000
0000
0010
0000
,
0100
0001
1000
0002
0010
0000
1003
0000
,
1100
0000
0000
0000
1100
0000
0000
0000
0010
0000
0100
0020
0000
0000
0030
0000
,
0001
0000
1000
0000
0001
0000
0100
0010
0000
0000
1000
0000
1000
0000
0000
0000
,
0010
0100
0001
1000
0100
0010
0001
1000
,
0001
0100
0010
0200
0010
0000
1300
0000
,
0101
0000
0000
0000
0110
0000
0000
0000
0010
0000
1000
0001
0000
0000
0010
0000
,
0001
0000
1000
0010
1000
0000
0001
0100
0000
0000
0001
0000
0010
0000
0000
0000
,
0200
0320
0032
2003
3002
0203
0320
1030
,
0001
0000
0100
0000
0100
0000
0001
0010
0000
0000
0001
0000
0001
0000
1000
0000
,
1010
0000
0000
0000
0101
0000
0000
0000
0010
0000
1000
0100
0000
0000
0010
0000
,
0100
0000
0010
0001
0010
0000
0001
1000
0000
0000
0010
0000
0100
0000
0000
0000
,
0001
0010
0001
0010
0001
0010
0001
0010
0100
1000
0100
1000
0100
1000
0100
1000
,
0001
0000
1000
0000
0001
0000
0100
0001
0000
0000
1000
0000
0020
0000
0030
0000
,
1001
0000
1000
0000
1000
0000
0001
0000
1000
0000
0010
1000
0000
0000
0200
0000
,
0000
0000
0310
0000
0001
0000
1000
0001
0000
0000
0100
0000
0100
0000
0000
0000
,
0001
0000
0001
0000
1000
0000
1000
0000
0010
0000
0100
0001
0000
0000
0020
0000
,
0000
0000
0031
0000
1000
0000
0010
1000
0000
0000
0100
0000
0100
0000
0000
0000
,
1000
0000
1000
0000
0010
0000
1000
0000
0001
0000
0100
0010
0000
0000
0200
0000
,
0000
0000
0301
0000
1000
0000
0100
1000
0000
0000
0010
0000
0010
0000
0000
0000
,
1000
0000
1000
0000
0100
0000
0100
0000
0010
0000
0100
0010
0000
0000
0002
0000
,
0000
0000
0103
0000
0001
0000
0010
0100
0000
0000
1000
0000
1000
0000
0000
0000
,
1001
1000
0100
0010
0010
0001
1000
0001
,
0100
0010
0010
1000
0001
0100
0001
1000
,
1000
0100
0010
0100
1000
1000
0001
0100
,
0001
0001
0010
0001
1000
0100
0100
0100
,
1000
0010
0100
0001
1000
0001
0010
0010
,
0100
1000
1000
0001
0001
0100
0100
0010
,
1000
0001
0001
0010
0100
1000
1000
0001
,
0010
0000
0000
0000
,
1001
0000
0000
0000
;

//---------------dance-single - ----------------
#NOTES:
     dance-single:
     :
     Medium:
     6:
     0.416762,0.452017,0.127209,0.381628,0.038163,284.000000,15.000000,45.000000,0.000000,0.000000,0.000000,0.416762,0.452017,0.127209,0.381628,0.038163,284.000000,15.000000,45.000000,0.000000,0.000000,0.000000:
0000
0000
0000
0000
,
0000
0000
0000
0000
,
0022
0000
0000
0000
,
0000
0000
0003
0000
,
0200
0000
0000
0000
,
0000
0000
0030
0000
,
2000
0000
0000
0000
,
0000
0000
0300
0000
,
0002
0000
0000
0000
,
0000
0000
0000
3003
,
0001
0100
0000
0100
,
1000
0100
0000
0100
,
0001
0010
0000
0010
,
1000
0010
0000
0010
,
0001
1000
0000
1000
,
0010
0001
0000
0001
,
0010
1000
0000
1000
,
2002
0000
0000
3003
,
0010
0000
0000
0000
0100
0000
0000
0000
0010
0000
0000
0010
0000
0000
1000
0000
,
0001
0000
0000
0000
0001
0000
0000
1000
0000
0000
0100
0000
0010
0000
0000
0000
,
0001
0000
0000
0000
0100
0000
0000
0010
0000
0000
1000
0000
0010
0000
0000
0000
,
1000
0002
0000
0200
0000
0000
0303
0000
,
0010
0000
0000
0000
0010
0000
0000
0000
1000
0000
0000
0100
0000
0000
0000
0000
,
0010
0000
0000
0000
0010
0000
0000
0100
0000
0000
0010
0000
0001
0000
0000
0000
,
1000
1000
0001
0001
,
0100
0020
0000
0200
0000
0000
0330
0000
,
0001
1000
0001
1000
,
0010
0000
0100
0000
0010
0000
0000
1000
0000
0000
0001
0000
0001
0000
0000
0000
,
0010
0001
0010
0100
1000
0100
0010
0000
,
0001
0000
0000
0000
1000
0000
0000
0001
0000
0000
0000
0000
0000
0000
0000
0000
,
1000
0010
1000
0010
,
0100
0000
0000
0000
0001
0000
0000
0100
0000
0000
0001
0000
1000
0000
0000
0000
,
0010
1000
0001
1000
0010
1000
0001
0000
,
0010
0000
0000
0000
0001
0000
0000
0100
0000
0000
0000
0000
0000
0000
0000
0000
,
0220
0000
0000
0330
,
0001
0000
0000
0001
0000
0000
1000
0000
,
2200
0000
0000
3300
,
0010
0000
0000
0010
0000
0000
0001
0000
,
0202
0000
0000
0303
,
0010
0000
0000
0010
0000
0000
1000
0000
,
2002
0000
0000
3003
,
0010
0000
0000
0100
0000
0000
0010
0000
,
1000
0100
0000
0100
0000
0100
0000
0100
,
2000
0000
0000
3020
0000
0000
0230
0000
,
0301
0010
0000
0010
0000
0010
0000
0010
,
0002
0000
0000
2003
0000
0000
3020
0000
,
1030
0001
0000
0001
0000
0001
0000
0001
,
0020
0000
0000
0032
0000
0000
2003
0000
,
3100
1000
0100
1000
0001
0100
0001
0100
,
0010
0000
0000
1000
,
1001
0010
1001
0010
,
1000
0100
0010
0000
0001
0000
0100
0000
,
0010
1000
0010
0000
0100
0001
0100
0000
,
0010
1000
0001
0100
,
0011
1000
0011
1000
,
0010
0100
0001
0000
1000
0000
0001
0000
,
0010
0100
1000
0000
0100
0010
0001
0000
,
1000
0001
0100
0010
,
1000
1000
1000
0001
,
0010
0001
0010
0000
0001
0000
1000
0000
,
0020
0230
0302
2003
,
3010
1000
0001
0000
0100
0000
0001
0000
,
0010
0010
0010
0001
,
1000
0010
0100
0000
0001
0000
0010
0000
,
0200
0320
0032
2003
,
3020
1000
0100
0031
,
0220
0000
0000
0000
0000
0330
0000
0001
,
1000
0000
0010
0000
0100
0010
0100
0000
,
2002
0000
0000
0000
0000
3003
0000
1000
,
0100
0000
0010
0000
0001
1000
0010
0000
,
2200
0000
0000
0000
0000
3300
0000
0100
,
0010
0000
0001
0000
1000
0010
0100
0000
,
0202
0000
0000
0000
0000
0303
0000
0010
,
1000
0000
0001
0000
0010
0001
0100
0000
,
0010
1000
0000
0001
0000
1000
0000
0010
,
0000
0100
0000
0001
0000
1000
0000
0100
,
0010
0001
0000
1000
0000
0001
0000
0100
,
0000
0010
0000
1000
0000
0001
0000
0010
,
0100
1000
0000
0001
0000
0100
0000
1000
,
0000
0100
0000
0001
0000
1000
0000
0010
,
0100
0001
0000
0010
0000
0100
0000
1000
,
0001
0000
0000
0000
,
1010
0000
0000
0000
;

//---------------dance-single - ----------------
#NOTES:
     dance-single:
     :
     Easy:
     4:
     0.324686,0.312935,0.110248,0.279860,0.000000,222.000000,13.000000,33.000000,0.000000,0.000000,0.000000,0.324686,0.312935,0.110248,0.279860,0.000000,222.000000,13.000000,33.000000,0.000000,0.000000,0.000000:
// measure 0
0000
0000
0000
0000
,  // measure 1
0000
0000
0000
0000
,  // measure 2
2200
0000
0000
0000
,  // measure 3
0000
0000
0300
0000
,  // measure 4
0020
0000
0000
0000
,  // measure 5
0000
0000
3000
0000
,  // measure 6
0200
0000
0000
0000
,  // measure 7
0000
0000
0030
0000
,  // measure 8
0002
0000
0000
0000
,  // measure 9
0000
0000
0300
0000
,  // measure 10
1003
0001
0000
0001
,  // measure 11
0000
0010
0000
0010
,  // measure 12
0000
0100
0000
0100
,  // measure 13
0000
1000
0000
1000
,  // measure 14
0010
0001
0000
0001
,  // measure 15
0000
0010
0000
0010
,  // measure 16
0000
0100
0000
0100
,  // measure 17
1001
0000
0000
0000
,  // measure 18
0010
0010
1000
1000
,  // measure 19
0001
0001
0100
0100
,  // measure 20
0001
0010
0100
1000
,  // measure 21
0001
0000
0000
0000
,  // measure 22
1000
1000
0010
0010
,  // measure 23
0100
0001
0100
0001
,  // measure 24
1000
0001
0010
0100
,  // measure 25
1000
0000
0000
0000
,  // measure 26
0010
0100
0001
0100
,  // measure 27
0010
1000
0001
0010
,  // measure 28
0200
1000
1000
1300
,  // measure 29
0100
0010
0001
0000
,  // measure 30
1000
0010
0100
0010
,  // measure 31
1000
0001
1000
0100
,  // measure 32
0020
0001
0001
0031
,  // measure 33
0010
0001
1000
0000
,  // measure 34
0220
0000
0000
0330
,  // measure 35
0002
0000
0000
0003
0000
0000
1000
0000
,  // measure 36
2020
0000
0000
3030
,  // measure 37
0200
0000
0000
0300
0000
0000
0001
0000
,  // measure 38
2200
0000
0000
3300
,  // measure 39
0002
0000
0000
0003
0000
0000
0010
0000
,  // measure 40
2002
0000
0000
3003
,  // measure 41
0020
0000
0000
0030
0000
0000
0100
0000
,  // measure 42
0001
0001
0001
0000
,  // measure 43
1000
0100
0010
0001
,  // measure 44
1000
1000
1000
0000
,  // measure 45
0010
0100
0001
1000
,  // measure 46
0010
0010
0010
0000
,  // measure 47
0100
0001
1000
0001
,  // measure 48
0100
0100
0100
0010
,  // measure 49
2002
0000
0000
3003
,  // measure 50
0001
0100
1000
0010
,  // measure 51
0001
1000
0001
0000
,  // measure 52
1000
1000
0100
0100
,  // measure 53
0010
0001
1000
0000
,  // measure 54
0001
0010
1000
0100
,  // measure 55
0001
1000
0001
0000
,  // measure 56
0010
0010
0001
0001
,  // measure 57
0100
0000
1000
0000
,  // measure 58
0100
0010
0100
0001
,  // measure 59
1000
0100
0010
0010
,  // measure 60
0002
1000
1000
1003
,  // measure 61
0100
0010
0100
0000
,  // measure 62
0010
1000
0010
0001
,  // measure 63
0010
0100
0001
1000
,  // measure 64
0200
1000
1000
1300
,  // measure 65
0100
0010
0001
0000
,  // measure 66
0220
0000
0000
0330
,  // measure 67
0001
1000
0001
1000
,  // measure 68
0202
0000
0000
0303
,  // measure 69
1000
0010
0100
0001
,  // measure 70
2200
0000
0000
3300
,  // measure 71
0001
0010
0100
1000
,  // measure 72
2002
0000
0000
3003
,  // measure 73
0010
0100
0001
0010
,  // measure 74
1100
1000
1000
0001
,  // measure 75
0100
0010
0100
0001
,  // measure 76
0010
0010
0010
0001
,  // measure 77
1000
0100
0010
0001
,  // measure 78
1000
1000
1000
0010
,  // measure 79
1000
1000
0100
0010
,  // measure 80
0001
0001
0001
0100
,  // measure 81
2002
0000
0000
3003
,  // measure 82
0010
0000
0000
0000
;

//---------------dance-single - ----------------
#NOTES:
     dance-single:
     :
     Beginner:
     2:
     0.188997,0.208623,0.016961,0.212015,0.000000,129.000000,2.000000,25.000000,0.000000,0.000000,0.000000,0.188997,0.208623,0.016961,0.212015,0.000000,129.000000,2.000000,25.000000,0.000000,0.000000,0.000000:
// measure 0
0000
0000
0000
0000
,  // measure 1
0000
0000
0000
0000
,  // measure 2
2000
0000
0000
0000
,  // measure 3
0000
0000
3000
0000
,  // measure 4
0002
0000
0000
0000
,  // measure 5
0000
0000
0003
0000
,  // measure 6
0200
0000
0000
0000
,  // measure 7
0000
0000
0300
0000
,  // measure 8
0020
0000
0000
0000
,  // measure 9
0000
0000
0030
0000
,  // measure 10
0000
1000
0000
1000
,  // measure 11
0000
1000
0000
1000
,  // measure 12
0000
0001
0000
0001
,  // measure 13
0000
0001
0000
0001
,  // measure 14
0000
0100
0000
0100
,  // measure 15
0000
0100
0000
0100
,  // measure 16
0000
0010
0000
0010
,  // measure 17
0010
0000
0000
0000
,  // measure 18
1000
1000
1000
0000
,  // measure 19
0020
0000
0030
0000
,  // measure 20
0100
0000
0001
0000
,  // measure 21
0100
0000
0000
0000
,  // measure 22
0001
0001
0001
0000
,  // measure 23
0020
0000
0030
0000
,  // measure 24
0100
0000
1000
0000
,  // measure 25
0100
0000
0000
0000
,  // measure 26
1000
0000
2000
3000
,  // measure 27
0001
0000
0002
0003
,  // measure 28
0100
0100
0100
0000
,  // measure 29
0020
0000
0030
0000
,  // measure 30
1000
0000
0020
0030
,  // measure 31
0010
0000
2000
3000
,  // measure 32
0001
0001
0001
0000
,  // measure 33
0020
0000
0030
0000
,  // measure 34
2002
0000
0000
0000
,  // measure 35
0000
0000
0000
0000
,  // measure 36
0000
0000
0000
0000
,  // measure 37
0000
0000
3003
0000
,  // measure 38
0200
0000
0000
0000
,  // measure 39
0000
0000
0000
0000
,  // measure 40
0000
0000
0000
0000
,  // measure 41
0300
0000
0000
0000
,  // measure 42
0010
0000
0000
0000
,  // measure 43
1000
0000
1000
0000
,  // measure 44
0001
0000
0000
0000
,  // measure 45
0001
0000
0001
0000
,  // measure 46
0100
0000
0000
0000
,  // measure 47
0100
0000
0100
0000
,  // measure 48
0010
0000
0000
0000
,  // measure 49
1001
0000
0000
0000
,  // measure 50
0010
0010
0010
0000
,  // measure 51
1000
0000
0001
0000
,  // measure 52
1000
0000
1000
0000
,  // measure 53
0200
0000
0000
0300
0000
0000
0000
0000
,  // measure 54
0010
0010
0010
0000
,  // measure 55
0001
0000
0100
0000
,  // measure 56
0001
0000
0001
0000
,  // measure 57
2000
0000
0000
3000
0000
0000
0000
0000
,  // measure 58
0010
0010
0010
0000
,  // measure 59
1000
0000
0001
0000
,  // measure 60
0200
0000
0300
0000
,  // measure 61
0010
0010
0010
0000
,  // measure 62
0100
0100
0100
0000
,  // measure 63
0001
0000
0010
0000
,  // measure 64
0200
0000
0300
0000
,  // measure 65
2000
0000
3000
0000
,  // measure 66
0020
0000
0030
0000
,  // measure 67
0100
0000
0100
0000
,  // measure 68
0002
0000
0003
0000
,  // measure 69
1000
0000
0001
0000
,  // measure 70
0200
0000
0300
0000
,  // measure 71
0010
0000
0010
0000
,  // measure 72
2000
0000
3000
0000
,  // measure 73
0100
0000
0010
0000
,  // measure 74
0001
0001
0001
0000
,  // measure 75
1000
1000
1000
0000
,  // measure 76
0010
0010
0010
0000
,  // measure 77
0100
0100
0100
0000
,  // measure 78
0001
0001
0001
0000
,  // measure 79
1000
1000
1000
0000
,  // measure 80
0100
0100
0100
0000
,  // measure 81
0020
0000
0000
0030
,  // measure 82
0100
0000
0000
0000
;
