#TITLE:Cosmic Cat;
#SUBTITLE:;
#ARTIST:8bit Moonside;
#TITLETRANSLIT:;
#SUBTITLETRANSLIT:;
#ARTISTTRANSLIT:;
#GENRE:Future Bass;
#CREDIT:;
#BANNER:Cosmic Cat-bn.png;
#BACKGROUND:Cosmic Cat-bg.png;
#LYRICSPATH:;
#CDTITLE:;
#MUSIC:Cosmic Cat.ogg;
#OFFSET:-1.060000;
#SAMPLESTART:25.059999;
#SAMPLELENGTH:24.000002;
#SELECTABLE:YES;
#BPMS:0.000000=160.000000
;
#STOPS:
;
#BGCHANGES:;
#KEYSOUNDS:;
#ATTACKS:;

//---------------dance-single - S-HEAVY----------------
#NOTES:
     dance-single:
     DJ OMiY-HSP:
     Hard:
     9:
     0.552050,0.692592,0.661110,0.149537,0.255787,491.000000,407.000000,84.000000,19.000000,0.000000,0.000000,0.552050,0.692592,0.661110,0.149537,0.255787,491.000000,407.000000,84.000000,19.000000,0.000000,0.000000:
// measure 0
0000
0000
0000
0000
,  // measure 1
0000
0000
0000
0000
,  // measure 2
0000
0000
0000
0000
,  // measure 3
0000
0000
0000
0000
,  // measure 4
0000
0000
0000
0000
,  // measure 5
0000
0000
0000
0000
,  // measure 6
0000
0000
0000
0000
,  // measure 7
0000
0000
0000
0000
,  // measure 8
1000
0000
1000
0000
0001
1000
0001
0100
,  // measure 9
0001
0001
1000
1000
,  // measure 10
0010
0000
0010
0000
0100
0000
0100
0001
,  // measure 11
0100
0010
0100
1000
0100
0000
0100
0000
,  // measure 12
0001
0000
0001
0000
0010
0100
0010
0100
,  // measure 13
1000
1000
0100
0100
,  // measure 14
1001
0010
0101
0010
,  // measure 15
1100
0110
0101
1000
,  // measure 16
0011
0000
0000
0011
0000
0000
0011
0000
0000
0011
0000
0000
1000
0000
0000
0000
,  // measure 17
1010
0000
0000
1010
0000
0000
1010
0000
0000
1010
0000
0000
0100
0000
0000
0000
,  // measure 18
1001
0000
0000
1001
0000
0000
1001
0000
0000
1001
0000
0000
0010
0000
0000
0000
,  // measure 19
1100
0000
0000
1100
0000
0000
1100
0000
1000
0000
0001
0000
0010
0000
0000
0000
,  // measure 20
0101
0000
0000
0101
0000
0000
0101
0000
0000
0101
0000
0000
0010
0000
0000
0000
,  // measure 21
0110
0000
0000
0110
0000
0000
0110
0000
0000
0110
0000
0000
1000
0000
0000
0000
,  // measure 22
0001
0000
0000
0010
0000
0000
1000
0000
0001
0000
0000
0100
0000
0000
1000
0000
,  // measure 23
0002
0000
0203
0000
0310
1000
0100
0000
,  // measure 24
1100
0000
0000
1010
0000
0000
1001
0000
0000
1100
0000
0000
0001
0000
0000
0000
,  // measure 25
0011
0000
0000
1001
0000
0000
0101
0000
0000
0011
0000
0000
1000
0000
0000
0000
,  // measure 26
0011
0000
0000
0110
0000
0000
1100
0000
0000
1001
0000
0000
0100
0000
0000
0000
,  // measure 27
1010
0000
0000
0110
0000
0000
0101
0000
0000
0000
1001
0000
0100
0000
0000
0000
,  // measure 28
0001
0000
0000
0010
0001
0000
0100
0000
0010
1000
0000
0000
0100
0000
0000
0000
,  // measure 29
1000
0000
0000
0010
0100
0000
0001
0000
0010
0001
0000
0000
1000
0000
0000
0000
,  // measure 30
0010
0000
0000
1000
0100
0000
0010
0000
0001
0000
0000
0100
0010
0000
1000
0000
,  // measure 31
0002
0000
0023
0000
0031
0100
0010
0000
,  // measure 32
0100
0000
0000
0001
1000
0000
0001
0000
0100
0000
0010
0000
0000
0000
0010
0000
,  // measure 33
1000
0000
0000
0100
1000
0000
0001
0000
0100
0000
0001
0000
1000
0000
0100
0000
,  // measure 34
0010
0000
0002
0000
0000
0000
1003
0000
0001
0000
0000
0100
0010
0000
0100
0000
,  // measure 35
0001
0010
0100
0010
1000
0010
0001
0000
,  // measure 36
1000
0000
0000
0100
1000
0000
0010
0000
0100
0000
0001
0000
0000
0000
0001
0000
,  // measure 37
0010
0000
0000
0100
0010
0000
0001
0000
0100
0000
0010
0000
0100
0000
0001
0000
,  // measure 38
0010
1000
0010
0001
0000
1000
0020
0000
,  // measure 39
0001
0000
0100
0000
1030
0010
0200
0000
,  // measure 40
0301
0000
0000
1000
0001
0000
0100
0000
0010
0000
0100
0000
0000
0000
0100
0000
,  // measure 41
1000
0000
0000
0100
0001
0000
0100
0000
0010
0000
1000
0000
0100
0000
1000
0000
,  // measure 42
0010
0000
0200
0000
0000
0000
0301
0000
0100
0000
0000
0010
1000
0000
0100
0000
,  // measure 43
0010
0001
0100
0001
0010
0001
1000
0000
,  // measure 44
0010
0000
0000
1000
0100
0000
0010
0000
0100
0000
1000
0000
0000
0000
1000
0000
,  // measure 45
0010
0000
0000
0100
0001
0000
0010
0000
0001
0000
0100
0000
0010
0000
1000
0000
,  // measure 46
0100
0001
0100
1000
0000
0001
0100
0000
,  // measure 47
0010
0000
0000
0100
0001
0000
1000
0000
0100
0000
2000
0000
0000
0000
0000
0000
,  // measure 48
3010
0000
0000
0000
0100
0002
0000
0023
,  // measure 49
0000
0000
0130
0000
0010
0000
0000
0001
,  // measure 50
0100
0100
0000
0000
0010
0000
1000
0001
,  // measure 51
0000
0100
0000
1000
0000
0100
0000
0001
,  // measure 52
1000
0001
0000
0000
0010
0200
0000
2300
,  // measure 53
0000
0000
3001
0000
0010
0000
0000
0100
,  // measure 54
0010
0001
0000
0000
1000
0000
0010
0100
,  // measure 55
0000
0010
0000
1000
0000
0001
0000
0000
,  // measure 56
0100
0001
0100
0000
0001
0010
0001
0000
,  // measure 57
0010
1000
0010
0000
1000
0100
1000
0000
,  // measure 58
0100
0001
0100
0000
0001
0010
0001
1000
,  // measure 59
0000
0100
0000
0010
0000
0001
0000
1000
,  // measure 60
0001
0100
0100
0000
1000
0100
0100
0000
,  // measure 61
0001
0010
0010
0000
1000
0010
0010
0000
,  // measure 62
1001
0100
0101
1000
,  // measure 63
0011
0110
1100
0001
,  // measure 64
1010
0000
0000
0110
0000
0000
0101
0000
0000
1001
0000
0000
0010
0000
0000
0000
,  // measure 65
0011
0000
0000
1010
0000
0000
0101
0000
0000
1100
0000
0000
0001
0000
0000
0000
,  // measure 66
0110
0000
0000
1001
0000
0000
0110
0000
0000
1001
0000
0000
0100
0000
0000
0000
,  // measure 67
1010
0000
0000
1001
0000
0000
1100
0000
0001
0000
0101
0000
0010
0000
0000
0000
,  // measure 68
1100
0000
0000
0110
0000
0000
0011
0000
0000
1001
0000
0000
0100
0000
0001
0000
,  // measure 69
0011
0000
0000
0110
0000
0000
1100
0000
0000
1001
0000
0000
0010
0000
1000
0000
,  // measure 70
0001
0000
0000
0100
0000
0000
1000
0000
0001
0000
0000
0010
0000
0000
1000
0000
,  // measure 71
0002
0000
2003
0000
3010
1000
0100
0000
,  // measure 72
2020
0000
0000
3030
0000
0000
1010
0000
0000
0101
0000
0000
1000
0000
0000
0000
,  // measure 73
0011
0000
0000
1000
0100
0000
0010
0000
0001
0100
0000
0000
0110
0000
0000
0000
,  // measure 74
1001
0000
0000
0001
0100
0000
1000
0000
0100
0001
0000
0000
0110
0000
0000
0000
,  // measure 75
0101
0000
0000
1000
0000
0010
0100
0000
0000
0000
1001
0000
1000
0000
0000
0000
,  // measure 76
0002
0000
0000
0000
0000
0000
1003
0100
1000
0001
0010
0001
,  // measure 77
2000
0000
0000
0000
3000
0000
0000
0000
0100
1000
0000
1000
0010
0000
0100
0000
,  // measure 78
0001
0000
0000
0001
0000
0000
1000
0000
0010
0000
0000
0010
0000
0000
1000
0000
,  // measure 79
0001
0000
0101
0000
1000
0100
0010
0000
,  // measure 80
1001
0000
0000
0000
;

//---------------dance-single - S-STANDARD----------------
#NOTES:
     dance-single:
     DJ OMiY-SSP:
     Medium:
     6:
     0.329431,0.377777,0.149537,0.306944,0.137731,293.000000,274.000000,19.000000,39.000000,0.000000,0.000000,0.329431,0.377777,0.149537,0.306944,0.137731,293.000000,274.000000,19.000000,39.000000,0.000000,0.000000:
0000
0000
0000
0000
,
0000
0000
0000
0000
,
0000
0000
0000
0000
,
0000
0000
0000
0000
,
0000
0000
0000
0000
,
0000
0000
0000
0000
,
0000
0000
0000
0000
,
0000
0000
0000
0000
,
0020
0000
0001
0000
0031
0020
0000
0230
,
1000
1000
1000
1300
,
0001
0000
0001
0000
1000
0000
1000
0200
,
0000
0320
0000
0032
0000
1000
0000
1003
,
0002
0000
0100
0000
0103
0002
0000
0023
,
0100
0100
0100
0130
,
2200
3300
0202
0303
,
1001
0110
2002
3003
,
0010
0000
0000
0010
0000
0000
0010
0000
0000
0010
0000
0000
0000
0000
0000
0000
,
1000
0000
0000
1000
0000
0000
1000
0000
0000
1000
0000
0000
0000
0000
0000
0000
,
0001
0000
0000
0001
0000
0000
0001
0000
0000
0001
0000
0000
0000
0000
0000
0000
,
0100
0000
0000
0100
0000
0000
0100
0000
0000
0000
0010
0000
0000
0000
0000
0000
,
1000
0000
0000
1000
0000
0000
1000
0000
0000
1000
0000
0000
0000
0000
0000
0000
,
0001
0000
0000
0001
0000
0000
0001
0000
0000
0001
0000
0000
0000
0000
0000
0000
,
0200
0000
0302
0000
,
1003
0001
0010
0100
,
1000
0000
0000
0010
0000
0000
1000
0000
0000
0010
0000
0000
0000
0000
0000
0000
,
0100
0000
0000
0001
0000
0000
0100
0000
0000
0001
0000
0000
0000
0000
0000
0000
,
0010
0000
0000
0001
0000
0000
0010
0000
0000
0001
0000
0000
0000
0000
0000
0000
,
1000
0000
0000
0100
0000
0000
1000
0000
0000
0000
1000
0000
0000
0000
0000
0000
,
0010
0100
0010
1000
,
0001
0100
0001
0010
,
0200
0000
2300
0000
,
3010
0000
0100
0000
0001
1000
0001
0000
,
0100
0000
0001
0000
0100
0010
0000
0010
,
1000
0010
0100
0010
,
1000
0100
0000
0010
0000
0000
0100
0000
,
1000
0001
0000
0010
0000
0200
0000
0000
,
1300
0000
0010
0000
0100
0001
0000
0001
,
0100
0010
0100
0001
,
1000
0000
0000
0001
0000
0000
1000
0000
,
0010
0000
0100
0000
0010
1000
0100
0000
,
0010
0000
0100
0000
1000
0001
0000
0001
,
0010
0001
0100
0010
,
1000
0100
0000
0010
0000
0000
0100
0000
,
0010
0001
0000
0100
0000
0020
0000
0000
,
1030
0000
0100
0000
1000
0001
0000
0001
,
0010
0001
0100
0010
,
1000
0000
0000
0100
0000
0000
1000
0000
,
0010
0000
0100
0000
0010
2000
0000
0000
,
3001
0000
0000
0000
0000
0010
0000
0010
,
0000
0100
1000
0000
,
0010
0000
0000
0000
1000
0000
0000
0001
,
0000
1000
0000
0001
0000
0100
0000
0000
,
0010
0000
0000
0000
0000
0100
0000
0001
,
0000
0000
1000
0000
,
0100
0000
0000
0000
1000
0000
0000
0001
,
0000
0010
0000
0100
0000
1000
0000
0000
,
0010
0010
1000
0001
,
1000
0001
0100
0100
,
0001
0000
0001
0000
0010
0000
0010
0100
,
0000
1000
0000
0100
0000
0010
0000
0000
,
0001
0100
0010
1000
,
0001
1000
0100
1000
,
0202
0303
2200
3300
,
1001
0110
2002
3003
,
0001
0000
0000
0001
0000
0000
0001
0000
0000
0001
0000
0000
0000
0000
0000
0000
,
0100
0000
0000
0100
0000
0000
0100
0000
0000
0100
0000
0000
0000
0000
0000
0000
,
0010
0000
0000
0010
0000
0000
0010
0000
0000
0010
0000
0000
0000
0000
0000
0000
,
1000
0000
0000
1000
0000
0000
1000
0000
0000
0000
0100
0000
0000
0000
0000
0000
,
0010
0000
0000
0100
0000
0000
0010
0000
0000
0100
0000
0000
0000
0000
0000
0000
,
1000
0000
0000
0001
0000
0000
1000
0000
0000
0001
0000
0000
0000
0000
0000
0000
,
2002
3003
0220
0330
,
0001
0000
1000
0000
0010
0100
0001
0000
,
2002
0000
0000
3003
0000
0000
1000
0000
0000
0001
0000
0000
1000
0000
0000
0000
,
0001
0000
0000
0010
0000
0000
0100
0000
0000
1000
0000
0000
0001
0000
0000
0000
,
1000
0000
0000
0100
0000
0000
0010
0000
0000
0001
0000
0000
1000
0000
0000
0000
,
0001
0000
0000
0100
0000
0000
0010
0000
0000
0000
0100
0000
0100
0000
0000
0000
,
0002
0003
0110
1001
,
0110
0000
1000
1000
,
0202
0303
2200
3300
,
0010
0000
0100
0000
0001
1000
0001
0000
,
0110
0000
0000
0000
;

//---------------dance-single - S-LIGHT----------------
#NOTES:
     dance-single:
     DJ OMiY-LSP:
     Easy:
     4:
     0.258598,0.377777,0.181018,0.283333,0.000000,230.000000,207.000000,23.000000,36.000000,0.000000,0.000000,0.258598,0.377777,0.181018,0.283333,0.000000,230.000000,207.000000,23.000000,36.000000,0.000000,0.000000:
0000
0000
0000
0000
,
0000
0000
0000
0000
,
0000
0000
0000
0000
,
0000
0000
0000
0000
,
0000
0000
0000
0000
,
0000
0000
0000
0000
,
0000
0000
0000
0000
,
0000
0000
0000
0000
,
1000
1000
1000
0100
,
0001
0001
0001
0100
,
1000
0100
0001
0100
,
2000
0000
0000
3000
,
0001
0001
0001
0010
,
1000
1000
1000
0010
,
0002
0003
2000
3000
,
0001
0010
0100
0000
,
2002
0000
0000
3003
,
0202
0000
0000
0303
,
2200
0000
0000
3300
,
2002
0000
3003
0010
,
0220
0000
0000
0330
,
2020
0000
0000
3030
,
1001
0000
0110
0000
,
0001
1000
0100
1000
,
0010
0010
0010
0001
,
0010
0010
0010
1000
,
0100
0100
0100
0001
,
0100
0100
0200
0300
,
1000
0010
0001
0010
,
1000
0100
0001
0100
,
2000
3000
0002
0003
,
0010
0001
0100
0000
,
1001
0000
0010
0001
,
0100
0000
0010
0000
,
1000
1000
0100
0000
,
0010
0100
1000
0001
,
0100
0000
0010
0100
,
0001
0000
0010
0000
,
0001
1000
0010
0100
,
0002
0000
2000
3003
,
0110
0000
0010
1000
,
0100
0000
0010
0000
,
0100
1000
0100
1000
,
0010
0100
0001
0010
,
0100
0000
1000
0100
,
0010
0000
0001
0000
,
0100
0001
1000
0100
,
0020
0000
0200
0330
,
1001
0000
0000
1000
,
0100
0000
0010
0000
,
0100
0000
1000
0000
,
0001
0001
0100
0000
,
0010
0000
0100
0000
,
0001
1000
0100
0000
,
0010
0100
0010
0001
,
1000
1000
2000
3000
,
0001
0001
0100
0100
,
0001
0001
1000
1000
,
0010
0010
0100
0100
,
0001
1000
0100
0010
,
0100
0100
1000
1000
,
0010
0010
0100
0100
,
1001
0000
0110
0000
,
1001
0110
1001
0000
,
0200
0000
0000
0001
,
0302
0000
0000
0010
,
0023
0000
0000
0100
,
0230
0000
0300
1100
,
2000
0000
0000
0001
,
3002
0000
0000
0010
,
0020
0000
0033
0000
,
0100
0001
1000
0100
,
2002
3003
0100
0010
,
0110
0010
1000
0001
,
1001
1000
0001
0100
,
0220
0000
0330
0010
,
1001
0000
0100
0001
,
1001
0000
0010
0010
,
2000
3000
0002
0003
,
0010
0100
1000
0001
,
1000
0000
0000
0000
;

//---------------dance-single - BEGINNER----------------
#NOTES:
     dance-single:
     DJ OMiY-BEG:
     Beginner:
     1:
     0.134920,0.220370,0.110185,0.118055,0.000000,120.000000,106.000000,14.000000,15.000000,0.000000,0.000000,0.134920,0.220370,0.110185,0.118055,0.000000,120.000000,106.000000,14.000000,15.000000,0.000000,0.000000:
0000
0000
0000
0000
,
0000
0000
0000
0000
,
0000
0000
0000
0000
,
0000
0000
0000
0000
,
0000
0000
0000
0000
,
0000
0000
0000
0000
,
0000
0000
0000
0000
,
0000
0000
0000
0000
,
1000
0000
0000
0000
,
0001
0000
0000
0000
,
0100
0000
0000
0000
,
0001
0000
0000
0000
,
0020
0000
0030
0000
,
0200
0000
0300
0000
,
1000
0000
1000
0000
,
0001
0001
0001
0000
,
0110
0000
0000
0000
,
0110
0000
0000
0000
,
1001
0000
0000
0000
,
1001
0000
0000
0000
,
0110
0000
0000
0000
,
0110
0000
0000
0000
,
0001
0000
1000
0000
,
0001
0001
0001
0000
,
0200
0000
0300
0000
,
0020
0000
0030
0000
,
2000
0000
3000
0000
,
0200
0000
0300
0000
,
0010
0000
0010
0000
,
0001
0000
0001
0000
,
0100
0000
0010
0000
,
1000
1000
1000
0000
,
0001
0000
0000
0100
,
0100
0000
0000
0000
,
0001
0000
1000
0000
,
0200
0000
0300
0000
,
1000
0000
0000
0010
,
0010
0000
0000
0000
,
0100
0000
0001
0000
,
0200
0000
0300
0000
,
0001
0000
0000
0010
,
0010
0000
0000
0000
,
0001
0000
1000
0000
,
0020
0000
0030
0000
,
1000
0000
0000
0100
,
0100
0000
0000
0000
,
1000
0000
0010
0000
,
2000
0000
3000
0000
,
0001
0000
0001
0000
,
0001
0000
0000
0000
,
1000
0000
0000
0000
,
0100
0000
0010
0000
,
0100
0000
0000
0000
,
1000
0000
0000
0000
,
0010
0000
0000
0000
,
0100
0000
0001
0000
,
0010
0000
0010
0000
,
0010
0000
0010
0000
,
0001
0000
0000
0000
,
1000
0000
0000
0000
,
0100
0000
0100
0000
,
0100
0000
0100
0000
,
1000
0000
0001
0000
,
2000
0000
3000
0000
,
1001
0000
0000
0000
,
1001
0000
0000
0000
,
0110
0000
0000
0000
,
0110
0000
0000
0000
,
1001
0000
0000
0000
,
0110
0000
0000
0000
,
1000
0000
0001
0000
,
0100
0100
0100
0000
,
0002
0000
0003
0000
,
2000
0000
3000
0000
,
0200
0000
0300
0000
,
0020
0000
0030
0000
,
1001
0000
0000
0000
,
0110
0000
0000
0000
,
1000
0000
0001
0000
,
0010
0010
0010
0000
,
0010
0000
0000
0000
;
