#TITLE:C18H27NO3;
#SUBTITLE:;
#ARTIST:Team Grimoire;
#TITLETRANSLIT:Capsaicin;
#SUBTITLETRANSLIT:;
#ARTISTTRANSLIT:;
#GENRE:Gothic Gabber;
#CREDIT:;
#BANNER:C18H27NO3-bn.png;
#BACKGROUND:C18H27NO3-bg.png;
#LYRICSPATH:;
#CDTITLE:;
#MUSIC:C18H27NO3.ogg;
#OFFSET:-2.343000;
#SAMPLESTART:90.339996;
#SAMPLELENGTH:18.285713;
#SELECTABLE:YES;
#DISPLAYBPM:210.000000;
#BPMS:0.000000=210.000000
,68.000000=52.500000
,69.000000=210.000000
;
#STOPS:
;
#BGCHANGES:;
#KEYSOUNDS:;
#ATTACKS:;

//---------------dance-single - S-HEAVY----------------
#NOTES:
     dance-single:
     DJ OMiY-HSP:
     Hard:
     10:
     0.681666,1.186357,0.333100,0.541288,0.091603,573.000000,533.000000,40.000000,65.000000,0.000000,0.000000,0.681666,1.186357,0.333100,0.541288,0.091603,573.000000,533.000000,40.000000,65.000000,0.000000,0.000000:
0000
0000
0000
0000
,
0000
0000
0000
0000
,
0000
0000
0000
0000
,
0000
0000
0000
0000
,
0000
0000
0000
0000
,
0000
0000
0000
0000
,
0000
0000
0000
0000
,
0000
0000
0000
0000
,
0000
0000
0000
0000
,
1000
0100
1000
0001
,
0100
0000
0001
0010
0100
0000
0010
0000
,
0001
1000
0010
0100
,
0010
0000
1000
0001
0100
0000
0010
0000
,
1000
0001
0010
0100
,
1000
0000
0010
1000
0100
0000
0010
0000
,
0100
1000
0001
0100
,
0001
0000
1000
0010
0100
0000
0001
0000
,
2002
0000
0000
3003
0101
0000
0000
0000
1000
0000
0000
0000
0010
0000
0000
0000
,
1000
0100
1000
0100
1000
0010
0001
0000
,
0010
1010
0100
0010
,
1000
0001
0010
0001
0100
0010
1000
0000
,
0010
1001
1000
0010
,
0100
0001
0100
0010
0100
0001
1000
0000
,
0001
1100
0010
0100
,
1000
0100
1000
0001
0100
0001
0020
0000
,
0130
1100
1100
1001
,
0010
0100
0010
0100
0001
1000
0100
0010
,
0001
0101
0011
0101
,
1000
0020
0100
0000
1030
0010
0100
0001
,
1000
1100
0110
0011
,
0010
0100
1000
0100
0010
0001
1000
0010
,
0100
0101
1010
0101
,
0100
0010
0100
0001
1000
0100
0010
0000
,
0001
0000
1000
1000
0100
1000
0010
0010
,
0100
0001
1000
0100
0010
0001
1000
0001
,
0010
0010
0010
0100
1000
0010
1000
0010
,
1000
0001
0010
0001
1000
0010
0100
0001
,
0010
0100
0010
0100
0010
0100
2200
0000
,
3300
0000
0001
0100
0010
1000
0100
0010
,
0001
0100
0001
1000
0001
0010
1000
0010
,
0001
1000
0001
0100
0010
0000
1001
0000
,
0110
0000
1001
1000
0001
0100
0001
0010
,
0001
1000
0100
1000
0010
0100
0010
1000
,
0100
0010
0100
0010
0100
0000
1000
0000
0001
0000
0100
0000
0010
0000
0100
0000
,
0002
1003
0100
1000
0002
0013
0200
0000
,
1000
0000
0310
0100
0010
0001
1000
0001
,
0100
0010
1000
0100
1000
0001
0100
0000
,
0001
0000
2000
0010
3020
0000
0230
0001
,
0302
0000
1003
0001
0100
0010
0100
0001
,
1000
0100
0220
0000
0330
0000
0010
0001
,
0010
0000
0001
0000
1000
0000
0001
0100
0001
0000
0010
0000
0100
0000
0000
0000
,
1000
0000
0202
0000
0303
0000
1000
0001
,
1000
0001
0010
0100
0010
0100
1000
0001
,
0100
0000
2002
0000
3003
0000
1000
0010
,
1000
0000
0010
0000
1000
0000
0100
1000
0001
0000
0010
0000
0001
0000
0000
0000
,
1000
0000
0200
1000
1300
0001
1000
0100
,
0010
0100
2000
0000
0010
0000
0002
0000
,
3003
0000
0220
0000
0330
0000
1000
1000
,
0100
0000
1000
0000
0001
0000
0010
0100
1000
0000
0100
0000
1000
0000
0000
0000
,
0001
0000
0202
0000
0303
0000
0010
0010
,
0100
0001
1000
0100
1000
0100
0010
0001
,
0010
2001
3001
1002
,
1003
0000
0000
0000
0100
0000
0010
1000
0010
0000
0100
0000
0001
0000
1000
0000
,
0100
0000
1000
0100
1000
0100
0001
0100
,
0001
0000
0100
0000
1000
0000
0010
0000
0100
0000
0001
0000
1000
0001
0100
0001
,
1000
0100
0010
0001
2000
0000
0000
0000
3002
0000
0000
0000
0203
0000
0000
0000
,
0301
1000
0020
0000
2030
0000
3200
0000
,
0310
0100
2000
0000
3002
0000
0023
0000
,
0031
1000
0200
0000
2300
0000
3020
0000
,
0130
0010
0100
0000
0001
0000
1100
0000
,
0001
1000
0100
0011
,
0100
0101
1001
1100
,
1001
0000
0000
0000
1000
0000
0001
0000
0100
0000
0001
0000
1000
0001
1000
0001
,
1000
0001
1000
0001
1000
0001
1000
0001
1000
0001
1000
0001
1000
0001
1000
0001
,
1000
0001
1000
0001
2000
0000
0000
0000
0000
0000
0000
0000
0000
0000
0000
0000
,
0000
0020
0000
0000
,
3030
0000
0100
0001
0010
0001
1000
0010
,
0100
1000
0100
0001
0010
0100
1000
0100
,
0001
0100
0010
0001
0100
1000
0100
0001
,
0010
0100
2000
0001
0000
3001
2000
0010
,
0000
3010
0100
0001
0010
1000
0010
0100
,
1000
0010
0100
1000
0100
0001
0010
0001
,
1000
0010
0100
0001
0010
1000
0010
0001
,
0010
0100
2000
3000
1200
0300
0012
0003
,
1020
0030
1000
0001
0010
0001
0100
1000
,
0100
0010
0100
0001
0010
1000
0001
1000
,
0010
0001
1000
0010
0100
0010
1000
0010
,
0001
0010
0200
0300
2010
3000
0021
0030
,
1002
0003
0100
0010
1000
0001
1000
0100
,
0001
0100
0010
0001
0100
1000
0100
0001
,
0010
1000
0010
0001
0010
0100
1000
0001
,
0100
1000
0200
0300
0002
0003
0020
0030
,
0200
0300
2000
0000
0000
0000
0200
0000
,
3000
0020
0300
0002
,
0030
0200
0003
2000
,
0300
0020
3000
0002
,
0030
2000
0000
0000
,
0000
0000
0000
0000
,
0000
3003
0000
0000
;

//---------------dance-single - S-STANDARD----------------
#NOTES:
     dance-single:
     DJ OMiY-SSP:
     Medium:
     9:
     0.568650,0.695451,0.266480,0.374738,0.000000,478.000000,446.000000,32.000000,45.000000,0.000000,0.000000,0.568650,0.695451,0.266480,0.374738,0.000000,478.000000,446.000000,32.000000,45.000000,0.000000,0.000000:
// measure 0
0000
0000
0000
0000
,  // measure 1
0000
0000
0000
0000
,  // measure 2
0000
0000
0000
0000
,  // measure 3
0000
0000
0000
0000
,  // measure 4
0000
0000
0000
0000
,  // measure 5
0000
0000
0000
0000
,  // measure 6
0000
0000
0000
0000
,  // measure 7
0000
0000
0000
0000
,  // measure 8
0000
0000
0000
0000
,  // measure 9
1000
0100
1000
0001
,  // measure 10
0100
0000
0001
0010
0001
0000
1000
0000
,  // measure 11
0010
1000
0100
0010
,  // measure 12
0001
0000
1000
0010
1000
0000
0100
0000
,  // measure 13
1000
0010
0100
0010
,  // measure 14
1000
0000
0100
0010
0100
0000
0010
0000
,  // measure 15
0001
1000
0001
0100
,  // measure 16
0020
1000
0230
0002
,  // measure 17
0303
1000
0010
0100
,  // measure 18
0001
1000
0000
0001
0000
0010
0001
0000
,  // measure 19
1000
0010
0100
0001
,  // measure 20
0010
0100
0000
1000
0000
0100
0010
0000
,  // measure 21
0001
1000
0010
0100
,  // measure 22
0001
1000
0000
0010
0000
1000
0001
0000
,  // measure 23
0100
0001
1000
0100
,  // measure 24
0010
0001
0000
0100
0000
0001
2000
0000
,  // measure 25
0001
3100
1000
0010
,  // measure 26
0100
0001
0000
0001
0000
0001
0010
0000
,  // measure 27
0100
1000
0001
1000
,  // measure 28
0010
2000
0001
0000
3010
1000
0001
0000
,  // measure 29
0100
0010
0100
0001
,  // measure 30
0010
0100
0000
0100
0000
0100
1000
0000
,  // measure 31
0010
0100
0001
1000
,  // measure 32
0010
1000
0001
0000
1100
0000
0101
0000
,  // measure 33
1100
0000
0010
0001
0100
0000
0010
1000
,  // measure 34
0001
0000
0100
0001
0010
0000
0100
1000
,  // measure 35
0010
0100
0010
1000
0001
0000
0010
0001
,  // measure 36
0100
0000
0001
0010
0100
0000
0100
1000
,  // measure 37
0010
0100
0010
0100
0010
0100
0001
1000
,  // measure 38
0100
0000
1000
0010
0100
0000
0001
1000
,  // measure 39
0100
1000
0010
0100
0001
0000
1000
0100
,  // measure 40
0010
0000
0001
0010
1000
0000
0110
0000
,  // measure 41
1001
0000
1000
0010
1000
0010
1000
0010
,  // measure 42
0100
0000
0010
0100
0001
0000
1000
0100
,  // measure 43
0020
0000
0031
0010
0100
0000
1000
0001
,  // measure 44
0100
0000
0010
1000
0001
0000
2000
0000
,  // measure 45
0010
0000
3001
0100
0001
0000
0010
0100
,  // measure 46
1000
0000
0010
1000
0001
0000
0011
0000
,  // measure 47
1010
0002
0100
2003
,  // measure 48
0100
0000
3001
0010
0100
1000
0010
0100
,  // measure 49
0001
1000
0200
0000
0000
0000
0310
0001
,  // measure 50
0010
0001
1000
0001
1000
0100
0010
0001
,  // measure 51
1000
0000
0002
0000
0000
0000
0103
0010
,  // measure 52
0100
0001
1000
0100
1000
0100
1000
0001
,  // measure 53
0100
0000
0120
0000
0000
0000
1030
0001
,  // measure 54
1000
0001
0010
1000
0010
0001
1000
0010
,  // measure 55
1000
0000
0100
0010
0100
0010
0100
0010
,  // measure 56
0100
0010
0002
0000
0010
0000
2003
0000
,  // measure 57
0100
0000
3002
0000
0000
0000
0013
0001
,  // measure 58
0010
0001
1000
0001
0010
0100
0010
0001
,  // measure 59
1000
0000
0200
0000
0000
0000
1300
0010
,  // measure 60
0100
0010
1000
0100
1000
0100
0010
0001
,  // measure 61
1000
0020
0001
0100
,  // measure 62
1030
0000
0001
0100
0001
1000
0100
0010
,  // measure 63
0001
0000
1000
0010
1000
0001
0010
0100
,  // measure 64
0010
0001
1000
0100
0001
0100
1000
0100
,  // measure 65
0010
0001
2000
0000
0100
0000
0001
0000
,  // measure 66
3100
0102
0010
1000
,  // measure 67
0013
2010
0010
0001
,  // measure 68
3010
0012
0100
1000
,  // measure 69
0103
1100
0010
1001
,  // measure 70
0100
1100
0001
0011
,  // measure 71
0100
0011
0110
1100
,  // measure 72
1001
0000
2000
0000
3200
0000
0310
0001
,  // measure 73
1000
0001
0100
0001
0010
0100
1000
0001
,  // measure 74
0100
1000
0200
0000
0000
0000
0000
0000
,  // measure 75
0000
0002
0000
0000
,  // measure 76
0303
0000
1000
0001
0010
0001
0100
0000
,  // measure 77
1001
0000
1000
0100
0010
0000
0011
0000
,  // measure 78
1100
0000
0010
1000
0010
1000
0001
0000
,  // measure 79
0110
0002
0100
2003
,  // measure 80
0010
0000
3001
0100
0001
1000
0100
0000
,  // measure 81
1001
0000
0100
1000
0001
0000
1100
0000
,  // measure 82
0020
2030
3200
0310
,  // measure 83
0110
0002
0203
0320
,  // measure 84
2030
0000
3100
1000
0010
0100
0001
0000
,  // measure 85
1100
0000
0100
0010
0001
0000
1100
0000
,  // measure 86
0101
0000
0010
1000
0001
0100
0010
0000
,  // measure 87
1001
0000
0001
0010
0100
0010
0001
0000
,  // measure 88
1010
0000
0001
0000
1000
0010
0100
0000
,  // measure 89
1001
0000
0001
0100
0010
1000
0001
0010
,  // measure 90
0001
1000
0001
0010
0100
1000
0100
0010
,  // measure 91
0001
1000
0002
0000
0100
0000
2003
0000
,  // measure 92
0100
3002
0000
2000
,  // measure 93
0003
0200
3000
0020
,  // measure 94
0300
0002
0030
2000
,  // measure 95
0003
0020
3000
0200
,  // measure 96
0030
0002
0000
0000
,  // measure 97
0000
0000
0000
0000
,  // measure 98
0000
0303
0000
0000
;

//---------------dance-single - S-LIGHT----------------
#NOTES:
     dance-single:
     DJ OMiY-LSP:
     Easy:
     7:
     0.471099,0.736360,0.532960,0.549615,0.000000,396.000000,332.000000,64.000000,66.000000,0.000000,0.000000,0.471099,0.736360,0.532960,0.549615,0.000000,396.000000,332.000000,64.000000,66.000000,0.000000,0.000000:
0000
0000
0000
0000
,
0000
0000
0000
0000
,
0000
0000
0000
0000
,
0000
0000
0000
0000
,
0000
0000
0000
0000
,
0000
0000
0000
0000
,
0000
0000
0000
0000
,
0000
0000
0000
0000
,
0000
0000
0000
0000
,
0001
0010
0001
0010
,
0001
0000
0010
0001
0020
0000
0030
0000
,
0100
1000
0100
1000
,
0100
0000
1000
0100
2000
0000
3000
0000
,
0001
1000
0001
1000
,
0001
0000
1000
0001
2000
0000
3000
0000
,
0010
0100
0010
0100
,
0002
0100
2003
0100
,
3001
1001
0001
1000
,
0010
1000
0100
0010
,
0001
1001
1000
0001
,
0010
0001
0100
0010
,
1000
1001
1000
0001
,
0100
0001
1000
0100
,
0010
1001
0010
1000
,
0010
0100
0001
0020
,
0031
1002
0023
0230
,
1300
0000
0001
0000
0010
0100
0010
0000
,
0000
2001
3020
0230
,
0301
0020
0000
0000
0030
0100
2000
0000
,
3000
2001
3020
0230
,
0301
0000
1000
0000
0010
0100
0010
0000
,
0000
1001
0110
1001
,
1000
0002
0100
2003
,
0010
0000
3001
0010
0001
0000
1000
0000
,
1000
0000
0001
0100
0001
0000
1000
0000
,
0002
0000
0103
0010
0100
0000
0001
0000
,
0001
0000
1000
0100
1000
0000
0001
0000
,
0020
0032
2003
3100
,
1000
0000
0001
0100
0001
0000
0100
0000
,
0100
0000
0001
0010
0001
0000
1000
0000
,
1000
0000
0001
0010
0100
0000
2002
0000
,
3003
0000
0001
0001
0001
0000
1000
0000
,
1000
0000
0010
0100
0010
0000
1000
0000
,
0002
0000
0013
0100
0010
0000
0100
0000
,
0100
0000
1000
0010
2000
0000
3001
0100
,
0002
0000
1003
0000
1000
0000
0010
0100
,
0010
0000
0100
1000
0100
0000
0001
0000
,
0000
2000
3200
0320
,
0031
1100
1100
0101
,
0101
0020
0000
1000
,
1030
0000
0001
1000
0001
0000
0110
0000
,
0000
2000
0000
3001
,
0001
0000
1000
0100
1000
0000
0101
0000
,
0000
0200
0000
0301
,
0001
0000
0010
0100
0010
0000
1001
0000
,
0000
0000
0001
0000
1000
0000
0001
1000
,
0001
1000
0002
0000
0000
0000
0003
0000
,
0000
0200
0000
0310
,
0010
0000
1000
0100
1000
0000
1001
0000
,
0000
0002
0000
1003
,
1000
0000
0001
0010
0001
0000
0110
0000
,
0000
0001
0010
0001
,
0010
0100
1000
0100
,
1000
0010
0100
0001
,
1000
0000
0100
0000
0010
0000
0001
1000
,
0001
2002
0000
3003
,
0000
0220
0000
0330
,
0000
0202
0000
0303
,
0000
2200
0000
3300
,
0000
1001
0000
1001
,
0000
1001
0000
1001
,
0000
1001
1001
1001
,
1001
0110
1001
0110
,
1001
0000
0001
0010
0100
1000
0001
0010
,
0100
1000
0002
0000
0000
0000
0000
0000
,
0000
0200
0000
0000
,
0303
1001
0010
1001
,
0010
0101
1000
0101
,
1000
1100
0010
1100
,
0010
0002
0100
2003
,
3100
1001
0100
1001
,
0100
0110
1000
0110
,
0001
1010
0100
1010
,
0100
0002
0010
2003
,
3010
1001
1001
1001
,
1001
0011
0011
0011
,
0011
1100
1100
1100
,
1100
0002
0100
2003
,
3100
1001
1001
1001
,
1001
0001
0100
0010
,
1000
0000
0001
1000
0001
0000
0100
0010
,
0100
0002
0023
0230
,
2300
3020
0000
2030
,
0000
3200
0000
0320
,
0000
0032
0000
2003
,
0000
3020
0000
0230
,
0000
0002
0000
0000
,
0000
0000
0000
0000
,
0000
0303
0000
0000
;

//---------------dance-single - BEGINNER----------------
#NOTES:
     dance-single:
     DJ OMiY-BEG:
     Beginner:
     4:
     0.325962,0.490906,0.349755,0.316445,0.000000,274.000000,232.000000,42.000000,38.000000,0.000000,0.000000,0.325962,0.490906,0.349755,0.316445,0.000000,274.000000,232.000000,42.000000,38.000000,0.000000,0.000000:
0000
0000
0000
0000
,
0000
0000
0000
0000
,
0000
0000
0000
0000
,
0000
0000
0000
0000
,
0000
0000
0000
0000
,
0000
0000
0000
0000
,
0000
0000
0000
0000
,
0000
0000
0000
0000
,
0000
0000
0000
0000
,
1000
0000
1000
0000
,
1000
0000
1000
0000
,
0001
0000
0001
0000
,
0001
0000
0001
0000
,
1000
0000
0100
0000
,
0001
0000
0100
0000
,
1000
0000
0100
0000
,
2002
0000
0000
0000
,
3003
0010
0010
0010
,
0010
0010
0010
0010
,
0000
0100
0100
0100
,
0100
0100
0100
0100
,
0000
0001
0001
0001
,
0001
0001
0001
0001
,
0000
1000
1000
1000
,
1000
1000
1000
2000
,
3000
0010
0010
0010
,
0010
0100
0100
0100
,
0000
0001
0001
0001
,
0001
2000
3000
2000
,
3000
0100
0100
0100
,
0100
0100
0100
0200
,
0300
0010
0010
0010
,
0000
1001
0000
1001
,
0000
0010
1000
0010
,
1000
0010
1000
0010
,
1000
0001
0100
0001
,
0100
0001
0100
0001
,
1000
1000
1000
2002
,
3003
0010
0100
0010
,
0100
0001
1000
0001
,
1000
0002
0003
1001
,
1001
0001
1000
0001
,
1000
0001
1000
0001
,
2000
3010
0100
0010
,
0100
0010
0100
0020
,
0030
1000
0100
1000
,
0100
1000
0100
2000
,
3000
0001
0010
0001
,
0010
0002
0003
2000
,
3000
2002
3003
0010
,
0000
0100
0100
0100
,
0000
2002
3003
0100
,
0000
0001
0001
0001
,
0000
2002
3003
1000
,
0000
0010
0010
0010
,
0000
0100
0100
0100
,
0100
0100
0000
0100
,
0000
2002
3003
0010
,
0100
0010
0100
0010
,
0000
2002
3003
0001
,
1000
0001
1000
0001
,
0000
2002
3003
1000
,
0010
1000
0010
1000
,
0000
2002
3003
0010
,
0100
0010
0100
0001
,
1000
0001
0000
0000
,
0000
1000
0000
0000
,
0000
0100
0000
0000
,
0000
0010
0000
0000
,
0000
0001
0000
0001
,
0000
1000
0000
1000
,
0000
0001
0000
1000
,
0000
0010
0010
0010
,
0010
0100
0010
0100
,
0010
0200
0000
0000
,
0000
0020
0000
0000
,
0330
0110
0000
0110
,
0000
0110
0000
0110
,
0000
1001
0000
1001
,
0000
1001
0000
1001
,
0000
0110
0000
0110
,
0000
0110
0000
0110
,
0000
1001
0000
1001
,
0000
1001
1001
2002
,
3003
1001
0000
0110
,
0000
1001
0000
0110
,
0000
1001
0000
0110
,
0000
1001
0000
0110
,
0000
1001
0000
1001
,
0000
0010
0010
0010
,
0000
1000
0100
0010
,
0001
1001
0000
0000
,
0000
2000
0000
3000
,
0000
0002
0000
0003
,
0000
0200
0000
0300
,
0000
0020
0000
0030
,
0000
2002
0000
0000
,
0000
0000
0000
0000
,
0000
3003
0000
0000
;

//---------------dance-double - D-HEAVY----------------
#NOTES:
     dance-double:
     DJ OMiY-HDP:
     Hard:
     10:
     0.644787,0.777268,0.174878,0.383065,0.033310,542.000000,521.000000,21.000000,46.000000,0.000000,0.000000,0.644787,0.777268,0.174878,0.383065,0.033310,542.000000,521.000000,21.000000,46.000000,0.000000,0.000000:
00000000
00000000
00000000
00000000
,
00000000
00000000
00000000
00000000
,
00000000
00000000
00000000
00000000
,
00000000
00000000
00000000
00000000
,
00000000
00000000
00000000
00000000
,
00000000
00000000
00000000
00000000
,
00000000
00000000
00000000
00000000
,
00000000
00000000
00000000
00000000
,
00000000
00000000
00000000
00000000
,
00000100
00000010
00000001
00000100
,
00001000
00000000
00000100
00000001
00000100
00000000
00000010
00000000
,
00001000
00000100
00010000
00001000
,
00100000
00000000
00010000
10000000
00010000
00000000
01000000
00000000
,
00100000
10000000
01000000
00100000
,
00010000
00000000
01000000
10000000
01000000
00000000
00010000
00000000
,
00100000
01000000
10000000
01000000
,
00020000
00000000
00031000
00000100
00001000
00000000
00000200
00000000
,
00000301
00001000
00000010
00000100
,
00000010
00001000
00000010
00001000
00000010
00000100
00000001
00000000
,
00000010
00000100
00010000
00000100
,
00001000
00000100
00001000
00000100
00010000
00001000
00010000
00000000
,
00001000
00100000
00001000
01000000
,
00010000
01000000
00010000
01000000
00010000
00100000
01000000
00000000
,
00100000
00010000
01000000
00010000
,
00100000
00010000
00100000
00010000
00100000
00001000
00020000
00000000
,
00001000
00030100
00000010
00000001
,
00000010
00000001
00000100
00000010
00000100
00000001
00001000
00000000
,
00000100
00010000
00000100
00001000
,
00000010
00020000
00000100
00000000
00030010
00010000
00000100
00000000
,
00011000
00001000
01000000
00010000
,
00100000
00010000
00100000
00010000
10000000
00100000
01000000
00000000
,
00001000
00000000
00100000
00010000
10000000
00010000
00100000
01000000
,
00100000
00010000
00100000
00001000
00010000
00000010
00000100
00001000
,
00000100
00000000
00000001
00000100
00000001
00000100
00000010
00001000
,
00000010
00000100
00000001
00010000
00001000
00000010
00000100
00001000
,
00000001
00000001
00000001
00000100
00000010
00001000
00000100
00010000
,
00001000
00010000
00001000
00010000
00100000
10000000
00010000
00100000
,
00001000
00010000
00001000
00010000
00001000
00100000
00220000
00000000
,
00330000
00000000
00010000
01000000
00100000
01000000
00001000
00100000
,
00010000
10000000
01000000
00100000
00010000
00100000
01000000
10000000
,
01000000
00100000
00001000
00010000
00000100
00000000
00000011
00000000
,
00001100
00000000
00000001
00001000
00000001
00000100
00000010
00001000
,
00000100
00000010
00000100
00010000
00001000
00100000
00001000
00010000
,
00001000
00100000
00001000
00100000
00010000
00000000
01000000
00000000
00010000
00000000
10000000
00000000
00100000
00000000
01000000
00000000
,
00020000
00130000
00001000
00010000
00000200
00000310
00000200
00000000
,
00000000
00000000
00001300
00000010
00000100
00000001
00001000
00000100
,
00010000
00000010
00001000
00000100
00010000
00001000
00100000
00000000
,
01100000
20000000
32000000
03020000
,
00032000
00000000
00003100
00000001
00000100
00000010
00001000
00000100
,
00001000
00000100
00020000
00000000
00000000
00000000
01030000
10000000
,
01000000
00000000
10000000
00000000
00010000
00000000
01000000
00100000
01000000
00000000
00010000
00000000
00100000
00000000
00000000
00000000
,
00001000
00000000
00012000
00000000
00000000
00000000
00003100
00000001
,
00000100
00000001
00001000
00001000
00000010
00000010
00000100
00000001
,
00001000
00000000
00001200
00000000
00000000
00000000
00010300
00001000
,
00100000
00000000
00001000
00000000
00100000
00000000
00001000
00010000
00001000
00000000
00100000
00000000
00010000
00000000
10000000
00000000
,
00100000
00000000
10000000
01000000
10000000
01000000
00010000
01000000
,
00010000
00001000
00000100
00000000
00000001
00000000
00000202
00000000
,
00000303
00000000
00002001
00000000
00000000
00000000
00003100
00010000
,
00000100
00000000
00010000
00000000
00001000
00000000
00100000
00010000
00100000
00000000
00001000
00000000
01000000
00000000
00000000
00000000
,
00100000
00000000
02010000
00000000
00000000
00000000
13000000
01000000
,
10000000
01000000
00010000
00010000
01000000
01000000
00001000
00000000
,
00010000
00011000
00001010
00000011
,
00001010
00000000
00000000
00000000
00000001
00000000
00001000
00000100
00001000
00000000
00000001
00000000
00000100
00000000
00000010
00000000
,
00000100
00000000
00000001
00000001
00000100
00000100
00000010
00000010
,
00001000
00001000
00000100
00010000
00001000
00100000
00010000
00100000
,
01000000
00100000
01000000
00100000
00020000
00000000
00000000
00000000
01000000
00000000
00000000
00000000
10000000
00000000
00000000
00000000
,
00100000
00032000
00000100
00000001
,
00000010
00023000
01000000
10000000
,
00100000
00032000
00000100
00000001
,
00000010
00013000
01000000
00010000
,
01000000
00010000
00001000
00010000
,
00001000
00011000
00011000
00011000
,
00011000
00000000
00001000
00010000
00001000
00010000
00000100
00000010
,
00000001
00000100
00001000
00010000
00100000
10000000
01000000
00010000
,
01000000
00100000
00020000
00000000
00000000
00000000
00000000
00000000
,
00000000
20000000
00000000
00000000
,
30030000
00000000
00110000
00100000
01000000
10000000
01000000
00010000
,
01000000
00010000
00001000
00010000
00001000
00000010
00000001
00000100
,
00001000
00000100
00000010
00000100
00000001
00001000
00000100
00000010
,
00000100
00010000
00002000
00100000
00000000
00103000
00002000
00010000
,
00000000
00013000
00001000
00000100
00000001
00000100
00000010
00001000
,
00000100
00010000
00001000
00100000
01000000
00100000
00010000
10000000
,
01000000
00100000
01000000
10000000
00010000
00100000
00010000
01000000
,
00100000
01000000
00002000
00013000
00000200
00010300
00002000
00013000
,
00000020
00000130
00000001
00000010
00001000
00000010
00000001
00000100
,
00001000
00010000
00001000
00010000
00100000
10000000
01000000
00010000
,
10000000
00100000
00010000
10000000
00010000
00100000
00001000
00010000
,
00000100
00000010
00000002
00000103
00000002
00001003
00000002
00000103
,
00000020
00001030
00000100
00010000
00001000
00100000
01000000
10000000
,
00010000
01000000
00100000
10000000
01000000
00100000
00010000
01000000
,
00100000
00010000
00001000
00100000
00010000
00001000
00000100
00001000
,
00000001
00000010
00000210
00000000
00001000
00000000
00010000
00000000
,
00000310
00001002
00000000
00000020
,
00000003
00000200
00000030
00002000
,
00000300
00020000
00003000
00200000
,
00030000
02000000
00300000
20000000
,
03000000
00020000
00000000
00000000
,
00000000
00000000
00000000
00000000
,
00000000
30030000
00000000
00000000
;

//---------------dance-double - D-STANDARD----------------
#NOTES:
     dance-double:
     DJ OMiY-SDP:
     Medium:
     9:
     0.601960,0.695451,0.408048,0.299790,0.000000,506.000000,457.000000,49.000000,36.000000,0.000000,0.000000,0.601960,0.695451,0.408048,0.299790,0.000000,506.000000,457.000000,49.000000,36.000000,0.000000,0.000000:
00000000
00000000
00000000
00000000
,
00000000
00000000
00000000
00000000
,
00000000
00000000
00000000
00000000
,
00000000
00000000
00000000
00000000
,
00000000
00000000
00000000
00000000
,
00000000
00000000
00000000
00000000
,
00000000
00000000
00000000
00000000
,
00000000
00000000
00000000
00000000
,
00000000
00000000
00000000
00000000
,
00010000
00000100
00001000
00000001
,
00001000
00000000
00000100
00000010
00000100
00000000
00001000
00000000
,
00000100
00010000
00001000
01000000
,
00100000
00000000
10000000
00010000
10000000
00000000
01000000
00000000
,
10000000
00100000
00010000
00001000
,
00010000
00000000
00000100
00001000
00000100
00000000
00010000
00000000
,
00000010
00000100
00000001
00001000
,
00000020
00010000
00000230
00001000
,
00000301
00001000
00010100
00000100
,
00001000
00000100
00000000
00010000
00000000
00000100
00001000
00000000
,
00010000
00100000
10010000
01000000
,
00100000
10000000
00000000
00010000
00000000
10000000
00100000
00000000
,
01000000
00010000
00101000
00010000
,
00000100
00000010
00000000
00000001
00000000
00000010
00000100
00000000
,
00001000
00000100
00010100
00010000
,
00001000
00100000
00000000
00001000
00000000
00010000
02000000
00000000
,
00100000
13000000
11000000
10010000
,
00100000
00010000
00100000
00010000
10000000
00100000
01000000
00000000
,
00010000
00100000
00011000
00101000
,
00010000
00000200
00001000
00000000
00010300
00000100
00001000
00000000
,
00001001
00000010
00000011
00000101
,
00000010
00001000
00000010
00001000
00000001
00000010
00000100
00000000
,
00001000
00000000
00000001
00000100
00001000
00000000
00000100
00001000
,
00010000
00000000
00001000
00010000
00100000
00010000
00100000
10000000
,
00100000
00000000
01000000
00010000
01000000
00000000
00010000
00100000
,
00010000
00000000
10000000
01000000
10000000
00000000
01000000
00100000
,
01000000
00100000
00010000
00100000
00010000
00000000
00100000
00001000
,
00100000
00000000
00001000
00010000
00001000
00000000
00000100
00001000
,
00000100
00000001
00000100
00000001
00000100
00000010
00002000
00000000
,
00003000
00000000
00000001
00000100
00000001
00000000
00001000
00000100
,
00001000
00000000
00000010
00010000
00000010
00000000
00001000
00000010
,
00001000
00000000
00000100
00010000
00000100
00000000
00011000
00000000
,
00101000
00000000
00010000
00010000
00010000
10000000
00100000
10000000
,
00100000
00000000
01000000
00010000
01000000
00000000
00100000
01000000
,
00002000
00000000
00103000
00001000
00010000
00000000
01000000
10000000
,
02000000
03000000
00100000
00001000
00020000
00030000
00000100
00000010
,
00000002
00000000
00001003
00000010
00000100
00000000
00001000
00000100
,
00000001
00000000
00000010
00000100
00010000
00000000
00011000
00000000
,
00101000
00020000
00030200
00000320
,
00000032
00000000
00000103
00000010
00000100
00001000
00000100
00001000
,
00010000
00001000
00200000
00000000
00000000
00000000
01300000
10000000
,
01000000
10000000
00010000
01000000
00010000
00100000
00001000
00001000
,
00010000
00000000
00010200
00000000
00000000
00000000
00000310
00000100
,
00000010
00000100
00001000
00000010
00000100
00000010
00002000
00000001
,
00003001
00000000
00000120
00000000
00000000
00000000
00001030
00000010
,
00001000
00000010
00000100
00001000
00000100
00001000
00010000
00000000
,
00001000
00000000
01000000
00001000
00100000
00010000
00100000
00001000
,
01000000
00010000
20000000
00000000
01000000
00000000
30020000
00000000
,
01030000
00000000
20010000
00000000
00000000
00000000
30100000
01000000
,
00100000
01000000
00001000
01000000
00001000
01000000
00010000
00000000
,
00100000
00000000
00021000
00000000
00000000
00000000
00030100
00000010
,
00000001
00001000
00000001
00000100
00000001
00001000
00000010
00000010
,
00000100
00001010
00001010
00000011
,
00000011
00000000
00001000
00000100
00001000
00000100
00010000
00001000
,
00010000
00000000
00001000
00010000
00100000
01000000
00010000
00100000
,
01000000
10000000
00010000
01000000
10000000
01000000
00010000
01000000
,
00001000
00012000
00010000
00000100
,
00013000
00010200
00001000
00000010
,
00001300
00000201
00000010
00000001
,
00000310
00020100
00001000
00000010
,
00031000
00101000
00001000
00110000
,
01000000
10010000
00100000
01010000
,
01000000
00100000
10000000
01000000
,
00100000
00000000
00010000
00100000
00001000
00010000
00000010
00001000
,
00000100
00000010
00000001
00000010
00000100
00001000
00000001
00000100
,
00000010
00001000
00000200
00000000
00000000
00000000
00000000
00000000
,
00000000
00020000
00000000
00000000
,
00030300
00000000
00001000
00000010
00000100
00000001
00000010
00000000
,
00000110
00000000
00000100
00010000
00001000
00000000
00011000
00000000
,
01100000
00000000
00010000
10000000
00010000
00100000
10000000
00000000
,
00100000
00000000
00010000
10000000
01000000
00100000
00001000
00000000
,
00011000
00000000
00000100
00010000
00001000
00010000
00000010
00000000
,
00000101
00000000
00000010
00001000
00000100
00000000
00010000
00000000
,
00001000
00000101
00000011
00001010
,
00011000
00000000
00001000
00100000
00010000
10000000
01000000
00100000
,
00010000
10000000
00100000
00000000
01000000
00100000
01000000
00000000
,
10010000
00000000
10000000
01000000
00100000
00000000
00110000
00000000
,
11000000
00000000
00100000
01000000
00001000
00100000
00010000
00000000
,
00101000
00000000
00010000
00000100
00000010
00000001
00001000
00000000
,
00000101
00000000
00001010
00000000
00000100
00000010
00010000
00000000
,
00001000
00000000
00100000
00010000
00100000
01000000
10000000
01000000
,
00100000
00001000
00010000
00000010
00000100
00000001
00001000
00000100
,
00000010
00000001
00000010
00000000
00001100
00000000
00000011
00000000
,
00010100
00002000
00000000
00200000
,
00003000
00020000
00300000
02000000
,
00030000
00200000
03000000
20000000
,
00300000
02000000
30000000
00020000
,
03000000
00002000
00000000
00000000
,
00000000
00000000
00000000
00000000
,
00000000
00033000
00000000
00000000
;

//---------------dance-double - D-LIGHT----------------
#NOTES:
     dance-double:
     DJ OMiY-LDP:
     Easy:
     7:
     0.475857,0.654542,0.441358,0.283135,0.000000,400.000000,347.000000,53.000000,34.000000,0.000000,0.000000,0.475857,0.654542,0.441358,0.283135,0.000000,400.000000,347.000000,53.000000,34.000000,0.000000,0.000000:
00000000
00000000
00000000
00000000
,
00000000
00000000
00000000
00000000
,
00000000
00000000
00000000
00000000
,
00000000
00000000
00000000
00000000
,
00000000
00000000
00000000
00000000
,
00000000
00000000
00000000
00000000
,
00000000
00000000
00000000
00000000
,
00000000
00000000
00000000
00000000
,
00000000
00000000
00000000
00000000
,
00001000
00010000
00001000
00100000
,
01000000
20000000
30100000
01000000
,
00001000
00010000
00000100
00000010
,
00000001
00000200
00000310
00001000
,
00000100
00000001
00000100
00001000
,
00010000
00200000
01300000
10000000
,
00010000
00100000
00001000
00010000
,
00000200
00001000
00000320
00000001
,
00000200
00000330
00001001
00000000
00001001
00000000
00001001
00000000
,
00000010
00010000
00001000
00100000
,
01000000
10010000
10010000
10010000
,
01000000
00100000
00001000
00010000
,
00000100
00000110
00000110
00000110
,
00000001
00000100
00001000
00010000
,
00100000
01100000
01100000
01100000
,
01000000
00010000
00100000
00001000
,
00010000
00011000
00001100
00011000
,
00010000
00001000
00100000
00010000
,
00100000
00011000
00110000
00011000
,
00010000
00000200
00000000
00000000
00000000
00000310
00000100
00000000
,
00010000
00011000
00001010
00011000
,
00100000
00010000
01000000
00010000
,
00100000
00011000
00101000
00011000
,
00010100
00000010
00000001
00001000
,
00000100
00001000
00001000
00000010
,
00000010
00000100
00000100
00000001
,
00000001
00000010
00000010
00000100
,
00000100
00010000
00010000
00001000
,
00100000
00100000
00100000
10010000
,
01000000
00100000
10000000
01000000
,
00100000
00001000
00010000
00000100
,
00000010
00000100
00010000
00011000
,
00011000
00000100
00001000
00000010
,
00000100
00000001
00001000
00000100
,
00000010
00000100
00000010
00000000
00000001
00000000
00000100
00000000
,
00002000
00013000
00200000
10300000
,
10010000
00100000
00010000
10000000
,
01000000
00100000
00001000
00020000
,
00031000
00000000
00100000
00010000
00100000
00000000
00010000
10000000
,
00010000
01100000
10010000
11000000
,
01010000
20010000
00000000
31000000
,
01000000
00000000
00100000
00000000
00001000
00000000
00010000
00000100
,
00010000
00002000
00000000
00003100
,
00000100
00000000
00000001
00000100
00000010
00000000
00001000
00000010
,
00000100
00000002
00000000
00000013
,
00000010
00000000
00000100
00000000
00010000
00000000
00001000
00100000
,
00010000
01000000
01000000
00100000
,
00100000
10010000
01000000
20020000
,
30030000
00210000
00000000
00301000
,
00001000
00000000
00010000
00000000
00000100
00000000
00000010
00000100
,
00001000
00000020
00000000
00001030
,
00000100
00000000
00010000
00000000
00001000
00000000
00100000
00010000
,
00100000
01000000
11000000
00100000
,
00110000
00000000
10000000
00000000
00010000
00000000
00100000
00001000
,
00010000
00000100
00000010
00000001
,
00000100
00001000
00010000
00100000
,
10000000
00010000
00100000
00000000
00100000
00000000
01000000
00000000
,
10000000
11000000
00100000
00001000
,
00010000
00011000
00000100
00001000
,
00000010
00000101
00000001
00001000
,
00000010
00001001
00000100
00001001
,
00000100
00001001
00000010
00001001
,
00000010
00000001
00001000
00000100
,
00010000
00000000
00001000
00000000
00100000
00000000
00010000
10000000
,
00010000
10000000
00100000
01000000
00100000
01000000
00100000
01000000
,
00100000
01000000
00002000
00000000
00000000
00000000
00000000
00000000
,
00000000
00020000
00000000
00000000
,
00033000
00011000
00010000
00000100
,
00000100
00000010
00000100
00001000
,
00001000
00000001
00000100
00001000
,
00010000
00002000
00203000
00320000
,
20030000
31000000
00100000
01000000
,
01000000
10000000
01000000
00010000
,
00001000
00010000
00010000
00000010
,
00000010
00000101
00000101
00001001
,
00001001
00000010
00001000
00000100
,
00000100
00010000
00001000
01000000
,
01000000
00010000
00100000
01000000
,
01000000
20000000
31000000
11000000
,
11000000
00100000
00001000
00010000
,
00010000
00000100
00000010
00000001
,
00000100
00001000
00010000
00100000
,
10000000
00020000
01000000
10000000
,
01030000
20000000
00000000
32000000
,
00000000
03200000
00000000
00302000
,
00000000
00023000
00000000
00030200
,
00000000
00000320
00000000
00000032
,
00000000
00000200
00000000
00000000
,
00000000
00000000
00000000
00000000
,
00000000
00000303
00000000
00000000
;
