#VERSION:0.81;
#TITLE:Aquatic Ambience;
#SUBTITLE:-BlackY remix-;
#ARTIST:David Wise;
#TITLETRANSLIT:;
#SUBTITLETRANSLIT:;
#ARTISTTRANSLIT:;
#GENRE:Trance;
#ORIGIN:;
#CREDIT:;
#BANNER:Aquatic Ambience -BlackY remix-bn.png;
#BACKGROUND:Aquatic Ambience -BlackY remix-bg.png;
#PREVIEWVID:;
#JACKET:Aquatic Ambience -BlackY remix-jk.png;
#CDIMAGE:;
#DISCIMAGE:;
#LYRICSPATH:;
#CDTITLE:;
#MUSIC:Aquatic Ambience -BlackY remix-.ogg;
#OFFSET:0.010000;
#SAMPLESTART:73.704292;
#SAMPLELENGTH:27.428574;
#SELECTABLE:YES;
#BPMS:0.000=140.000,
108.000=70.000,
140.000=140.000;
#STOPS:;
#DELAYS:;
#WARPS:;
#TIMESIGNATURES:0.000=4=4;
#TICKCOUNTS:0.000=4;
#COMBOS:0.000=1;
#SPEEDS:0.000=1.000=0.000=0;
#SCROLLS:0.000=1.000;
#FAKES:;
#LABELS:0.000=Song Start;
#LASTSECONDHINT:133.704300;
#BGCHANGES:;
#KEYSOUNDS:;
#ATTACKS:
;

//---------------dance-single - ----------------
#NOTEDATA:;
#CHARTNAME:;
#STEPSTYPE:dance-single;
#DESCRIPTION:;
#CHARTSTYLE:;
#DIFFICULTY:Hard;
#METER:8;
#RADARVALUES:0.559379,0.561826,0.058334,0.459378,0.109376,466.000000,8.000000,63.000000,0.000000,0.000000,0.000000,0.000000,0.000000,0.559379,0.561826,0.058334,0.459378,0.109376,466.000000,8.000000,63.000000,0.000000,0.000000,0.000000,0.000000,0.000000;
#CREDIT:DJ OMiY;
#NOTES:
// measure 0
0000
0000
0000
0000
,  // measure 1
0000
0000
0000
0000
,  // measure 2
0000
0000
0000
0000
,  // measure 3
1000
0100
0010
0001
1000
0100
0010
0001
,  // measure 4
1000
0100
0010
0001
1000
0100
0010
0001
,  // measure 5
1000
0010
0100
0001
1000
0010
0100
0001
,  // measure 6
1000
0010
0100
0001
1000
0010
0100
0001
,  // measure 7
1000
0100
0001
0100
1000
0100
0010
0001
,  // measure 8
1000
0010
0001
0010
1000
0100
0010
0001
,  // measure 9
1000
0010
0001
0010
1000
0010
0100
0001
,  // measure 10
1000
0100
0001
0100
1000
0010
0100
0001
,  // measure 11
1000
0000
0101
0000
0001
0000
1000
0010
,  // measure 12
0001
1000
0100
0001
1000
0010
0001
0000
,  // measure 13
0010
0000
1010
0000
0001
0000
1000
0100
,  // measure 14
0001
1000
0010
0001
1000
0100
0001
0000
,  // measure 15
0100
1000
0010
0100
0001
0010
0100
1000
,  // measure 16
0010
0100
0001
0010
0200
0000
1000
0000
,  // measure 17
1300
0001
0101
1000
,  // measure 18
1100
0000
0000
0000
0101
0000
0000
0000
0010
0000
1000
0001
0000
0000
0100
0000
,  // measure 19
0001
0010
0100
0010
0001
0100
1000
0100
,  // measure 20
0001
1000
0100
1000
0001
0010
1000
0010
,  // measure 21
0001
0100
0010
0100
0001
0010
1000
0010
,  // measure 22
0001
1000
0010
1000
0001
0100
1000
0100
,  // measure 23
0001
0010
0100
1000
0001
0010
0100
1000
,  // measure 24
0001
0010
0100
1000
0001
0010
0100
1000
,  // measure 25
0001
0100
0010
1000
0001
0100
0010
1000
,  // measure 26
0001
0000
0100
0000
0010
0000
1000
0000
0001
0100
0000
0100
0001
0000
1000
0000
,  // measure 27
0100
0000
0000
0000
0010
0000
0100
2000
0000
0000
0000
0000
0000
0000
0000
0000
,  // measure 28
3000
0000
0001
0100
0001
0000
0010
0001
0000
0100
0000
0010
0000
0200
0000
0000
,  // measure 29
0000
0000
0300
0000
0001
0000
1000
0020
0000
0000
0000
0000
0000
0000
0000
0000
,  // measure 30
0030
0000
0000
0000
1000
0000
0001
0200
0000
0000
0000
0000
0000
0000
0000
0000
,  // measure 31
0000
0000
0300
0000
0001
0000
0010
2000
0000
0000
0000
0000
0000
0000
0000
0000
,  // measure 32
3000
0000
0010
0001
0010
0000
0001
1000
0000
0001
0000
0100
0000
0000
0001
0000
,  // measure 33
2000
0000
3000
0000
0100
0000
1000
0020
0000
0000
0030
0000
0100
0000
0001
0020
,  // measure 34
0000
0000
0000
0000
0030
0000
0000
0000
0100
0000
0000
0000
1000
0000
0020
0000
0000
0000
0000
0000
0030
0000
0000
0000
0000
0000
0000
0100
0000
0000
0001
0000
,  // measure 35
1000
0010
0100
0001
0020
0130
0200
2300
,  // measure 36
3001
0100
0010
1000
0001
0010
0100
1000
,  // measure 37
0001
0100
0002
2003
3002
0013
0200
0320
,  // measure 38
0031
2000
3010
2000
3001
2000
3100
0010
,  // measure 39
0001
1000
0100
1000
0020
0130
0002
0023
,  // measure 40
0130
1000
0100
0010
0001
0010
1000
0010
,  // measure 41
0001
0100
0010
1000
0002
0103
0002
2003
,  // measure 42
3100
0000
0010
0000
0001
0000
0010
0000
0100
0000
1000
0001
1000
0000
0010
0000
,  // measure 43
1001
0010
0100
0001
2000
3100
0020
0230
,  // measure 44
1300
0001
0100
0010
0100
0001
1000
0010
,  // measure 45
1000
0100
0020
0032
0023
0130
2000
3002
,  // measure 46
0103
0002
1003
0002
0103
1000
0200
0301
,  // measure 47
2000
3100
0010
0100
2000
3001
0200
0320
,  // measure 48
0130
0001
1000
0001
0020
0031
2000
3200
,  // measure 49
1300
0010
0100
0001
2000
3100
0020
0032
,  // measure 50
0103
0000
0001
0000
0010
0000
0100
0000
1000
0000
0001
0100
0001
0000
1000
0000
,  // measure 51
1010
0100
0002
2003
3002
0103
0002
0023
,  // measure 52
0130
2000
3100
0020
0031
1000
0100
0010
,  // measure 53
0001
0100
2000
3200
0302
1003
0020
0230
,  // measure 54
0301
0020
0130
2000
3100
0020
0031
1000
,  // measure 55
0001
0000
0100
0001
0000
0001
0100
0000
0010
0000
1000
0000
0001
0000
0100
0000
,  // measure 56
0010
1000
0001
0100
0010
1000
0001
0100
,  // measure 57
0010
0000
1000
0100
0000
0100
1000
0000
0001
0000
0010
0000
0100
0000
1000
0000
,  // measure 58
0001
0000
0010
0000
0100
0000
1000
0000
0001
0100
0000
0010
1000
0000
0001
0000
,  // measure 59
0100
0000
0001
0000
1000
0000
0001
0010
,  // measure 60
1000
0001
0100
1000
0001
0010
1000
0000
,  // measure 61
0010
0000
0001
0000
0100
0000
1000
0100
,  // measure 62
0001
1000
0010
0001
1000
0100
0001
0000
,  // measure 63
0010
0000
0100
0000
1000
0000
0001
0010
,  // measure 64
1000
0001
0100
1000
0001
0010
1000
0000
,  // measure 65
0010
0000
0001
0000
0100
0000
0001
0100
,  // measure 66
1000
0000
0001
0000
0010
0000
1000
0000
0001
0000
0100
0001
1000
0000
0010
0000
,  // measure 67
1001
0000
0000
0000
;

//---------------dance-single - ----------------
#NOTEDATA:;
#CHARTNAME:;
#STEPSTYPE:dance-single;
#DESCRIPTION:;
#CHARTSTYLE:;
#DIFFICULTY:Medium;
#METER:5;
#RADARVALUES:0.350002,0.317554,0.080209,0.131251,0.051042,307.000000,11.000000,18.000000,0.000000,0.000000,0.000000,0.000000,0.000000,0.350002,0.317554,0.080209,0.131251,0.051042,307.000000,11.000000,18.000000,0.000000,0.000000,0.000000,0.000000,0.000000;
#CREDIT:DJ OMiY;
#NOTES:
0000
0000
0000
0000
,
0000
0000
0000
0000
,
0000
0000
0000
0000
,
1000
0100
0010
0000
0001
0100
0010
0000
,
1000
0001
0100
0000
0010
1000
0100
0000
,
0010
0001
0100
1000
,
0010
0000
0001
0000
1010
0000
0001
0100
,
0010
1000
0001
0000
0100
0001
0010
0000
,
0100
1000
0001
0000
0010
0100
1000
0000
,
0100
0001
0010
1000
,
0001
0000
0100
0000
1001
0000
0010
1000
,
0100
0010
0001
0000
1000
0000
0010
0100
,
0001
0000
0100
1000
0000
0100
0001
0000
,
0010
0000
0100
0000
1000
0000
0001
1000
,
0100
0000
0001
0100
0000
1000
0001
0000
,
0010
0001
0010
0100
1000
0100
0010
0001
,
2000
0010
0001
0100
,
3002
0010
0100
1000
,
0100
0000
1000
0000
0013
0000
0001
0010
,
0100
1000
0010
0000
0100
0001
0010
0000
,
0001
0010
0100
0000
1000
0100
0010
0000
,
0001
1000
0010
0000
0100
0010
1000
0000
,
0100
0010
0100
0000
1000
0100
0010
0000
,
0001
0100
1000
0010
,
0001
1000
0110
0001
,
1000
0100
0010
0000
0001
0100
0010
0000
,
1000
0001
1000
0001
0010
0001
0020
0000
,
0130
0000
0000
0000
1000
0000
0000
0100
0000
0000
0000
0000
0000
0000
0000
0000
,
0000
0000
0001
0000
0001
0000
0000
0100
0000
0001
0000
0100
0000
0001
0000
0000
,
0000
0000
0000
0000
0010
0000
0000
0100
0000
0000
0000
0000
0000
0000
0000
0000
,
0000
0000
0000
0000
1000
0000
0000
0001
0000
0000
0000
0000
0000
0000
0000
0000
,
0000
0000
0000
0000
0010
0000
0000
0100
0000
0000
0000
0000
0000
0000
0000
0000
,
0000
0000
1000
0000
1000
0000
0000
0001
0000
1000
0000
0001
0000
0000
1000
0000
,
0100
0000
0000
0000
0010
0000
0000
0010
0000
0000
0000
0000
0100
0000
0000
0100
,
0000
0000
0000
0000
1000
0000
0000
1000
0000
0000
0000
0000
0000
0000
0000
0000
,
1001
0000
0001
0000
0010
0000
0001
0100
,
0010
1000
0001
1000
,
0100
0000
0010
0100
0010
0000
0001
2000
,
0000
3200
0000
0320
0000
0032
0000
0003
,
0100
0000
1001
0000
0010
0000
1000
0100
,
0010
0001
1000
0010
,
1000
0000
0100
0000
1000
0000
0001
0010
,
0100
0000
0010
0000
0001
0000
1000
0001
,
1000
0000
0010
0000
0100
0000
0010
1000
,
0100
0010
0001
1000
,
0001
0000
0010
0001
0100
0000
1000
0200
,
0000
0302
0000
2003
0000
3000
0020
0000
,
0130
0000
1001
0000
0010
0000
1000
0100
,
0010
0000
0100
0000
1000
0000
0001
0010
,
0100
0000
0010
0000
0001
0000
1000
0001
,
0100
0010
1000
0101
,
1001
0000
0010
0100
0010
0000
1000
0002
,
0000
0023
0000
0230
0000
0300
1000
0000
,
0010
0000
1000
0001
1000
0000
0010
2000
,
0000
3200
0000
0320
0000
0032
0000
0003
,
0100
0001
0100
0010
0100
0000
0001
0000
,
1000
0100
0010
0001
,
1000
0010
1000
0100
1000
0000
0010
0000
,
0100
0001
1000
1010
,
0101
0000
0100
0000
0000
0000
0010
1000
,
0001
0000
0010
1000
0000
0010
0001
0000
,
0000
0000
0100
0000
0000
0000
0100
0010
,
1000
0000
0100
0001
0000
0100
1000
0000
,
0000
0000
0010
0000
0010
0000
0010
0100
,
0001
0000
0100
1000
0000
0100
0001
0000
,
0010
0000
0010
0000
0010
0000
0010
0100
,
1000
0000
0100
0001
0000
0100
1000
0001
,
0110
0000
0000
0000
;

//---------------dance-single - ----------------
#NOTEDATA:;
#CHARTNAME:;
#STEPSTYPE:dance-single;
#DESCRIPTION:;
#CHARTSTYLE:;
#DIFFICULTY:Easy;
#METER:4;
#RADARVALUES:0.305210,0.390836,0.058334,0.430211,0.000000,226.000000,8.000000,59.000000,0.000000,0.000000,0.000000,0.000000,0.000000,0.305210,0.390836,0.058334,0.430211,0.000000,226.000000,8.000000,59.000000,0.000000,0.000000,0.000000,0.000000,0.000000;
#CREDIT:DJ OMiY;
#NOTES:
0000
0000
0000
0000
,
0000
0000
0000
0000
,
0000
0000
0000
0000
,
1000
0100
0010
0001
,
0100
1000
0100
0001
,
1000
0100
0010
0001
,
1000
0010
0001
0010
,
1000
0010
0100
0001
,
1000
0010
0100
0001
,
1000
0100
0001
0100
,
1000
0010
0001
0010
,
1000
0100
0010
0002
,
0203
0320
2030
3200
,
0310
0001
0010
0200
,
0320
0032
2003
3010
,
0210
0000
0010
0010
,
0002
0300
1000
1003
,
1020
0000
0100
0100
,
0230
0000
0001
0301
,
2000
3200
0320
0032
,
0203
0320
2030
3200
,
0320
0032
0203
0302
,
0023
0230
0320
0032
,
1003
0100
0010
0001
,
1000
0100
0010
0001
,
1000
0010
0100
0001
,
1000
0100
0001
0100
,
1100
0000
0000
0000
2000
0000
0000
3000
0000
0000
0000
0000
0000
0000
0000
0000
,
0100
0100
0010
0001
,
0000
0000
0000
0000
0020
0000
0000
0030
0000
0000
0000
0000
0000
0000
0000
0000
,
0001
0000
0000
0000
0002
0000
0000
0003
0000
0000
0000
0000
0000
0000
0000
0000
,
0100
0000
0000
0000
0020
0000
0000
0030
0000
0000
0000
0000
0000
0000
0000
0000
,
1000
1000
0001
1000
,
0100
0000
0000
0000
2000
0000
0000
3000
0000
0000
0000
0000
0002
0000
0000
0003
,
0000
0000
0000
0000
0200
0000
0000
0300
0000
0000
0000
0000
0010
0000
0000
0000
,
1001
0001
0100
0200
,
1300
0100
0001
1000
,
0100
0020
0032
0103
,
0010
0010
0100
0100
,
0001
1000
0200
2300
,
3010
0100
0001
1000
,
0100
0010
0002
0203
,
0310
0100
0001
1000
,
1001
0010
0020
0230
,
0301
1000
0100
0010
,
0010
0002
2003
3100
,
1000
1000
0010
0010
,
0100
0010
0200
0302
,
0013
0001
0020
0230
,
1300
0001
2000
3020
,
0130
0001
1000
0100
,
0011
1000
1000
0000
,
0001
0100
0010
0000
,
1001
0010
0010
0000
,
0100
0001
1000
0100
,
0020
0000
0001
0100
,
0031
0000
1000
0001
,
0200
0000
0010
0001
,
0310
0000
1000
0001
,
2000
0000
0000
3100
,
1000
0010
0100
0002
,
0000
0000
0000
0013
,
0001
0100
0010
2000
,
0000
0000
0000
3010
,
1000
0100
0010
0002
,
1000
1000
1000
0103
,
0001
0010
0100
1000
,
0011
0000
0000
0000
;

//---------------dance-single - ----------------
#NOTEDATA:;
#CHARTNAME:;
#STEPSTYPE:dance-single;
#DESCRIPTION:;
#CHARTSTYLE:;
#DIFFICULTY:Beginner;
#METER:2;
#RADARVALUES:0.147918,0.146563,0.029167,0.218751,0.000000,108.000000,4.000000,30.000000,0.000000,0.000000,0.000000,0.000000,0.000000,0.147918,0.146563,0.029167,0.218751,0.000000,108.000000,4.000000,30.000000,0.000000,0.000000,0.000000,0.000000,0.000000;
#CREDIT:DJ OMiY;
#NOTES:
0000
0000
0000
0000
,
0000
0000
0000
0000
,
0000
0000
0000
0000
,
0001
0000
0001
0000
,
0001
0000
0001
0000
,
1000
0000
1000
0000
,
1000
0000
1000
0000
,
0010
0000
0100
0000
,
0010
0000
0100
0000
,
0001
0000
1000
0000
,
0001
0000
1000
0000
,
1001
0000
0000
0100
,
0200
0300
0200
0300
,
0000
0000
0000
0010
,
0020
0030
0020
0030
,
0002
0000
0000
0000
,
0000
0000
0003
0000
,
0200
0000
0000
0000
,
0000
0000
0300
0000
,
0010
0000
1000
0000
,
0010
0000
1000
0000
,
0001
0000
0100
0000
,
0001
0000
0100
0000
,
0001
0000
0001
0000
,
1000
0000
1000
0000
,
0001
0000
0010
0000
,
0100
0000
1000
0000
,
2002
0000
0000
0000
,
3003
0000
0100
0100
,
0000
0020
0000
0030
,
0000
0200
0000
0300
,
0000
2002
0000
0000
,
3003
0000
0001
0000
,
0100
0200
0300
0020
,
0030
2000
3000
0000
,
0001
0000
0010
0020
,
0000
0000
0000
0030
,
0000
0100
0100
0000
,
1000
1000
1000
0000
,
0001
0000
0100
0000
,
0010
0000
1000
0000
,
0001
0000
1000
0000
,
0100
0000
0010
0000
,
0001
0000
1000
2000
,
0000
0000
0000
3000
,
0000
0100
0100
0000
,
0010
0000
0001
0000
,
1000
0000
0000
0000
0002
0000
0000
0003
,
0000
0000
0000
0000
0020
0000
0000
0030
,
0000
0000
0000
0000
0200
0000
0000
0300
,
0000
0000
1000
0000
,
0100
0100
0100
0000
,
0010
0000
0001
0000
,
1000
1000
1000
0000
,
0010
0000
1000
0000
,
0002
0000
0000
0000
,
0003
0000
0100
0000
,
2000
0000
0000
0000
,
3000
0000
0100
0000
,
0010
0000
0000
1000
,
2000
3000
2000
3000
,
0000
0000
0000
0001
,
0002
0003
0002
0003
,
0000
0000
0000
0010
,
0020
0030
0020
0030
,
0000
0000
0000
0100
,
0200
0300
0200
0300
,
1001
0000
0000
0000
;
