#TITLE:Amor de Verão;
#SUBTITLE:;
#ARTIST:かめりあ feat. ななひら;
#TITLETRANSLIT:Amor De Verao;
#SUBTITLETRANSLIT:;
#ARTISTTRANSLIT:Camellia feat. Nanahira;
#GENRE:NETTAI the Bass;
#CREDIT:;
#BANNER:Amor De Verao-bn.png;
#BACKGROUND:Amor de Verao-bg.png;
#LYRICSPATH:;
#CDTITLE:;
#MUSIC:Amor De Verao.ogg;
#OFFSET:-1.042000;
#SAMPLESTART:21.911566;
#SAMPLELENGTH:13.913042;
#SELECTABLE:YES;
#BPMS:0.000000=138.000000
;
#STOPS:
;
#BGCHANGES:;
#KEYSOUNDS:;
#ATTACKS:;

//---------------dance-single - S-HEAVY----------------
#NOTES:
     dance-single:
     DJ OMiY-HSP:
     Hard:
     9:
     0.587269,0.645879,0.373716,0.146237,0.645879,506.000000,460.000000,46.000000,18.000000,0.000000,0.000000,0.587269,0.645879,0.373716,0.146237,0.645879,506.000000,460.000000,46.000000,18.000000,0.000000,0.000000:
0000
0000
0000
0000
,
0000
0000
0000
0000
,
0000
0000
0000
0000
,
0000
0000
0000
0000
0000
1000
0101
0000
,
0001
0000
0000
0010
0001
0000
0000
0001
0100
0000
0000
0100
0010
0000
0000
0010
,
1000
0000
0000
1000
0100
0000
0000
0100
0010
0000
0000
0010
0001
0000
0000
0001
,
1000
0000
0100
0000
1000
0010
0000
0100
0000
0000
0001
0000
0100
0000
0000
0000
,
0001
0000
0000
0000
0010
0000
0000
0000
0100
0000
0000
0000
0010
0000
0000
0000
0100
0000
0000
0000
1000
0000
0000
0000
0010
0000
0000
0000
0000
0000
0100
0000
0000
0000
0000
0000
0100
0000
0000
0000
0000
0000
0001
0000
0000
1000
0000
0000
,
0001
0000
0000
0010
0001
0010
0000
0100
0000
0100
0000
1000
0010
0000
0100
0000
,
0001
1100
0001
1100
0001
1010
0001
1010
,
0001
0000
0000
1000
0100
1000
0000
0010
0000
0010
0000
0100
0001
0000
1000
0000
,
0010
1001
0100
1001
0010
0110
1001
0000
,
0010
0000
0000
1000
0001
0100
0000
0001
0000
0010
0000
0001
0100
0000
0010
0000
,
1000
0101
1000
0101
1000
0011
1000
0011
,
1000
0000
0000
0100
0010
0000
0001
0000
0100
0000
0000
0010
1000
0000
0100
0000
,
0010
0010
0000
0001
0000
0100
0010
0000
0100
0000
0110
0000
1001
0000
0000
0000
,
0220
0330
2002
3003
,
1000
0000
0001
0000
0010
0001
0000
0100
0000
0100
0000
0010
1000
0000
0001
0000
,
0100
0000
0000
0100
0001
0000
1000
0000
0010
0000
0000
0010
0100
0000
0001
0000
,
1000
0000
0000
0100
1000
0010
0100
0001
0010
0100
0000
0000
,
0010
0000
0000
0001
1000
0000
0001
0000
0010
0000
0000
0100
1000
0000
0001
0000
,
0100
0000
0000
0010
0100
0010
0000
1000
0000
0001
0000
0010
0001
0000
0100
0000
,
0001
0000
0000
0010
0000
0000
0100
0000
1000
0000
0000
0001
0000
0000
0100
0000
,
0010
0000
0000
1000
0000
0000
1000
0000
0100
1000
0000
0001
0000
0010
0001
0010
,
0200
0000
0000
0000
0000
0000
0000
0000
0000
0000
1300
0000
0100
0000
0000
2000
,
0000
0000
0000
0000
0000
0000
0000
0000
0001
0000
0000
0000
3100
0000
1000
0002
,
0000
0000
0200
0000
0000
0000
0003
0000
0000
0000
0301
0000
1000
0000
0000
0020
,
0000
0000
2000
0000
0000
0000
0030
0000
0000
0000
3010
0000
0100
0000
0000
0002
,
0000
2000
0000
0000
0000
0000
0000
0000
0003
0000
3001
0000
0100
0000
0000
0001
,
0000
0000
0010
0000
0000
0001
0000
0000
0100
0000
0000
0000
0001
0000
0000
0000
,
1000
0000
1000
0100
0000
0000
0000
0000
0001
0000
0001
0100
0000
0000
0000
0000
,
1000
0000
1000
0010
0000
0000
0000
0000
0001
0000
0001
0010
0000
0000
1000
0000
,
0001
1000
0000
0100
0000
0100
1000
0000
0000
0000
1000
0000
0010
0100
0000
0000
,
0101
0000
0000
0000
1001
0000
0000
0000
0101
0000
0000
1100
0000
0000
0000
0000
,
1000
0000
0010
0000
0100
0010
0000
1000
0100
0000
1000
0000
0001
1000
0000
0100
,
1000
0000
0010
0000
0100
0010
0000
0010
0100
0000
0001
0000
0010
0000
0001
0000
,
0100
0000
0010
0000
1000
0100
0000
0010
0001
0000
0010
0000
0100
1000
0000
0010
,
0100
0001
0010
0100
1000
0010
0101
0000
,
1000
0000
0010
0000
0100
0001
0000
0010
0100
0000
0010
0000
0001
1000
0000
1000
,
0100
0000
1000
0000
0010
0100
0000
0001
1000
0000
0000
0011
0000
0000
1100
0000
,
0000
0000
0010
0000
0100
0001
0000
0010
0001
0000
0010
0000
0100
1000
0100
0010
,
0000
0000
0101
0000
0000
0110
0000
0000
0101
0000
0000
0110
0000
0000
1000
0000
,
0100
0000
0010
0000
0100
1000
0000
0010
0000
0000
0100
0000
0001
0010
0000
0100
,
1000
0010
0100
0001
1000
0100
0100
0000
,
0010
0000
0100
0000
1000
0001
0000
0100
0000
0000
0001
0000
0100
0010
0000
0010
,
0100
0001
0010
1000
0010
0001
0100
0000
,
0010
0000
1000
0000
0001
0010
0000
0001
0000
0000
0100
0000
0010
1000
0000
0010
,
1000
0000
0001
0000
0100
0000
0010
0000
0110
0000
0000
1001
0000
0000
0110
0000
,
0000
0000
0001
0000
1000
0100
0000
0010
0100
0000
1000
0000
0001
0100
0000
0010
,
1000
0100
0010
0100
0010
0001
0020
0000
0000
0030
0000
0000
,
2001
3010
0102
0013
,
2100
3001
0120
1030
,
0011
1010
1100
0101
,
1000
0000
0100
0000
0010
0000
0001
0000
0100
0000
0010
0000
1000
0000
0000
0001
0010
0100
1000
0000
0000
0000
0000
0000
,
0110
0000
0000
0000
0001
1000
0001
1000
0001
0100
0001
0100
0001
0000
1000
0000
,
0100
0000
0000
0000
0010
0100
0010
0100
1000
0100
1000
0100
1000
0000
0010
0000
,
0100
0000
0000
0000
0010
1000
0010
1000
0001
0100
0001
0100
0001
0000
1000
0000
,
0100
0000
0000
0000
0010
0001
0010
0001
0010
0000
0100
0000
0110
0000
0000
0000
,
0100
0000
0000
0000
1000
0100
0010
0001
0010
0100
1000
0100
0010
0000
0001
0000
,
0100
0000
0000
0000
0000
0000
0000
0000
0000
0000
0000
0000
0001
0000
0000
0010
0000
0000
0100
0000
0000
1000
0000
0000
0100
0000
0000
0010
0000
0000
0001
0000
0000
0010
0000
0000
0100
0000
0000
0000
1000
0000
0000
0000
0001
0000
0000
0000
,
0010
0000
0000
0001
0000
0000
0001
0000
1000
0000
0000
0100
0000
0000
0100
0000
,
1000
1000
0000
0010
0000
0100
0001
0000
0010
0000
0001
0000
0100
0000
0000
0000
,
0110
0000
0000
0000
0000
0000
0000
1100
,
0101
0000
0000
0000
0000
0000
0000
0011
,
1010
0000
0000
0000
1000
0000
0000
0000
1000
0000
0000
0001
0000
0000
0001
0000
,
0100
0001
0010
0100
1000
0010
0200
0000
0000
0000
0000
0000
,
0000
0300
0000
0000
;

//---------------dance-single - S-STANDARD----------------
#NOTES:
     dance-single:
     DJ OMiY-SSP:
     Medium:
     6:
     0.376038,0.457498,0.268101,0.251852,0.073118,324.000000,291.000000,33.000000,31.000000,0.000000,0.000000,0.376038,0.457498,0.268101,0.251852,0.073118,324.000000,291.000000,33.000000,31.000000,0.000000,0.000000:
0000
0000
0000
0000
,
0000
0000
0000
0000
,
0000
0000
0000
0000
,
0000
0000
0000
0000
,
1001
0001
0101
1000
,
1100
0010
1001
0001
,
0010
0001
0010
0000
0100
1000
0010
0000
,
0100
0001
0100
0001
0000
1000
0200
0000
0000
0300
0000
0000
,
1001
0000
0010
0000
0001
0100
1000
0000
,
0100
0001
0100
0010
0000
1000
0100
1000
,
0010
0000
0100
0000
0001
0010
0100
0000
,
1000
0010
1000
0001
0000
0110
0110
0000
,
1000
0000
0001
0000
0010
0001
1000
0000
,
0001
0100
0001
0010
0000
0100
0010
0100
,
1000
0000
0000
1000
0000
0000
0000
0000
0001
0000
0000
0001
0000
0000
0000
0000
,
0100
0000
1001
0000
0010
0100
1001
0000
,
0020
0030
0020
0030
,
0010
0001
0100
1000
0100
0001
1000
0000
,
0110
0001
0110
1000
,
0010
2000
3002
0103
,
1001
0010
1001
0100
,
0001
0010
0100
0010
0001
0010
0100
0000
,
2002
3003
2002
3003
,
0010
0001
1000
0100
1000
0001
0002
0000
,
0003
0000
0000
0000
0000
0000
1000
0100
,
0010
0000
0001
1000
,
0001
0000
0000
0000
0000
0010
0010
0000
,
0100
0000
0000
0000
0000
1000
0100
0000
,
1000
0000
1000
0000
1000
0010
1000
0000
,
0001
0000
0001
0000
0001
0100
0001
0000
,
0010
0000
0000
0010
0000
0000
0000
0000
0100
0000
0000
0100
0000
0000
0000
0000
,
0010
0000
0000
0010
0000
0000
0000
0000
0001
0000
0000
0001
0000
0000
0000
0000
,
2002
0000
3003
0010
,
1000
0000
0000
0000
0001
0000
0000
0000
0010
0000
0000
0100
0000
0000
0000
0000
,
1000
0100
0010
0000
0001
0100
0001
0000
,
0010
0100
1000
0000
0110
0000
0000
0000
,
0010
1000
0100
0000
0010
0100
1000
0000
,
0001
0100
0010
0100
0002
0000
0003
0000
,
0010
1000
0001
0000
0010
0100
1000
0000
,
0010
0100
0010
0000
2002
0000
3003
0000
,
0010
1000
0001
0000
0010
0100
1000
0002
,
2000
0000
3003
0010
,
1000
0001
0100
0000
0010
0100
0001
0000
,
0010
0100
1000
0000
0011
0000
1100
0000
,
0010
0100
0001
0000
1000
0010
1000
0000
,
0010
0100
0001
1000
0200
0000
0300
0000
,
0010
0100
1000
0000
0001
0010
0100
0000
,
0010
0001
1000
0000
0220
0000
0330
0000
,
0001
0100
0001
0000
1000
0100
0010
0002
,
2000
0000
3003
0000
,
1100
0000
1100
0000
,
0011
0000
0011
0000
,
1100
0011
1100
0011
,
0001
1000
0001
1000
0001
1000
0001
0000
0000
0010
0000
0000
,
0001
0000
1000
0001
1000
0100
0010
0000
,
0001
2000
0000
3020
0000
0230
0000
0301
,
0010
0000
0001
1000
0001
0100
0010
0000
,
0100
0002
0000
2003
0000
3010
0010
0000
,
1000
0000
0001
0010
1000
0010
0001
1000
,
0000
0010
0100
0010
0000
1000
0001
1000
,
0200
0300
2002
3003
,
0010
0100
0001
0010
0100
1000
1000
0000
,
0011
0000
0000
0000
0000
0000
0000
0001
,
1001
0000
0000
0000
0000
0000
0000
0010
,
1010
0010
0010
0010
,
1000
0100
1000
0100
1000
0100
2000
0000
0000
0000
0000
0000
,
0000
3000
0000
0000
;

//---------------dance-single - S-LIGHT----------------
#NOTES:
     dance-single:
     DJ OMiY-LSP:
     Easy:
     4:
     0.262298,0.430586,0.170610,0.276225,0.000000,226.000000,205.000000,21.000000,34.000000,0.000000,0.000000,0.262298,0.430586,0.170610,0.276225,0.000000,226.000000,205.000000,21.000000,34.000000,0.000000,0.000000:
// measure 0
0000
0000
0000
0000
,  // measure 1
0000
0000
0000
0000
,  // measure 2
0000
0000
0000
0000
,  // measure 3
0000
0000
0000
0000
,  // measure 4
1000
0100
0001
1000
,  // measure 5
0010
0001
1000
0000
,  // measure 6
0001
0100
1000
0100
,  // measure 7
0002
0000
0013
1100
,  // measure 8
1001
0010
0001
0100
,  // measure 9
0020
0100
1000
0130
,  // measure 10
0001
0100
0010
1000
,  // measure 11
0200
0010
1300
1001
,  // measure 12
0010
0001
0100
1000
,  // measure 13
0200
0010
0001
0310
,  // measure 14
0002
0003
2000
3000
,  // measure 15
0010
1000
0100
0001
,  // measure 16
2100
0000
0100
0000
,  // measure 17
0100
0100
0100
3100
,  // measure 18
1001
0010
0001
0100
,  // measure 19
0001
0220
0000
0330
,  // measure 20
1000
0100
0010
0100
,  // measure 21
1000
0010
0001
0010
,  // measure 22
1000
0001
0100
0010
,  // measure 23
1000
0010
0100
0001
,  // measure 24
0020
0000
0000
0130
,  // measure 25
0200
0000
2300
0000
,  // measure 26
0002
0000
3000
0000
,  // measure 27
0200
0000
0003
0000
,  // measure 28
0320
0000
0000
1000
,  // measure 29
2030
0000
3200
0000
,  // measure 30
0310
0010
0001
0001
,  // measure 31
0100
0100
1000
1000
,  // measure 32
0100
0100
0001
0001
,  // measure 33
1001
0000
0000
0000
0110
0000
0000
0000
2002
0000
0000
3003
0000
0000
0000
0000
,  // measure 34
1001
0001
1000
0010
,  // measure 35
0100
0001
0010
1000
,  // measure 36
0010
0001
0100
0010
,  // measure 37
0100
0001
0020
0030
,  // measure 38
0100
1000
0010
0001
,  // measure 39
0010
1000
0002
0003
,  // measure 40
0100
0001
1000
0200
,  // measure 41
0020
0000
0000
0330
,  // measure 42
0001
1000
0001
0100
,  // measure 43
1000
0100
0001
0010
,  // measure 44
0100
1000
0010
0100
,  // measure 45
0001
0010
0100
1000
,  // measure 46
0100
0001
0100
1000
,  // measure 47
0010
0100
0002
0003
,  // measure 48
1000
0100
1000
0010
,  // measure 49
0200
0000
0300
0000
,  // measure 50
0001
0000
0010
0000
,  // measure 51
0100
0000
1000
0000
,  // measure 52
1000
0100
0010
0001
,  // measure 53
2002
0000
3003
0010
,  // measure 54
0110
0001
1000
0001
,  // measure 55
0020
0100
0001
0130
,  // measure 56
1000
0010
0100
0001
,  // measure 57
2000
0100
0010
3100
,  // measure 58
1001
0000
0010
0010
0010
0010
0010
0000
,  // measure 59
1001
0000
0100
0100
0100
0100
0100
0000
,  // measure 60
2002
3003
0220
0330
,  // measure 61
0001
0100
1000
0010
,  // measure 62
0001
0000
0000
0000
,  // measure 63
1001
0000
0000
0000
,  // measure 64
0110
0100
0100
0100
,  // measure 65
1001
0110
1002
0000
,  // measure 66
0000
0003
0000
0000
;

//---------------dance-single - BEGINNER----------------
#NOTES:
     dance-single:
     DJ OMiY-BEG:
     Beginner:
     2:
     0.156682,0.212856,0.097491,0.105615,0.000000,135.000000,123.000000,12.000000,13.000000,0.000000,0.000000,0.156682,0.212856,0.097491,0.105615,0.000000,135.000000,123.000000,12.000000,13.000000,0.000000,0.000000:
// measure 0
0000
0000
0000
0000
,  // measure 1
0000
0000
0000
0000
,  // measure 2
0000
0000
0000
0000
,  // measure 3
0000
0000
0000
0000
,  // measure 4
0010
0000
0010
0000
,  // measure 5
1000
0000
1000
0000
,  // measure 6
0001
0001
0001
0001
,  // measure 7
0002
0000
0003
0000
,  // measure 8
0100
0000
0010
0000
,  // measure 9
1000
1000
1000
0000
,  // measure 10
0100
0000
0010
0000
,  // measure 11
0100
0100
0100
0000
,  // measure 12
0010
0000
0001
0000
,  // measure 13
0010
0010
0010
0000
,  // measure 14
0001
0000
1000
0000
,  // measure 15
2002
0000
3003
0000
,  // measure 16
0010
0000
0010
0000
,  // measure 17
0010
0010
0010
0000
,  // measure 18
0100
0000
0001
0000
,  // measure 19
1000
2000
0000
3000
,  // measure 20
1000
0000
0001
0000
,  // measure 21
1000
0000
0010
0000
,  // measure 22
0110
0000
0110
0000
,  // measure 23
0220
0000
0330
0000
,  // measure 24
0010
0000
0000
0000
,  // measure 25
1000
0000
0100
0000
,  // measure 26
0010
0000
0000
0000
,  // measure 27
0001
0000
0000
0100
,  // measure 28
0100
0000
0000
0010
,  // measure 29
0010
0000
1000
0000
,  // measure 30
0001
0000
0001
0000
,  // measure 31
0001
0000
0001
0000
,  // measure 32
1000
0000
1000
0000
,  // measure 33
2002
0000
3003
0000
,  // measure 34
0100
0000
0001
0000
,  // measure 35
1000
0000
0001
0000
,  // measure 36
0100
0000
0010
0000
,  // measure 37
2000
0000
3000
0000
,  // measure 38
0100
0000
0010
0000
,  // measure 39
0001
0000
1000
0000
,  // measure 40
0001
0000
0100
0000
,  // measure 41
0002
0000
0003
0000
,  // measure 42
1001
0000
0000
0000
,  // measure 43
0010
0000
0100
0000
,  // measure 44
1001
0000
0000
0000
,  // measure 45
0100
0000
0010
0000
,  // measure 46
1001
0000
0000
0000
,  // measure 47
0001
0000
1000
0000
,  // measure 48
0110
0000
0000
0000
,  // measure 49
1000
1000
1000
0000
,  // measure 50
0010
0000
0010
0000
,  // measure 51
0010
0000
0010
0000
,  // measure 52
0100
0100
0100
0100
,  // measure 53
0200
0000
0300
0000
,  // measure 54
0001
0001
0001
0001
,  // measure 55
0000
1000
1000
1000
,  // measure 56
0000
0100
0100
0100
,  // measure 57
0000
1001
0000
1001
,  // measure 58
0000
0001
0001
0001
,  // measure 59
0000
0100
0100
0100
,  // measure 60
0100
0000
0001
0000
,  // measure 61
1000
1000
1000
0000
,  // measure 62
0100
0000
0000
0000
,  // measure 63
0010
0000
0000
0000
,  // measure 64
0001
0000
0000
0000
,  // measure 65
0220
0000
0330
0000
;
