#TITLE:紫陽花 -AZISAI-;
#SUBTITLE:;
#ARTIST:camellia vs expander;
#TITLETRANSLIT:AZISAI;
#SUBTITLETRANSLIT:;
#ARTISTTRANSLIT:;
#GENRE:Oriental Techdance;
#CREDIT:;
#BANNER:AZISAI-bn.png;
#BACKGROUND:AZISAI-bg.png;
#LYRICSPATH:;
#CDTITLE:;
#MUSIC:AZISAI.ogg;
#OFFSET:-2.100000;
#SAMPLESTART:26.680647;
#SAMPLELENGTH:12.387094;
#SELECTABLE:YES;
#BPMS:0.000000=155.000000
;
#STOPS:
;
#BGCHANGES:;
#KEYSOUNDS:;
#ATTACKS:;

//---------------dance-single - S-HEAVY----------------
#NOTES:
     dance-single:
     DJ OMiY-HSP:
     Hard:
     9:
     0.508490,0.586322,0.061769,0.362892,0.428522,461.000000,453.000000,8.000000,47.000000,0.000000,0.000000,0.508490,0.586322,0.061769,0.362892,0.428522,461.000000,453.000000,8.000000,47.000000,0.000000,0.000000:
0000
0000
0000
0000
,
0000
0000
0000
0000
,
0000
0000
0000
0000
,
0000
0000
0000
0000
,
0001
1000
0010
0100
,
0001
0000
0000
0000
1000
0000
0000
0000
0010
0000
0000
0000
0100
0000
0000
0001
,
1000
0000
0000
0010
0100
0000
0000
0001
1000
0000
0000
0010
0100
0000
0000
0001
,
0020
0000
0000
0000
0000
0000
0000
0000
0000
0000
0000
0130
0010
0000
0000
0000
,
0001
1000
0000
0010
0000
0000
0000
1000
0000
0100
0000
1000
0000
0000
0000
0010
,
0000
0100
0000
0001
0000
0000
0000
0010
0000
0100
0000
0010
0000
0000
0000
0001
,
0000
0010
0000
0100
0000
1000
0000
0010
0000
0001
0000
1000
0000
0100
0000
0001
,
0000
0100
0000
0010
0000
1000
0000
0001
0010
0000
0100
0000
0100
0000
0000
0000
,
1000
0000
0000
1000
0100
0000
0000
0100
0010
0000
0010
0000
0002
0000
0000
0000
,
1003
0000
0000
0000
0000
0000
0000
0000
0000
0001
0000
0000
0100
0000
0000
0000
0000
0000
0000
0000
0000
0100
0000
0000
0001
0000
0000
0000
0010
0000
0000
0000
0001
0000
0000
0000
1000
0000
0000
0000
0100
0000
0000
0000
1000
0000
0000
0000
,
0010
0000
0000
0100
0001
0000
1000
0000
0010
0000
0000
1000
0100
0000
0000
0000
,
1000
0000
0000
0100
0000
0000
0001
0000
0000
0010
0000
0000
1000
0000
0001
0000
,
0100
0000
0000
0100
0001
0000
0000
0001
0010
0000
0000
0000
0100
0000
0000
0010
,
0001
0000
0000
0001
0100
0000
0000
0100
0010
0000
1000
0000
0100
0000
1000
0000
,
0002
0010
1000
0203
,
0302
0000
0000
0000
0020
0000
0000
0000
0000
0000
0000
0000
0033
0000
0000
0010
,
0001
0000
0000
0001
1000
0000
0000
1000
0100
0000
0000
0000
0010
0000
0000
0100
,
1000
0000
0000
1000
0010
0000
0000
0010
0100
0000
0001
0000
1000
0000
0001
0000
,
0010
0000
0000
0100
0000
0100
0000
0000
0010
0000
0000
0001
0000
0001
0000
0000
,
1000
0100
1000
0100
0010
0100
1000
0001
,
0201
0000
0000
0000
1300
0100
0001
0100
,
0010
0000
0010
0000
0010
0000
0000
0000
0200
0000
0000
0000
0300
0000
0001
1000
,
0002
0000
0000
0000
1003
0100
1000
0010
,
0110
0000
0000
0000
0110
0000
0000
0000
1000
0000
0001
1000
0000
1000
0001
0000
,
0010
0000
1010
0000
0010
0001
0100
0010
,
0100
0001
0100
0000
0020
0000
0000
0000
1030
0000
0200
0000
0000
0000
1300
0001
,
0010
0000
0000
0000
0001
0000
0000
0100
0000
0000
1000
0000
0100
0000
0000
0000
,
0002
0000
0000
0003
,
1001
0000
0000
0000
0000
0000
1000
0100
,
0020
0001
0001
0000
0001
0001
0031
0100
,
0020
2030
3002
0203
,
0302
1000
1003
1000
0002
1000
1003
0000
,
0020
0000
0000
0000
0000
0000
0130
0001
,
2000
0100
3100
2000
0100
3100
1000
0001
,
0100
0000
0010
0000
1000
0000
0001
0010
,
0100
0000
1000
0000
0010
0000
0100
0000
0001
0000
1000
0000
0001
0010
0100
1000
,
0001
0000
0000
0000
,
0000
0000
0000
0000
0000
0000
0000
0000
0000
0000
0001
0000
1000
0010
0100
0001
,
1000
0010
0100
0100
0001
0010
0010
0100
,
1000
0000
0001
0000
0100
0000
0001
0000
1000
0000
0100
0010
0001
0000
0010
0000
,
0000
0001
0100
0100
0010
1000
1000
0100
,
1000
0010
0100
1000
0100
0001
1000
0100
,
0020
0000
0000
0000
0000
0000
0031
1000
0020
0000
0000
0000
0000
0000
1030
0001
,
0010
0100
0010
0002
0000
0103
0001
2000
,
0000
3100
1000
0010
0100
0001
0010
0100
,
1000
0000
0000
0001
1000
0000
0000
0010
0100
0000
0001
0000
1000
0100
1000
0100
,
0020
0000
0000
0000
0000
0000
0000
0000
0000
0000
0000
0000
0000
0000
0031
0010
,
0100
0000
0000
0010
0000
0000
0001
0000
0000
1000
0000
0000
0100
0000
1000
0000
,
0010
0000
0100
0000
0001
1000
0001
0000
0100
0000
0001
1000
0001
0000
0100
0000
,
0001
0010
0001
1000
0100
1000
0010
0100
,
0020
0000
0000
0000
0000
0000
1030
0001
0020
0000
0000
0000
0000
0000
0031
1000
,
0010
0100
0010
1000
0000
0100
0001
0200
,
0000
1300
0010
0001
0010
0100
0001
0010
,
2000
0000
3000
1000
0010
0001
0100
1000
,
0200
0000
0000
0000
0000
0000
0000
0000
0301
1000
0001
1000
0010
0000
0000
0000
,
1000
0100
1000
0010
0200
0000
0302
0000
,
0013
0000
0000
0000
0100
0000
0000
0000
0010
0000
0000
0000
0100
0000
0000
0000
1000
0000
0000
0000
0100
0000
0000
0000
1000
0000
0000
0000
0000
0000
0000
0000
0000
0001
0000
0000
0000
0000
0000
0000
0000
0000
1000
0000
0000
0000
0000
0000
,
0100
0000
1000
0010
0200
0000
0320
0000
,
1030
0100
0000
0000
0010
0001
0000
0000
0001
0100
0000
0000
0010
1000
0000
0000
,
0002
0000
0000
0000
1003
0100
0000
1000
0100
0000
1000
0000
0010
0000
0000
0000
,
0100
0010
0001
0010
1000
0100
0010
0001
,
2000
0000
0000
0000
3100
0000
1000
0001
1000
0000
0000
0000
0010
0100
0001
1000
,
0020
0000
0000
0030
,
0120
0000
0000
0000
0000
0000
1030
0000
0100
0000
0010
0000
0001
0000
0000
1000
0000
0000
0001
0000
0000
0100
0000
0000
,
0010
1000
0001
0010
1000
0010
0001
1000
,
0200
0310
0200
0310
0001
0001
0201
0000
,
0310
0000
0000
1000
0001
0000
0000
0001
1000
0000
0001
0000
0210
0000
0000
0000
,
0301
0000
0000
0000
0000
0000
0000
0000
0000
0001
0000
0000
1000
0000
0000
0000
0000
0000
0000
0000
0000
1000
0000
0000
0001
0000
0000
0000
0010
0000
0000
0000
0001
0000
0000
0000
0010
0000
0000
0000
0100
0000
0000
0000
0010
0000
0000
0000
,
0100
0000
0000
1000
0001
0000
0001
0000
1000
0000
0000
0001
0200
0000
0000
0000
,
0310
0000
0000
1000
0000
0000
0100
0000
0000
0001
0000
0000
0010
0000
2000
0000
,
0002
0000
0000
0000
,
0000
0000
0000
0000
0000
0000
0000
0000
0000
0000
0000
0000
0000
0000
0000
3003
;

//---------------dance-single - S-CHALLENGE----------------
#NOTES:
     dance-single:
     CSP-DJ OMiY:
     Challenge:
     10:
     0.598938,0.703586,0.223912,0.293402,0.606107,543.000000,514.000000,29.000000,38.000000,0.000000,0.000000,0.598938,0.703586,0.223912,0.293402,0.606107,543.000000,514.000000,29.000000,38.000000,0.000000,0.000000:
0000
0000
0000
0000
,
0000
0000
0000
0000
,
0000
0000
0000
0000
,
2000
0000
3002
0000
,
0203
1000
0010
0001
,
0010
1000
0010
0001
,
0310
1000
0010
0100
0001
0010
1000
0010
,
0200
0000
0300
0101
,
0100
1000
0000
0001
0000
1000
0100
0010
0000
0100
0000
1000
0000
0010
0100
0010
,
0000
1000
0000
0001
0000
0010
0000
1000
0000
0010
0000
0001
0000
0100
0010
1000
,
0000
0010
0000
0100
0000
0001
1000
0001
0000
0010
0000
0100
0000
0010
0100
1000
,
0000
0001
0000
0100
0000
0010
0000
1000
0200
0000
0310
0000
0110
0000
0000
0000
,
0001
0000
0000
0001
1000
0000
0000
1000
0100
0000
0110
0000
1100
0000
0000
0000
,
0001
0000
0000
0000
0000
0000
0000
0000
0000
0001
0000
0000
0100
0000
0000
0000
0000
0000
0000
0000
0000
0100
0000
0000
0010
0000
0000
0000
1000
0000
0000
0000
0010
0000
0000
0000
0100
0000
0000
0000
0001
0000
0000
0000
0100
0000
0000
0000
,
0010
0000
0000
1000
0100
0000
0100
0000
0010
0000
0000
0001
0010
0000
0000
0000
,
0101
0000
0000
1001
0000
0000
0001
0000
1000
0100
0000
0100
0010
0000
0001
0000
,
0100
0000
0000
0100
0001
0000
0000
0100
1000
0000
0000
0000
0100
0000
0000
0001
,
1000
0000
0000
0100
0010
0000
0000
0001
1000
0000
0100
0000
1000
0001
1000
0000
,
0010
0110
1000
1002
,
0203
0000
0000
0000
2000
0000
0000
0000
0000
0000
0000
0000
3300
0000
0000
0100
,
0001
0000
0000
0001
0010
0000
0000
0010
1000
0000
0000
0000
0010
0000
0000
0001
,
1000
0000
0000
0100
0010
0000
0000
0001
1000
0000
0010
0000
1000
0100
1000
0000
,
0001
0000
0000
0100
0000
0001
0000
0100
0010
0000
0000
1000
0000
0001
0000
1000
,
0100
0010
0100
0010
0001
0110
1001
0000
,
0201
0000
0000
0000
1300
0100
0001
0010
,
0100
1000
0001
0100
0001
0000
0000
0000
0020
0000
0000
0000
0000
0000
0130
0010
,
0002
0000
0000
0000
0000
0000
0000
0000
1003
0000
0001
0100
0001
0100
0010
0000
,
0100
0000
0001
0000
0100
0000
0010
0000
1000
0000
0001
0100
0000
0001
1000
0000
,
0200
0000
0000
0300
0210
0000
0000
0000
1300
0000
0001
0000
1000
0000
0010
0000
,
0100
0001
0100
0000
0001
0010
0001
0000
1000
0000
0000
0010
0000
0100
0010
1000
,
0100
0000
0000
0000
0010
0000
0000
0001
0000
0000
0100
0000
0010
0000
0000
0000
,
2002
0000
0000
0003
,
3010
0000
0000
0000
0000
0000
0100
0001
,
1000
0000
0001
0000
0100
0010
0100
0000
0001
1000
0001
1000
0100
0000
1000
0000
,
0010
0100
0001
0010
,
0100
0000
1000
0001
1000
0100
1000
0000
0001
0010
0001
0010
0100
0000
0000
0000
,
2000
0000
0000
3000
0000
0000
0001
0100
,
0001
0000
0010
0000
0100
0010
0001
0000
1000
0100
1000
0100
1000
0000
0001
0000
,
0100
0010
0100
1000
,
0100
0001
0100
0001
1000
0010
1000
0010
0100
0001
0100
0001
1000
0001
1000
0002
,
2000
0000
0000
0000
,
3003
0000
0000
0000
0000
0000
0000
0000
0000
0000
0001
0000
1000
0100
0010
0001
,
1000
0000
0010
0000
0100
0010
0100
0000
0001
0000
0010
0001
1000
0000
0100
0000
,
0010
0100
1000
0001
0100
0001
1000
0010
,
0000
0000
0100
0000
0001
1000
0010
0000
0100
0000
0010
1000
0001
0000
1000
0000
,
0100
0010
0001
1000
0010
0100
0001
0010
,
0200
0000
0000
0000
0000
0000
1300
0001
0200
0000
0000
0000
0000
0000
0301
1000
,
0100
0010
0100
2000
0000
3001
0100
0020
,
0000
0000
1030
0100
1000
0000
0100
0010
0100
0000
0010
0001
0010
0000
0001
1000
,
0001
0000
0000
0010
0100
0000
0000
0010
0100
0000
0000
1000
0001
0000
1000
0000
,
1001
0000
0000
0000
,
0110
0000
0000
0101
0000
0000
0110
0000
0000
1010
0000
0000
0100
0000
0001
0000
,
1000
0000
0100
0000
1000
0010
1000
0000
0001
0000
0010
0001
0010
0000
0100
0000
,
1000
0010
0100
0001
1000
0100
1000
0001
,
0011
0000
0010
0100
1100
0000
1000
0010
,
0101
0010
1000
0100
0000
1000
0001
0020
,
0000
0000
0031
0100
0001
0000
0100
0010
0100
0000
0010
1000
0010
0000
1000
0100
,
1000
0000
0000
0000
0000
0000
0000
0000
0001
0010
0100
0010
0001
1000
0100
0010
,
0002
0000
0203
0320
,
1030
0010
0100
0001
1000
0100
0020
0000
0000
0032
0000
0000
,
0103
0000
0000
0000
0010
0000
0000
0000
0100
0000
0000
0000
0001
0000
0000
0000
0010
0000
0000
0000
0100
0000
0000
0000
1000
0000
0000
0000
0000
0000
0000
0000
0000
0100
0000
0000
0000
0000
0000
0000
0000
0000
0110
0000
0000
0000
0000
0000
,
0000
0000
0001
0000
0010
0001
1000
0001
0200
0000
0000
0000
0310
0000
0000
0000
,
0200
0301
0100
1000
0100
0001
0100
1000
,
0200
0000
0000
0000
0301
0010
0000
0100
0000
0000
1000
0000
1000
0000
0001
0000
,
0100
0001
0010
0100
1000
0010
0100
0001
,
1000
0000
0000
0000
0000
0000
0000
0000
0000
0100
0000
0000
1000
0000
0000
0001
0000
0000
0100
0000
0000
0010
0000
0000
0100
0000
0000
0001
0000
0000
1000
0000
0100
0000
0010
0000
0001
0000
0000
1000
0000
0000
0100
0000
0000
1000
0000
0000
,
0200
0000
0000
0000
,
2300
0000
0000
0000
0000
0000
0000
0000
0000
0000
0000
0000
3001
0000
0000
0000
0010
0000
0000
0000
0100
0000
0000
0000
1000
0000
0000
0000
0000
0000
0001
0000
0000
0000
0000
0000
0100
0000
0000
0001
0000
0000
0000
0000
0000
0001
0000
0000
,
0010
0100
0010
0001
1000
0010
0100
0001
,
0110
1000
0110
0001
1001
0110
1002
0000
,
0103
0000
0000
0001
0010
0000
0000
0100
1000
0000
0010
0000
0201
0000
0000
0000
,
0310
0000
0000
0000
0000
0000
0000
0000
0000
1000
0000
0000
0100
0000
0000
0000
0000
0000
0000
0000
0000
0010
0000
0000
0100
0000
0000
0000
1000
0000
0000
0000
0100
0000
0000
0000
0010
0000
0000
0000
0100
0000
0000
0000
0010
0000
0000
0000
,
0001
0000
0000
1000
0001
0000
0001
0000
0100
0000
0000
0010
2000
0000
0000
0000
,
3010
0000
0100
0001
0000
0100
0010
0000
1000
0100
0000
0010
0001
0000
1000
0000
,
0220
0000
0000
0000
,
0000
0000
0000
0000
0000
0000
0000
0000
0000
0000
0000
0000
0000
0000
0000
0330
;

//---------------dance-single - S-STANDARD----------------
#NOTES:
     dance-single:
     SSP-DJ OMiY:
     Medium:
     6:
     0.358480,0.469058,0.154422,0.548199,0.054048,325.000000,305.000000,20.000000,71.000000,0.000000,0.000000,0.358480,0.469058,0.154422,0.548199,0.054048,325.000000,305.000000,20.000000,71.000000,0.000000,0.000000:
0000
0000
0000
0000
,
0000
0000
0000
0000
,
0000
0000
0000
0000
,
0000
0000
0000
0000
,
1000
0010
0001
0100
,
1000
0010
0001
0100
,
1000
0100
0010
0000
0001
0010
0100
0000
,
1020
0000
0000
0001
,
1030
0000
0000
0001
0100
0000
0000
0000
0010
0000
0000
1000
0100
0000
0000
0000
,
0010
0000
0000
0001
0100
0000
0000
0000
0010
0000
0000
1000
0100
0000
0000
0000
,
1000
0000
0000
0010
0001
0000
0000
0000
0001
0000
0000
0010
1000
0000
0000
0000
,
1000
0000
0000
0100
0001
0000
0000
0000
0100
0000
0010
0000
0100
0000
0000
0000
,
1000
0000
0001
0000
1000
0001
0100
0000
,
0010
1000
0002
0023
,
0130
0000
0010
0001
1000
0000
0020
0000
,
0200
0000
0330
1001
,
0002
0000
0203
0000
0320
0000
1030
0001
,
0200
0000
0302
0000
0013
0100
1000
0100
,
0010
0001
2000
3002
,
0200
0000
0000
0303
,
2000
0000
3200
0000
0320
0000
0130
1000
,
0002
0000
0203
0000
0310
1000
0010
0100
,
0001
0000
0000
0001
0000
0000
0000
0000
0010
0000
0000
0010
0000
0000
0000
0000
,
0001
1000
0100
0000
1000
0000
0110
0000
,
0102
0000
2003
0000
,
3010
0100
0001
0100
0020
0000
0000
0000
,
2030
0000
3100
0100
,
0010
0001
1000
0000
0010
0000
1001
0000
,
0100
0000
1001
0000
0010
0100
1000
0000
,
0002
0000
0023
0000
0032
0000
0103
0010
,
1000
0000
0000
0000
0001
0000
0000
1000
0000
0000
0100
0000
0020
0000
0000
0000
,
0002
0000
0000
0033
,
2000
0000
0000
0000
0000
0000
3010
0100
,
0002
0000
0000
0000
0000
0000
0013
0100
,
2000
3020
0230
0302
,
0023
0000
0000
0030
,
0200
0000
0000
0000
0000
0000
1300
0010
,
2000
0000
0000
0000
0000
0000
3100
1000
,
0020
2030
3200
0320
,
0032
0000
0000
0000
,
2000
0000
0000
0000
,
3003
0000
0000
0000
0000
0010
1000
0001
,
0010
0100
0100
0000
0010
0001
0001
0000
,
2000
0000
3020
0000
0230
0000
0301
0010
,
0000
0100
1000
0000
0010
0100
0001
0000
,
2000
0000
3200
0000
1300
0001
0100
0001
,
0020
0000
0000
0130
0200
0000
0000
1300
,
2000
0000
3001
0000
0002
0000
0103
0010
,
0000
0110
0000
1001
0000
0110
0000
1001
,
0000
0110
0000
1001
0000
0001
0001
1000
,
0200
0000
0000
0000
0000
0000
0000
1300
,
0010
0000
0000
0100
0000
0000
0010
0000
0000
1000
0000
0000
0100
0000
0010
0000
,
0001
1000
0001
0000
0010
0100
1000
0000
,
0010
0100
0010
0000
0100
0001
1000
0001
,
0020
0000
0000
0130
2000
0000
0000
3010
,
0100
0000
0001
0010
0000
0100
1000
0002
,
0000
1003
0000
0110
0000
1001
0000
0110
,
0000
0000
0000
0000
1000
0100
0001
0100
,
2000
0000
0000
0000
3010
1000
0002
0000
,
0013
0011
0100
1100
,
1000
0010
0100
0010
1000
0000
0001
0000
,
0010
0000
0001
0100
0020
0000
0230
0000
,
0301
0010
0001
0010
0100
1000
0100
1000
,
0020
2030
3002
0013
,
0001
1000
0100
0000
0010
0001
1000
0000
,
0020
0000
0130
0010
0100
0000
0001
0010
,
2000
0000
3000
0000
,
0010
0000
0000
0001
0010
0001
0010
0000
0000
0001
0000
0000
,
1000
0001
0100
0001
,
1010
0000
1010
0000
0100
0010
0101
0000
,
1000
0000
0010
0000
0100
0001
0020
0000
,
0130
0010
0002
2003
,
3010
0000
0100
0100
0001
0000
0020
0000
,
0200
0000
0000
0000
0330
0000
1000
0002
,
2000
0000
0000
0000
,
0000
0000
0000
0000
0000
0000
0000
0000
0000
0000
0000
0000
0000
0000
0000
3003
;

//---------------dance-single - S-LIGHT----------------
#NOTES:
     dance-single:
     DJ OMiY-LSP:
     Easy:
     5:
     0.286784,0.351793,0.123538,0.470988,0.000000,260.000000,244.000000,16.000000,61.000000,0.000000,0.000000,0.286784,0.351793,0.123538,0.470988,0.000000,260.000000,244.000000,16.000000,61.000000,0.000000,0.000000:
0000
0000
0000
0000
,
0000
0000
0000
0000
,
0000
0000
0000
0000
,
0000
0000
0000
0000
,
1000
0100
0001
0100
,
1000
0100
0001
0100
,
1000
0010
0001
0100
,
2000
0000
0000
3001
,
1001
0010
0001
0100
,
1000
0100
0001
1000
,
0100
0010
0100
1000
,
0001
0000
0100
0000
0010
0010
0010
0000
,
1000
0000
0001
0000
1000
0001
0200
0000
,
0310
1000
0002
0023
,
0130
0000
0010
0010
0001
0000
2000
0000
,
3100
1000
0001
0100
,
0002
0023
0230
0300
,
2000
3200
1300
0011
,
0200
0000
0000
0000
,
2000
0000
0000
3300
,
2000
3002
0203
0300
,
0020
0230
0301
1100
,
0002
0103
0002
0103
,
0002
0000
0023
0000
0130
1000
0100
0000
,
2002
0003
0200
3300
,
1000
0010
0001
0000
0020
0000
0030
0000
,
2002
3000
0200
0303
,
0001
0010
1000
0000
0020
0000
0030
0000
,
1001
0210
0002
0303
,
1000
0001
1000
0000
0100
0010
0001
0000
,
1000
0010
1000
0100
,
0010
0000
0000
0000
,
0001
0000
0000
0000
0000
0000
1000
0100
,
1000
0000
0000
0000
0000
0000
0001
0100
,
0001
0010
0100
1000
,
0010
0000
0000
0000
,
0100
0000
0000
0000
0000
0000
0010
1000
,
0010
0000
0000
0000
0000
0000
0100
0001
,
0100
0010
1000
0100
,
0020
0000
0000
0030
,
1001
0000
0000
0000
,
0000
0000
0000
0110
,
1000
0100
0001
0000
1000
0100
0001
0000
,
1000
0010
0200
0300
,
0001
0010
1000
0000
0001
0010
1000
0000
,
0001
0100
0020
0030
,
2000
3100
0002
0103
,
1000
0010
0001
0100
,
0000
1000
0000
0001
0000
1000
0000
0001
,
0000
0010
0000
0200
0000
0000
0300
0000
,
2002
0000
0000
3003
,
0220
0000
0330
1001
,
0020
1030
0200
0310
,
0001
1000
0100
1000
,
0002
0000
0203
0000
,
0310
1000
0001
0010
,
0000
0001
0000
0010
0000
0100
0000
1000
,
0000
0000
0010
0010
,
2001
0000
3100
1000
,
0010
0100
0002
0013
,
0100
0010
0001
1000
,
0100
1000
0020
0130
,
0002
2003
3002
0203
,
0320
1000
1030
0001
,
1000
0100
0010
0001
,
1000
0000
0001
0000
0100
0001
0100
0010
,
2000
0000
0000
0000
,
3002
0103
0010
0100
,
0001
1000
0100
0001
,
0100
0000
1000
0000
0001
0001
0100
0000
,
0010
0000
1000
0000
0001
1000
0002
0000
,
1003
0001
2000
3200
,
1300
0101
1000
1100
,
0002
1000
0010
1003
,
0220
0000
0000
0000
,
0000
0000
0000
0000
0000
0000
0000
0000
0000
0000
0000
0000
0000
0000
0000
0330
;

//---------------dance-single - BEGINNER----------------
#NOTES:
     dance-single:
     DJ OMiY-BEG:
     Beginner:
     2:
     0.165452,0.234529,0.092653,0.193028,0.000000,150.000000,138.000000,12.000000,25.000000,0.000000,0.000000,0.165452,0.234529,0.092653,0.193028,0.000000,150.000000,138.000000,12.000000,25.000000,0.000000,0.000000:
// measure 0
0000
0000
0000
0000
,  // measure 1
0000
0000
0000
0000
,  // measure 2
0000
0000
0000
0000
,  // measure 3
0000
0000
0000
0000
,  // measure 4
0000
0000
0000
0000
,  // measure 5
0000
0000
0000
0000
,  // measure 6
0000
0000
0000
0000
,  // measure 7
0020
0000
0000
0030
,  // measure 8
1001
0000
1000
0000
,  // measure 9
1000
0000
0100
0000
,  // measure 10
0010
0000
0010
0000
,  // measure 11
0001
0000
1000
0000
,  // measure 12
0001
0001
0001
0000
,  // measure 13
0100
0100
0100
0000
,  // measure 14
0010
0000
1000
0000
,  // measure 15
0100
0100
0100
0000
,  // measure 16
1000
0000
0010
0000
,  // measure 17
0100
0000
0010
0010
,  // measure 18
0010
0000
0000
0000
,  // measure 19
2000
0000
3000
0000
,  // measure 20
0001
0000
0010
0000
,  // measure 21
0001
0000
0100
0100
,  // measure 22
0100
0000
0100
0000
,  // measure 23
0000
0000
0001
0001
,  // measure 24
0002
0000
0003
0000
,  // measure 25
1000
0000
0100
0000
,  // measure 26
0020
0000
0030
0000
,  // measure 27
0100
0000
1000
0000
,  // measure 28
0010
0020
0030
0000
,  // measure 29
0100
0000
0001
0000
,  // measure 30
1000
0000
0100
0000
,  // measure 31
2000
0000
3000
0000
,  // measure 32
1001
0000
0000
0010
,  // measure 33
0010
0000
0000
0001
,  // measure 34
0001
0000
1000
0000
,  // measure 35
0200
0000
0300
0000
,  // measure 36
1001
0000
0000
0100
,  // measure 37
0100
0000
0000
0000
,  // measure 38
0001
0000
1000
0000
,  // measure 39
0020
0000
0000
0030
,  // measure 40
0110
0000
0000
0000
,  // measure 41
0000
0000
0000
1000
,  // measure 42
1000
1000
0000
0001
,  // measure 43
0001
0000
0100
0100
,  // measure 44
0000
0010
0000
0100
,  // measure 45
0100
0000
0001
0001
,  // measure 46
0002
0003
2000
3000
,  // measure 47
0100
0100
0000
0010
,  // measure 48
0000
1001
0000
1001
,  // measure 49
0000
1001
0000
0100
,  // measure 50
0200
0000
0300
0000
,  // measure 51
0020
0000
0030
0000
,  // measure 52
1000
1000
0000
0001
,  // measure 53
0001
0000
0100
0100
,  // measure 54
0100
0000
0010
0000
,  // measure 55
1000
1000
0000
0100
,  // measure 56
0200
0000
0000
0300
,  // measure 57
0110
0000
0001
0001
,  // measure 58
0001
0000
1000
0000
,  // measure 59
0100
0100
0100
0000
,  // measure 60
0010
0010
0010
0000
,  // measure 61
0001
0000
1000
0000
,  // measure 62
0020
0030
0200
0300
,  // measure 63
0220
0000
0330
0000
,  // measure 64
2000
3000
0002
0003
,  // measure 65
2002
0000
3003
0000
,  // measure 66
0220
0000
0330
0000
,  // measure 67
1000
1000
1000
0000
,  // measure 68
0001
0000
0100
0000
,  // measure 69
0001
0001
0001
0000
,  // measure 70
0010
0000
0100
0100
,  // measure 71
0100
0000
1000
1000
,  // measure 72
1000
0000
0010
0000
,  // measure 73
0100
0100
0100
0000
,  // measure 74
2002
0000
0000
0000
,  // measure 75
0000
0000
0000
0000
0000
0000
0000
0000
0000
0000
0000
0000
0000
0000
0000
3003
;
