#TITLE:ANDROMEDA;
#SUBTITLE:;
#ARTIST:Sota Fujimori;
#TITLETRANSLIT:;
#SUBTITLETRANSLIT:;
#ARTISTTRANSLIT:;
#GENRE:Psychedelic Goa Trance;
#CREDIT:;
#BANNER:ANDROMEDA-bn.png;
#BACKGROUND:ANDROMEDA-bg.png;
#LYRICSPATH:;
#CDTITLE:;
#MUSIC:ANDROMEDA.ogg;
#OFFSET:-0.400000;
#SAMPLESTART:77.193039;
#SAMPLELENGTH:12.799995;
#SELECTABLE:YES;
#BPMS:0.000000=150.000000
;
#STOPS:
;
#BGCHANGES:;
#KEYSOUNDS:;
#ATTACKS:;

//---------------dance-single - S-HEAVY----------------
#NOTES:
     dance-single:
     DJ OMiY-HSP:
     Hard:
     7:
     0.441288,0.506152,0.029774,0.253076,0.048382,415.000000,411.000000,4.000000,34.000000,0.000000,0.000000,0.441288,0.506152,0.029774,0.253076,0.048382,415.000000,411.000000,4.000000,34.000000,0.000000,0.000000:
0000
0000
0000
0000
,
0000
0000
0000
0000
,
0000
0000
0000
0000
,
0000
0000
0000
0000
,
1000
0001
0000
0000
0100
0000
0000
0000
0001
0000
0000
0000
0010
0000
0000
0000
,
0001
0100
0000
0000
0010
0000
0000
0000
1000
0000
0000
0000
0001
0000
0000
0000
,
0010
0100
0000
0000
1000
0000
0000
0000
0010
0000
0000
0000
0100
0000
0000
0000
,
0002
0000
0000
0000
1003
0100
1000
0100
,
0001
0100
1000
0000
0010
0100
0001
0000
,
1000
0001
0010
0000
0100
1000
0001
0000
,
0010
0001
0100
0000
0010
1000
0100
0000
,
0010
0100
1000
0000
0001
0010
0200
0000
,
0310
0001
0100
0000
0010
0100
1000
0000
,
0100
0001
0010
0000
0100
1000
0001
0000
,
0010
0001
0100
0000
0010
1000
0001
0000
,
2002
0000
3003
0000
0010
0001
0100
1000
,
0100
0001
0010
0100
1000
0010
0100
0001
,
1000
0100
0010
0100
1000
0001
0100
0000
,
1000
0100
0001
0010
0100
1000
0010
0100
,
0001
0010
1000
0010
0001
0010
0100
0000
,
1000
0100
0010
0001
1000
0100
1000
0001
,
0100
1000
0100
0001
0010
0100
1000
0000
,
0001
0010
0001
0100
1000
0100
0001
0010
,
0100
1000
0000
0000
0010
0100
0000
0000
0001
0010
0000
0000
0100
0000
0000
0100
,
1000
0001
0010
0001
0100
0010
1000
0010
,
0001
0010
1000
0100
0010
0001
1000
0000
,
0010
1000
0001
0010
0100
0010
0001
1000
,
0001
0010
0100
0010
0100
1000
0001
0000
,
0100
0010
1000
0010
0100
0001
0010
1000
,
0010
0001
1000
0001
0100
1000
0100
0000
,
0001
0010
0001
1000
0100
1000
0010
0100
,
0020
0000
0000
0000
0000
0000
0000
0000
1030
0000
0000
0001
0000
0000
0100
0000
,
0010
0010
1000
1000
,
0100
0100
0001
0001
,
0100
0000
0000
0100
0000
0000
0000
0000
1000
0000
0000
1000
0000
0000
0000
0000
,
0001
0000
0000
0001
0000
0000
0000
0000
0100
0000
0000
0000
0010
0000
0100
0000
,
0010
0010
1000
1000
,
0001
0001
0010
0010
,
0100
1000
0100
0000
1000
0001
1000
0000
,
0020
0000
0000
0000
0130
1000
0100
0001
,
0100
0000
0110
0000
0001
1000
0001
0000
,
1000
0000
0100
0000
0010
0001
0001
0000
,
2000
0000
0010
0000
3010
1000
0010
0100
,
0001
0000
1000
0000
0100
1000
0010
1000
,
0200
0000
0310
0000
0020
0000
0031
2000
,
0001
0000
3100
0000
1000
0000
0010
0100
,
0001
0010
0001
1000
,
0200
0010
0310
0110
,
1001
0000
0010
0000
0001
0100
0010
1000
,
0001
0010
0001
1000
,
0200
0000
0010
0000
0310
0100
1000
0100
,
0020
0000
0001
0000
0031
0000
1000
0001
,
2000
0000
3010
0000
0020
0000
0130
0002
,
1000
0000
1003
0000
0001
0000
0010
0100
,
1000
0100
1000
0001
,
0100
0000
0010
0000
1000
0100
0010
0001
,
2000
0100
0000
0100
,
0000
0100
0000
0100
,
3002
0100
0000
0100
,
0000
0100
0000
0103
,
0001
0010
0000
0010
,
1000
0010
0000
0010
,
0001
0100
1000
0100
,
0002
0000
0000
0000
0000
0000
0000
0000
0003
0000
0000
0000
1000
0001
0000
0000
,
2000
0000
3010
0000
0100
0001
0010
0100
,
1000
0010
0200
0302
,
2003
0000
0010
0000
3001
1000
0100
0020
,
0001
0000
0100
0000
0031
0000
1000
0001
,
0200
0000
0310
0000
0020
0000
1030
0002
,
0010
0000
0013
0000
0001
1000
0100
1000
,
0010
0100
0001
1000
,
0100
0000
0000
0000
0010
0000
0000
0000
0100
0000
0000
0000
1000
0000
0000
0001
,
0020
0000
0031
0000
0100
0010
1000
0100
,
0010
0001
2000
3002
,
0023
0000
0100
0000
0130
0010
0001
1000
,
0100
0000
1000
0000
0010
0000
0100
0001
,
0020
0000
0130
0000
0200
0000
1300
0002
,
0100
0000
0103
0000
0001
0010
0100
1000
,
0001
1000
0010
0100
,
0001
0010
1000
0010
0001
1000
0100
0010
,
0001
0000
0000
0000
;

//---------------dance-single - S-STANDARD----------------
#NOTES:
     dance-single:
     DJ OMiY-SSP:
     Medium:
     5:
     0.309433,0.357284,0.037217,0.126538,0.003722,291.000000,286.000000,5.000000,17.000000,0.000000,0.000000,0.309433,0.357284,0.037217,0.126538,0.003722,291.000000,286.000000,5.000000,17.000000,0.000000,0.000000:
0000
0000
0000
0000
,
0000
0000
0000
0000
,
0000
0000
0000
0000
,
0000
0000
0000
0000
,
1000
1000
0100
0100
,
0001
0001
0010
0010
,
1000
1000
0100
0100
,
0020
0000
0001
0130
,
1000
0001
0100
0001
,
1000
0001
0010
0001
,
0001
1000
0100
1000
,
0001
1000
0010
1000
,
1000
0001
0010
0001
,
0100
0001
0010
0001
,
0001
1000
0010
1000
,
0200
0000
0300
0000
0010
0001
0010
0100
,
1000
0100
0010
0001
,
0100
1000
0100
0001
,
0010
0100
1000
0001
,
0010
0000
0100
0000
0010
0000
0001
1000
,
0001
0100
1000
0100
,
0010
0100
0001
0010
,
0100
1000
0001
0100
,
0010
1000
0010
0000
0100
0001
0100
0000
,
0010
1000
0001
0000
0100
0000
0001
0000
,
1000
0100
0010
0100
,
1000
0100
0010
0000
0001
0000
1000
0000
,
0001
0000
0100
0000
0010
1000
0100
0010
,
0001
1000
0001
0010
,
1000
0010
0001
1000
,
0010
0100
0001
0000
1000
0000
0100
0000
,
0020
0000
0000
0000
0031
0000
0000
0001
,
0100
0000
0010
0000
,
1000
0000
0001
0000
,
0010
0010
0001
0001
,
0100
0100
1000
1000
,
0010
0010
0001
0001
,
1000
1000
0100
0100
,
0001
0001
1000
1000
,
0020
0000
0000
0000
0031
1000
0100
0010
,
0001
0000
0100
0000
0010
0000
0100
0002
,
0000
0003
0010
0001
,
0100
0000
0010
0000
0000
0000
0010
1000
,
0000
0000
1000
0000
0000
0000
0100
1000
,
0001
0000
0000
0000
0100
0000
0010
1000
,
0001
0000
0000
0000
0010
0000
0001
0010
,
0100
1000
0001
0100
,
0010
0000
0100
0000
,
0001
0000
0000
0000
1000
0000
0010
0200
,
0000
0300
0010
1000
,
0001
0000
0100
0000
0000
0000
0100
0001
,
0000
1000
0001
0010
,
0100
0000
0000
0000
1000
0000
0001
0100
,
0001
0000
0000
0000
0010
0000
1000
0010
,
0001
0100
0000
0100
,
0001
0000
0000
0000
1000
0001
0010
0100
,
1000
0100
0000
0110
,
0000
0100
0000
1001
,
0000
0001
0000
0110
,
0000
1000
0000
1001
,
0001
0001
0010
0010
,
1000
1000
0100
0100
,
0001
0001
1000
1000
,
1001
0000
0000
0000
0000
0000
0000
0000
0000
0000
0000
0000
0010
1000
0000
0000
,
0001
0000
0000
0000
0010
0001
0100
1000
,
0000
0000
0100
0001
,
1000
0000
0100
0000
0000
0000
0100
0010
,
0000
0000
0001
0000
1000
0000
1000
0100
,
0020
0000
0000
0000
0032
0000
0000
0203
,
0000
0000
0000
0000
0320
0000
1030
0200
,
0000
0010
0000
0310
,
0001
0000
1000
0001
,
0100
0000
0000
0000
0010
1000
0001
0010
,
0000
0000
0100
1000
,
0001
0000
0100
0000
0000
0000
0100
0002
,
0000
0000
1003
0000
0000
0000
1000
0100
,
2000
0000
0000
0000
3020
0000
0000
0230
,
0000
0000
0000
0000
0302
0000
0013
0200
,
0000
1000
0000
1300
,
0001
0010
0001
0010
0100
1000
0100
1000
,
0010
0000
0000
0000
;

//---------------dance-single - S-LIGHT----------------
#NOTES:
     dance-single:
     DJ OMiY-LSP:
     Easy:
     4:
     0.239253,0.327510,0.029774,0.171198,0.000000,225.000000,221.000000,4.000000,23.000000,0.000000,0.000000,0.239253,0.327510,0.029774,0.171198,0.000000,225.000000,221.000000,4.000000,23.000000,0.000000,0.000000:
// measure 0
0000
0000
0000
0000
,  // measure 1
0000
0000
0000
0000
,  // measure 2
0000
0000
0000
0000
,  // measure 3
0000
0000
0000
0000
,  // measure 4
1000
0000
0001
0000
,  // measure 5
0010
0000
0001
0000
,  // measure 6
0100
0000
0010
0000
,  // measure 7
1000
0000
0100
0000
,  // measure 8
2001
3000
0020
0030
,  // measure 9
0200
0300
0002
0003
,  // measure 10
2000
3000
0200
0300
,  // measure 11
2000
3000
0002
0003
,  // measure 12
0020
0031
2000
3001
,  // measure 13
0020
0031
0200
0301
,  // measure 14
0020
0031
0200
0301
,  // measure 15
1000
0000
0020
0230
,  // measure 16
0301
0010
0000
0001
,  // measure 17
0000
1000
0000
0010
,  // measure 18
1000
0100
0000
0010
,  // measure 19
0000
0001
1000
1000
,  // measure 20
0001
0100
0000
0010
,  // measure 21
0000
1000
0000
0100
,  // measure 22
1000
0010
0000
0100
,  // measure 23
0001
0010
1000
0010
,  // measure 24
0001
0010
0000
0001
,  // measure 25
0000
0100
0000
0010
,  // measure 26
0100
0001
0000
0010
,  // measure 27
0000
1000
0010
0001
,  // measure 28
1000
0100
0000
0100
,  // measure 29
0000
0001
0000
0100
,  // measure 30
1000
0010
0000
0100
,  // measure 31
0001
1000
0001
1000
,  // measure 32
0010
0000
0100
0000
,  // measure 33
0001
0000
0010
0000
,  // measure 34
0100
0000
0100
0000
,  // measure 35
1000
0000
1000
0000
,  // measure 36
0001
0000
0010
0000
,  // measure 37
0001
0000
1000
0000
,  // measure 38
0100
0000
0100
0000
,  // measure 39
2002
0000
0000
3003
,  // measure 40
0010
0000
0001
0100
,  // measure 41
0000
0000
0010
1000
,  // measure 42
0001
0000
1000
0100
,  // measure 43
0010
0000
0100
1000
,  // measure 44
0001
0000
1000
0001
,  // measure 45
0100
0000
0010
1000
,  // measure 46
0001
1000
0010
0000
,  // measure 47
0100
0001
0010
0100
,  // measure 48
1000
0000
0010
0100
,  // measure 49
0000
0000
0001
0100
,  // measure 50
0010
0000
1000
0001
,  // measure 51
0010
0000
0001
0001
,  // measure 52
1000
0000
0100
0000
,  // measure 53
0010
0000
0001
1000
,  // measure 54
0001
0100
0010
1000
,  // measure 55
0001
0000
0200
0320
,  // measure 56
0130
0100
0000
0100
,  // measure 57
0000
0100
0000
0100
,  // measure 58
0001
0001
0000
0001
,  // measure 59
0000
0001
0000
0001
,  // measure 60
1000
1000
0000
1000
,  // measure 61
0000
1000
0000
1000
,  // measure 62
0100
0100
0000
0100
,  // measure 63
0010
0000
0000
0110
,  // measure 64
1001
0010
0001
0100
,  // measure 65
0010
1000
0001
1000
,  // measure 66
0100
0010
0001
1000
,  // measure 67
0010
0100
0001
1000
,  // measure 68
0001
0010
0100
1000
,  // measure 69
0010
1000
0100
1000
,  // measure 70
0001
0100
0010
0100
,  // measure 71
0002
0000
0000
0003
,  // measure 72
0010
0100
1000
0100
,  // measure 73
0010
0001
1000
0001
,  // measure 74
0010
1000
0010
0001
,  // measure 75
1000
0010
0100
0001
,  // measure 76
1000
0010
0100
0010
,  // measure 77
1000
0100
0010
0001
,  // measure 78
1000
0100
0001
0100
,  // measure 79
1000
0010
0200
0302
,  // measure 80
0013
0000
0000
0000
;

//---------------dance-single - BEGINNER----------------
#NOTES:
     dance-single:
     DJ OMiY-BEG:
     Beginner:
     2:
     0.161628,0.267963,0.029774,0.000000,0.000000,152.000000,148.000000,4.000000,0.000000,0.000000,0.000000,0.161628,0.267963,0.029774,0.000000,0.000000,152.000000,148.000000,4.000000,0.000000,0.000000,0.000000:
0000
0000
0000
0000
,
0000
0000
0000
0000
,
0000
0000
0000
0000
,
0000
0000
0000
0000
,
0000
0000
0000
0000
,
0000
0000
0000
0000
,
0001
0000
1000
0000
,
0010
0000
0000
0000
,
1000
0000
1000
0000
,
1000
0000
1000
0000
,
0001
0000
0001
0000
,
0001
0000
0001
0000
,
0010
0000
0010
0000
,
0010
0000
0010
0000
,
0100
0000
0100
0000
,
0100
0000
0000
0000
,
0000
1000
0000
0001
,
0000
1000
0000
0001
,
0000
0100
0000
0010
,
0000
0100
0000
0010
,
0000
1000
0000
0100
,
0000
1000
0000
0100
,
0000
0010
0000
0001
,
0001
0000
0000
0000
,
0010
0000
0000
0000
,
0001
0000
0100
0100
,
0100
0000
0000
0000
,
0010
0000
1000
1000
,
1000
0000
0000
0000
,
1000
0000
0100
0100
,
0100
0000
0000
0000
,
0010
0000
0001
0000
,
0100
0000
0000
0000
,
0000
0000
0000
0000
,
0010
0000
0010
0000
,
0010
0000
0010
0000
,
1000
0000
1000
0000
,
1000
0000
1000
0000
,
0001
0000
0001
0000
,
0001
0000
0000
0000
,
0010
0000
0001
0000
,
0100
0000
0010
0010
,
0010
0000
1000
0000
,
0001
0000
1000
0000
,
0100
0000
0010
0000
,
0001
0000
1000
1000
,
1000
0000
0010
0000
,
0110
0000
0000
0000
,
0001
0000
0010
0000
,
0001
0000
1000
1000
,
1000
0000
0010
0000
,
0100
0000
0001
0000
,
1000
0000
0100
0000
,
0010
0000
0001
0001
,
0001
0000
0100
0000
,
1001
0000
0000
0000
,
0010
0000
0000
0000
,
0000
0000
0000
0000
,
0001
0000
0000
0000
,
0000
0000
0000
0000
,
1000
0000
0000
0000
,
0000
0000
0000
0000
,
0100
0000
0000
0000
,
0010
0000
0000
1001
,
1001
0000
0010
0010
,
0010
0000
0001
0001
,
0001
0000
1000
1000
,
1000
0000
0010
0010
,
0010
0000
0100
0100
,
0100
0000
0001
0001
,
0001
0000
1000
1000
,
1000
0000
0010
0000
,
1000
0000
0100
0100
,
0100
0000
0010
0010
,
0010
0000
0001
0001
,
0001
0000
1000
1000
,
1000
0000
0010
0010
,
0010
0000
0100
0100
,
0100
0000
0001
0001
,
0001
0000
1000
1000
,
1000
0000
0000
0000
;
