#VERSION:0.81;
#TITLE:8bit Princess;
#SUBTITLE:;
#ARTIST:seiya-murai feat. ALT;
#TITLETRANSLIT:;
#SUBTITLETRANSLIT:;
#ARTISTTRANSLIT:;
#GENRE:Chiptune;
#ORIGIN:;
#CREDIT:;
#BANNER:8bit Princess-bn.png;
#BACKGROUND:8bit Princess-bg.png;
#PREVIEWVID:;
#JACKET:8bit Princess-jk.png;
#CDIMAGE:;
#DISCIMAGE:;
#LYRICSPATH:;
#CDTITLE:;
#MUSIC:8bit Princess.ogg;
#OFFSET:-0.157000;
#SAMPLESTART:76.957001;
#SAMPLELENGTH:12.800003;
#SELECTABLE:YES;
#BPMS:0.000=150.000,
92.000=75.000,
93.500=150.000,
158.000=75.000,
174.000=150.000;
#STOPS:93.500=0.200;
#DELAYS:;
#WARPS:;
#TIMESIGNATURES:0.000=4=4,
92.000=2=4,
94.000=4=4;
#TICKCOUNTS:0.000=4;
#COMBOS:0.000=1;
#SPEEDS:0.000=1.000=0.000=0;
#SCROLLS:0.000=1.000,
106.000=0.750,
106.125=0.500,
106.250=0.250,
106.333=0.750,
106.417=1.750,
106.500=1.000,
107.000=0.750,
107.125=0.500,
107.250=0.250,
107.333=0.750,
107.417=1.750,
107.500=1.000,
108.000=0.750,
108.125=0.500,
108.250=0.250,
108.333=0.750,
108.417=1.750,
108.500=1.000,
109.000=0.750,
109.125=0.500,
109.250=0.250,
109.333=0.750,
109.417=1.750,
109.500=1.000;
#FAKES:;
#LABELS:0.000=Song Start;
#BGCHANGES:;
#KEYSOUNDS:;
#ATTACKS:
;

//---------------dance-single - ----------------
#NOTEDATA:;
#CHARTNAME:;
#STEPSTYPE:dance-single;
#DESCRIPTION:;
#CHARTSTYLE:;
#DIFFICULTY:Hard;
#METER:8;
#RADARVALUES:0.565900,0.574243,0.165399,0.289448,0.049620,424.000000,20.000000,35.000000,0.000000,0.000000,0.000000,0.000000,0.000000,0.565900,0.574243,0.165399,0.289448,0.049620,424.000000,20.000000,35.000000,0.000000,0.000000,0.000000,0.000000,0.000000;
#CREDIT:DJ OMiY;
#NOTES:
0000
0000
0000
0000
,
0000
0000
0000
0000
,
0000
0000
0000
0000
,
0000
0000
0000
0000
0000
0000
0000
0000
0000
0001
0010
0100
,
1000
0100
0010
0001
0100
0001
1000
0100
,
1000
0010
0100
0001
1000
0000
0101
0000
,
0010
1000
0001
0100
0001
0010
0100
1000
,
0001
0100
0010
0000
1000
1000
1000
0000
,
0010
1000
0100
1000
0010
0100
0001
0010
,
0001
0100
0010
1000
0001
0000
0110
0000
,
0001
0010
0100
0010
0001
0010
1000
0010
,
0002
2000
0000
3003
1001
1001
1001
0000
,
0010
1000
0100
0010
0001
0010
0100
1000
,
0001
0100
0010
1000
0002
0000
0023
0000
,
0031
0100
0010
1000
0100
1000
0001
1000
,
0020
0230
0320
0030
2000
3002
2003
3000
,
0010
0100
0010
1000
0100
0001
0100
1000
,
0001
0100
0001
1000
0100
0010
0001
1000
,
0000
0010
0100
0010
0100
0001
1000
0100
,
1000
0001
1001
0000
0010
0010
0010
0000
,
1000
0100
1000
0000
0101
0000
0110
0000
,
0010
0100
0001
0000
0010
0000
1001
0000
,
0010
1000
0100
0000
1000
0000
0010
0000
,
2000
0000
3000
0002
0000
0003
0200
0000
0310
0000
1000
0000
0010
0000
1000
0000
,
0100
1000
0100
1000
0100
0001
0100
0001
,
0100
0010
0100
0000
1000
0100
0010
0001
,
1000
0100
0001
0100
1000
0001
1000
0001
,
1000
0001
1000
0001
1000
0010
0100
0001
,
0100
0010
1000
0001
1000
0100
0010
0100
,
1000
0001
0010
0100
0000
0010
0001
1000
,
0010
1000
0001
0010
0200
0000
0000
0000
,
0000
1300
0001
0101
,
0101
0000
1000
0100
1000
0010
1000
0001
,
0200
0310
1000
1100
,
1100
0000
0001
0010
0001
0100
0010
1000
,
0020
0130
0001
1010
,
1010
0000
0100
0010
1000
0001
0010
0100
,
1000
0010
1000
0011
,
0011
0000
0100
0010
0100
0001
0010
0100
,
2000
0000
0000
0000
3001
0000
0000
0000
1000
0010
1000
0010
1000
0000
0000
0000
,
0001
0010
0001
0010
0001
0000
0000
0000
0100
0000
0010
0000
1000
0000
0001
0000
,
0100
0000
0000
0100
0010
0000
0000
1000
0100
0000
0100
0000
1000
0000
0000
0001
,
0100
0000
0100
0000
0001
0000
0000
0010
0100
0000
1000
0000
0001
0000
0100
0000
,
0020
0000
0200
0330
0001
0010
0001
0010
,
0001
0010
0100
2000
0000
3010
1000
0000
,
0100
1000
0010
0000
1000
0100
1000
0100
,
1000
0100
1000
0020
0000
0130
0001
0000
,
0010
0001
1000
0000
0010
1000
0010
1000
,
0010
1000
0001
0020
0000
0130
0010
0000
,
0001
1000
0010
0000
0100
0001
0100
0001
,
0100
0001
1000
0200
0000
0310
0100
1000
,
0001
0000
1001
0000
0010
1000
0001
0100
,
0010
1000
0001
0020
0000
0130
0010
0000
,
0001
0010
1000
0010
0001
0100
0001
1000
,
0001
0010
0100
2000
0000
3100
0010
0000
,
1000
0010
0001
0010
1000
0010
0100
0001
,
1000
0010
1000
0200
0000
0310
0100
0000
,
1000
0010
1000
0100
0010
0100
1000
0001
,
0010
0100
0010
0002
0000
1003
0010
0100
,
0001
1001
0020
1000
,
0001
0130
0002
1000
,
0103
0001
1000
0010
2000
0000
0001
0000
,
0010
3100
0200
0001
,
1300
0100
0001
0100
2000
0000
0010
0000
,
0001
3100
0020
0001
,
1030
0010
0100
0001
0200
0000
0010
0000
,
1000
0000
0310
0000
0002
0000
0103
0001
,
1000
0000
0110
0000
0100
0001
0010
0000
,
0100
0000
0100
0000
1000
0010
0100
0000
,
0001
0000
1000
0000
0001
0000
0100
0001
0000
0000
0000
0000
0000
0000
0000
0000
;

//---------------dance-single - ----------------
#NOTEDATA:;
#CHARTNAME:;
#STEPSTYPE:dance-single;
#DESCRIPTION:;
#CHARTSTYLE:;
#DIFFICULTY:Challenge;
#METER:9;
#RADARVALUES:0.695856,0.718020,0.330797,0.190208,0.194343,526.000000,40.000000,23.000000,0.000000,0.000000,0.000000,0.000000,0.000000,0.695856,0.718020,0.330797,0.190208,0.194343,526.000000,40.000000,23.000000,0.000000,0.000000,0.000000,0.000000,0.000000;
#CREDIT:DJ OMiY;
#NOTES:
// measure 0
0000
0000
0000
0000
,  // measure 1
0000
0000
0000
0000
,  // measure 2
0000
0000
0000
0000
,  // measure 3
0000
0000
0000
0000
0000
0000
0000
0000
0000
0001
0100
1000
,  // measure 4
0100
0100
0001
1000
0001
0100
0001
1000
,  // measure 5
0010
0010
1000
0001
0100
0010
1010
0000
,  // measure 6
1000
1000
0100
0010
0100
1000
0100
0010
,  // measure 7
0001
0001
0100
0010
1000
0001
1001
0000
,  // measure 8
0010
0010
1000
0001
0100
1000
0100
0001
,  // measure 9
0010
0010
0100
1000
0100
0010
0011
0000
,  // measure 10
0001
0001
0100
0010
0100
0001
0010
0100
,  // measure 11
1000
0100
0010
0100
1000
1001
1002
0000
,  // measure 12
0103
0001
0010
0100
1000
0100
0001
0100
,  // measure 13
1000
0010
0100
0001
2000
0000
3200
0000
,  // measure 14
0310
0100
1000
0010
0100
0001
1000
0100
,  // measure 15
0010
0011
0011
0000
0001
1100
2100
0000
,  // measure 16
3010
0100
0001
0100
1000
0100
0001
0010
,  // measure 17
1000
0001
0100
1000
0100
0010
0001
1000
,  // measure 18
0010
0100
0001
0100
0010
0010
1000
0001
,  // measure 19
0010
0001
1000
0001
0100
0000
0001
0000
1000
0000
1000
0000
1100
0000
0000
0000
,  // measure 20
0010
0001
0100
0010
0100
0001
1000
0100
,  // measure 21
0010
0001
1000
0010
0100
0001
0011
0000
,  // measure 22
0100
1000
0100
0001
0100
1000
0010
0100
,  // measure 23
0001
0000
0001
1000
0000
1000
0020
0000
0130
0001
0100
0000
0010
1000
0010
0000
,  // measure 24
1000
0001
1000
0000
0001
0100
0001
0000
0010
0000
0100
0000
0001
0000
0100
0000
,  // measure 25
2000
0000
0000
0000
3002
0000
0000
0000
1003
0010
1000
0000
0010
0100
0010
0000
,  // measure 26
0100
0001
0100
0000
0001
0000
0010
0000
0001
0000
0100
0000
1000
0000
0100
0000
,  // measure 27
0001
0100
1000
0100
0001
0010
0100
1000
,  // measure 28
0001
1000
0010
0100
0001
0010
1000
0001
,  // measure 29
1000
0001
0100
1000
0001
0100
1000
0010
,  // measure 30
1000
0000
0100
0000
0001
0000
1000
0000
0001
0010
0100
0000
0010
0100
1000
0000
,  // measure 31
0001
0010
0001
0010
0100
1000
0100
1000
0001
0000
0000
0000
0101
0000
0000
0000
,  // measure 32
1100
1000
0100
0010
0001
1000
0010
0100
,  // measure 33
0002
0010
0023
0100
0030
0010
0001
1000
,  // measure 34
1010
0000
0100
0001
1000
0100
1000
0001
,  // measure 35
0020
0100
0230
1000
0300
0000
1100
0000
,  // measure 36
0011
0001
1000
0010
0100
0001
1000
0010
,  // measure 37
2000
0001
3002
0100
0003
0001
0010
0010
,  // measure 38
0100
0010
0001
1000
0010
0100
0001
0010
,  // measure 39
0100
0000
1000
0000
0200
0000
0000
0000
0310
0100
1000
0001
0010
0000
0000
0001
,  // measure 40
1000
0100
0010
0001
0100
0000
0000
0010
1000
0100
1000
0100
0010
0001
0010
0001
,  // measure 41
1000
0000
0000
1000
0100
0000
0000
0100
0010
0100
1000
0100
1000
0000
0000
0100
,  // measure 42
0010
0001
0100
0010
0100
0000
0000
0100
0001
0010
0100
1000
0001
0010
0100
1000
,  // measure 43
0002
1000
1000
1003
0101
0001
1001
1000
,  // measure 44
1100
0100
0010
0001
1000
0001
0100
0010
,  // measure 45
0100
0001
1000
0000
1100
0100
0110
0010
,  // measure 46
0011
0001
1000
0010
0100
0001
0010
0100
,  // measure 47
1000
0100
0010
0000
1001
0001
0101
0100
,  // measure 48
0110
0010
1000
0001
0100
0001
0010
1000
,  // measure 49
0010
0001
1000
0000
1010
1000
1001
0001
,  // measure 50
0011
0010
0001
1000
0100
1000
0010
0100
,  // measure 51
0002
0000
1003
0000
1010
0010
0101
0100
,  // measure 52
1001
0001
1000
0200
0000
0310
0100
0000
,  // measure 53
1000
0001
1000
0001
0011
0010
1100
0100
,  // measure 54
1001
1000
0001
0020
0000
0031
1000
0000
,  // measure 55
0001
0100
0010
1000
1100
0100
0101
0100
,  // measure 56
1001
0001
0100
0020
0000
0130
0001
0000
,  // measure 57
1000
0001
0100
0010
1010
1000
0011
0001
,  // measure 58
1100
1000
0001
2000
0000
3100
0100
0010
,  // measure 59
0200
0000
0000
0000
2300
0000
0000
0000
3001
0000
1000
0010
1000
0000
0001
0000
,  // measure 60
0100
0000
0001
0000
1000
0000
0100
0000
0010
0000
0001
1000
0001
0000
0100
0000
,  // measure 61
0010
0000
1000
0000
0001
0000
0010
0000
0001
0000
1000
0100
1000
0000
0010
0000
,  // measure 62
0100
0000
0010
0000
1000
0000
0001
0000
0010
0000
0001
0100
0001
0000
1000
0000
,  // measure 63
0010
0100
0001
0010
0100
0001
0100
1000
,  // measure 64
0010
0001
0010
0100
0001
1000
0100
0001
,  // measure 65
0010
0001
0100
1000
0001
0100
1000
0001
,  // measure 66
0010
1000
0001
0100
0010
1000
0100
0001
,  // measure 67
0100
1000
0002
0000
0013
0001
1000
0000
,  // measure 68
1000
1000
0001
0000
0100
0001
1000
0000
,  // measure 69
0010
0000
0000
0010
0000
0000
1000
0000
0000
0001
0100
0001
0000
0000
0000
0000
0000
0000
0000
0000
0000
0000
0000
0000
;

//---------------dance-single - ----------------
#NOTEDATA:;
#CHARTNAME:;
#STEPSTYPE:dance-single;
#DESCRIPTION:;
#CHARTSTYLE:;
#DIFFICULTY:Medium;
#METER:7;
#RADARVALUES:0.522187,0.516354,0.107509,0.463116,0.008270,373.000000,13.000000,56.000000,0.000000,0.000000,0.000000,0.000000,0.000000,0.522187,0.516354,0.107509,0.463116,0.008270,373.000000,13.000000,56.000000,0.000000,0.000000,0.000000,0.000000,0.000000;
#CREDIT:;
#NOTES:
0000
0000
0000
0000
,
0000
0000
0000
0000
,
0000
0000
0000
0000
,
0000
0000
0000
0000
0000
0000
0000
0000
0000
0010
1000
0001
,
0100
0001
1000
0000
1000
0000
1000
0000
,
0001
1000
0001
0000
0100
0000
0110
0000
,
0010
1000
0100
0000
0010
0000
0010
0000
,
0001
0010
0100
0000
0010
0010
0010
0000
,
0001
1000
0001
0000
0100
0000
0100
0000
,
0010
1000
0100
0000
0010
0000
1001
0000
,
0010
0001
0100
0000
0010
0000
1000
0000
,
0001
0100
0000
0100
0001
0001
0001
0000
,
1000
0010
0100
0001
1000
0100
0010
0000
,
0001
0100
0001
0000
1000
0000
1100
0000
,
0010
0001
0100
0010
0100
0001
1000
0000
,
0001
0001
0001
0000
1000
1000
1000
0000
,
0010
0100
0001
0000
0010
0001
1000
0000
,
0010
1000
0010
1000
0001
0010
0100
0000
,
0010
0001
1000
0010
1000
0001
0100
0000
,
0010
0100
0010
0000
1000
0100
0001
0000
,
0100
0010
0001
0000
1000
0000
1000
0000
,
0010
1000
0100
0000
0010
0000
0011
0000
,
1000
0001
0100
0000
0001
0000
0001
0000
,
0020
0000
0000
0030
0000
0000
0001
0000
1000
0000
0000
0000
0010
0000
0000
0000
,
0001
0010
1000
0000
0001
0100
1000
0000
,
0100
0001
1000
0001
,
0100
0010
1000
0000
0101
0000
1001
0000
,
1100
0000
1001
0000
0010
1000
0100
0000
,
0010
0000
0100
0000
0010
0001
0100
0000
,
0001
1000
0010
0000
0100
0010
1000
0000
,
0100
0000
0010
0000
0001
0100
0001
0100
,
0001
0100
0001
0100
0010
0000
2000
0000
,
3200
0000
0310
0002
0000
2003
0000
3001
,
0200
0320
0100
2030
,
3200
0000
1300
0020
0000
0230
0000
0301
,
0020
0230
0010
2300
,
3200
0000
0310
0002
0000
0203
0000
0310
,
2000
3002
0100
0023
,
0032
0000
1003
0020
0000
2030
0000
3100
,
0020
0000
0230
0000
1300
0100
0010
0000
,
0001
0010
0100
0000
1000
0001
1000
0001
,
0200
0000
0320
0000
1030
0100
0001
0000
,
1000
0010
0001
0000
1000
0010
0100
0001
,
0020
0000
0230
0000
1300
0100
0010
0000
,
1000
0100
0010
0000
0001
0010
0100
1000
,
0001
0000
1001
0000
0001
0010
0100
0000
,
0001
0010
0100
0000
1000
0010
0100
0001
,
1000
0000
0110
0000
0001
0100
0010
0000
,
0001
0100
0010
0000
1000
0010
1000
0001
,
0010
0000
1100
0000
0010
1000
0100
0000
,
0010
1000
0100
0000
0010
0001
1000
0010
,
1000
0000
0011
0000
1000
0010
1000
0010
,
2000
0000
3001
0020
0000
0130
0010
0000
,
0002
1000
2003
0001
3001
0010
0001
0010
,
0002
0000
0103
0020
0000
0130
0001
0000
,
0020
0100
0230
0010
0310
0001
0010
0001
,
0020
0000
0130
2000
0000
3010
0200
0000
,
0302
1000
2003
0001
3001
0100
0001
0100
,
0002
0000
1003
0020
0000
1030
0100
0000
,
1000
0000
0101
0000
0010
1000
0100
0010
,
0001
1000
0010
0000
0200
0000
0302
0000
,
2003
0001
3002
0000
0013
0001
0100
0010
,
1000
0100
1000
0000
0020
0000
2030
0000
,
3100
0010
0100
0000
1000
0010
0100
0001
,
1000
0001
0010
0000
0002
0000
0203
0000
,
0320
0000
2030
0000
3001
0100
1000
0100
,
0001
0100
1000
0000
0200
0000
0320
0000
,
1030
0001
0100
0000
0010
1000
0010
0000
,
0100
0000
0100
0000
0010
1000
0010
0000
,
0100
0001
1000
0100
0000
0000
0000
0000
;

//---------------dance-single - ----------------
#NOTEDATA:;
#CHARTNAME:;
#STEPSTYPE:dance-single;
#DESCRIPTION:;
#CHARTSTYLE:;
#DIFFICULTY:Easy;
#METER:4;
#RADARVALUES:0.311895,0.372250,0.041350,0.289448,0.000000,224.000000,5.000000,35.000000,0.000000,0.000000,0.000000,0.000000,0.000000,0.311895,0.372250,0.041350,0.289448,0.000000,224.000000,5.000000,35.000000,0.000000,0.000000,0.000000,0.000000,0.000000;
#CREDIT:DJ OMiY;
#NOTES:
0000
0000
0000
0000
,
0000
0000
0000
0000
,
0000
0000
0000
0000
,
0000
0000
0000
0110
,
2000
3100
0100
0100
,
2000
3001
0100
0010
,
0001
0010
0010
0010
,
1000
0001
0200
0010
,
0302
1003
1000
1000
,
0020
0130
0001
1000
,
0100
0010
0010
0010
,
0200
0000
1300
0001
,
0100
0000
0010
0000
,
1000
0100
0010
0001
,
1000
0000
0001
0000
,
0100
0100
0010
0001
,
0010
1000
0100
0010
,
0001
0000
0010
0000
,
0010
0001
1000
0010
,
0200
0000
0010
1000
,
0301
0001
1000
1000
,
0001
0100
0010
0000
,
1000
1000
0100
0010
,
0200
0000
0000
0300
1000
0000
0100
0000
,
0001
0100
1000
0100
,
0001
0100
1000
0010
,
0001
0010
1000
0001
,
1000
0001
0010
0100
,
1000
0100
0010
0001
,
0010
0001
0000
1000
,
0001
0010
0200
0000
,
2000
3300
0000
1001
,
0001
0000
0100
0010
,
1000
0001
0000
1100
,
0010
0000
0100
1000
,
0010
0010
0000
0101
,
1000
0000
0010
1000
,
0010
0001
0000
0110
,
1000
0000
0100
0010
,
0001
1000
0020
0230
,
0302
0023
2030
3020
,
0031
0001
2000
3100
,
0002
0103
2000
3020
,
0130
0100
0001
0001
,
0001
0010
0001
1000
,
0010
0000
1000
1000
,
1000
0100
0010
0001
,
1000
0000
0010
0010
,
0010
0100
0001
1000
,
0010
0000
0100
0100
,
0100
0001
1000
0100
,
0010
0010
0001
0001
,
0001
1000
0010
1000
,
0100
0000
0010
0010
,
0010
0100
1000
0001
,
1000
0000
0100
0100
,
0100
1000
0010
0100
,
0001
0000
1000
1000
,
1000
0010
1000
0100
,
0010
0010
0002
0000
,
0203
0000
0320
0000
,
1030
0001
0200
0000
,
0302
0000
0023
0000
,
0130
0010
0002
0000
,
2003
0000
3200
0000
,
0301
0100
2000
0000
,
3020
0000
0230
0000
,
0301
1000
0010
1000
,
0001
0001
2000
3200
,
0302
0013
0000
0000
;

//---------------dance-single - ----------------
#NOTEDATA:;
#CHARTNAME:;
#STEPSTYPE:dance-single;
#DESCRIPTION:;
#CHARTSTYLE:;
#DIFFICULTY:Beginner;
#METER:1;
#RADARVALUES:0.164217,0.229077,0.016540,0.223288,0.000000,110.000000,2.000000,27.000000,0.000000,0.000000,0.000000,0.000000,0.000000,0.164217,0.229077,0.016540,0.223288,0.000000,110.000000,2.000000,27.000000,0.000000,0.000000,0.000000,0.000000,0.000000;
#CREDIT:DJ OMiY;
#NOTES:
0000
0000
0000
0000
,
0000
0000
0000
0000
,
0000
0000
0000
0000
,
0000
0000
0000
0000
,
0001
0000
0100
0000
,
1000
0000
0000
0000
,
1000
0000
0010
0000
,
0002
0000
0003
0000
,
1000
0000
0010
0000
,
0100
0000
0000
0000
,
0001
0000
0100
0000
,
0020
0000
0030
0000
,
1000
0000
1000
0000
,
0100
0000
0100
0000
,
0010
0000
0001
0000
,
2000
0000
3000
0000
,
0001
0000
0001
0000
,
0100
0000
0100
0000
,
0010
0000
1000
0000
,
0002
0000
0003
0000
,
2002
0000
0000
0000
,
3003
0000
0000
0000
,
0220
0000
0000
0000
,
0330
0000
0010
0000
,
0010
0000
2000
0000
,
3000
0000
0001
0000
,
0100
0000
0001
0001
,
0001
0001
0001
0000
,
1000
0000
0001
0000
,
0000
0000
0010
0000
,
0100
0000
2000
0000
,
0000
3000
1000
0000
,
1000
0000
1000
0000
,
0000
0000
0010
0000
,
0010
0000
0100
0000
,
0000
0000
0001
0000
,
0001
0000
0001
0000
,
0000
0000
0100
0000
,
0100
0000
0020
0000
,
0030
0000
1000
1000
,
1000
0000
0010
0000
,
0100
0100
0200
0300
,
0002
0003
1000
1000
,
2000
3000
0001
0001
,
0001
0000
0200
0000
,
0300
0000
0010
0010
,
0010
0000
2000
0000
,
3000
0000
1000
1000
,
1000
0000
0002
0000
,
0003
0000
0010
0010
,
0010
0000
0200
0000
,
0300
0000
0010
0000
,
0001
0000
1000
0000
,
0010
0000
0100
0000
,
0001
0000
2000
0000
,
3000
0000
0010
0000
,
1000
0000
0001
0000
,
0010
0000
0001
0000
,
1000
0000
0100
0000
,
0100
0000
0020
0000
,
0000
0030
0020
0000
,
0000
0030
0200
0000
,
0000
0300
0200
0000
,
0000
0300
2000
0000
,
0000
3000
2000
0000
,
0000
3000
0002
0000
,
0000
0003
0002
0000
,
0000
0003
0100
0000
,
0100
0000
0100
0000
,
0100
0100
0000
0000
;
