#TITLE:entrance;
#SUBTITLE:;
#ARTIST:Kobo project feat. Masa;
#TITLETRANSLIT:;
#SUBTITLETRANSLIT:;
#ARTISTTRANSLIT:;
#GENRE:;
#CREDIT:;
#BANNER:entrance-bn.png;
#BACKGROUND:entrance-bg.png;
#LYRICSPATH:;
#CDTITLE:;
#MUSIC:entrance.mp3;
#OFFSET:-0.029000;
#SAMPLESTART:59.987080;
#SAMPLELENGTH:12.000000;
#SELECTABLE:YES;
#BPMS:0.000000=180.000000
,216.000000=90.000000
,232.000000=180.000000
;
#STOPS:
;
#BGCHANGES:;
#KEYSOUNDS:;
#ATTACKS:;

//---------------dance-single - ----------------
#NOTES:
     dance-single:
     :
     Challenge:
     16:
     0.990968,1.000000,0.455701,0.212660,0.901275,619.000000,45.000000,21.000000,0.000000,0.000000,0.000000,0.990968,1.000000,0.455701,0.212660,0.901275,619.000000,45.000000,21.000000,0.000000,0.000000,0.000000:
0000
0000
0000
0000
,
0000
0000
0000
0000
,
0000
0000
0000
0000
,
0000
0000
0000
0000
,
2002
0000
0003
0002
0000
3000
1003
0000
,
1000
0000
0100
0000
0000
0010
0001
0100
0010
0000
1000
0000
1100
0000
0000
0010
,
0001
0000
0000
0001
0100
0000
0000
0100
0010
0000
1000
0000
0010
1000
0100
1000
,
0001
0000
0100
0000
0000
0010
1000
0100
0010
0000
0001
0000
0101
0000
0000
0010
,
1000
0000
0000
1000
0100
0000
0000
0100
0010
0000
0100
0000
1000
0010
0100
0001
,
0101
0000
0000
1010
0000
0000
0101
0000
0000
0000
1000
0000
0100
0000
0010
0000
,
0001
0000
0100
0000
1000
0000
0100
0001
0010
0000
0100
0000
1000
0000
0010
0000
,
1010
0000
0000
0101
0000
0000
1010
0000
0000
0000
0001
0000
0010
0000
0100
0000
,
1000
0000
0010
0000
0100
0000
0001
0100
0010
1000
0010
0100
0001
0100
0010
1000
,
0001
0000
0100
0001
1000
0000
0100
1000
0001
0000
0010
0000
0200
0000
0000
0000
,
1300
0000
0100
1000
0001
0000
0100
0001
1000
0000
0000
0010
0200
0000
0001
0000
,
0301
0000
0010
0001
1000
0000
0010
1000
0001
0000
0010
0000
0200
0000
1000
0000
,
1300
0000
0010
1000
0100
0000
0010
0001
0100
0000
0000
0010
1000
0000
0100
0000
,
1001
0000
1000
0001
0100
0000
0001
1000
0100
0000
0010
0000
0002
0000
0000
0000
,
1003
0000
0001
1000
0100
0000
1000
0001
0100
0000
0000
0010
2000
0000
0001
0000
,
3001
0000
0100
0010
1000
0000
0001
0100
0010
0000
1000
0000
0200
0000
1000
0000
,
1300
0000
0100
0010
0001
0000
1000
0100
0010
0000
0000
0001
1000
0000
0100
0000
,
1100
0000
0000
0011
0000
0000
1100
0000
0000
0000
0001
0000
0100
0000
0010
0000
,
1000
0000
0100
0000
0001
0000
0100
1000
0010
0000
0100
0000
0001
0000
0010
0000
,
0011
0000
0000
1100
0000
0000
0011
0000
0000
0000
1000
0000
0100
0000
0010
0000
,
0001
0000
0100
0000
1000
0000
0100
0001
0010
0000
0100
0000
1000
0000
0010
0000
,
1010
0000
0000
0101
0000
0000
1010
0000
0000
0000
0001
0000
0010
0000
0100
0000
,
1000
0000
0010
0000
0001
0000
0010
1000
0100
0000
0010
0000
0001
0000
0100
0000
,
0101
0000
0000
1010
0000
0000
0101
0000
0000
0000
1000
0000
0100
0000
0010
0000
,
0001
0000
0100
0000
0010
0000
1000
0100
0010
0100
1000
0001
0100
0000
0000
0000
,
2001
0000
0100
0000
3100
0010
0001
0100
0010
0000
1000
0000
0100
0000
1000
0000
,
1100
0000
1000
0100
1000
0000
0001
0100
0001
0000
0010
0000
0001
1000
0001
0000
,
1002
0000
0100
0000
0103
0010
1000
0100
0010
0000
0001
0000
0100
0000
0001
0000
,
0101
0000
0001
0100
0001
0000
1000
0100
1000
0000
0010
0000
1000
0001
1000
0000
,
0120
0000
1000
0000
1030
0000
2100
0000
0001
0000
3001
0000
0100
0010
1000
0000
,
1010
0000
1000
0010
1000
0000
0001
0010
0001
0000
0100
0000
0001
1000
0001
0000
,
1002
0000
0010
0000
0013
0100
1000
0001
0100
0000
0010
0000
1000
0000
0001
1000
,
0002
1000
1000
2003
0001
0001
3200
1000
,
1300
0000
0100
0000
0010
0000
0001
0000
0100
0000
0010
0000
0001
0000
0010
1000
,
0100
0000
0010
0000
0100
0000
1000
0000
0010
0000
0000
0010
0100
0000
0100
0000
,
0001
0000
0100
0000
0010
0000
1000
0000
0100
0000
0010
0000
1000
0000
0010
0001
,
0100
0000
0010
0000
1010
0000
0000
0000
1001
0000
0000
0110
0000
0000
1001
0000
,
0001
0000
0010
0000
0100
0000
1000
0000
0010
0000
0100
0000
1000
0000
0100
0001
,
0010
0000
0100
0000
0010
0000
0001
0000
0100
0000
0000
0100
0010
0000
0010
0000
,
1000
0000
0010
0000
0100
0000
0001
0000
0010
0000
0100
0000
0001
0000
0100
1000
,
0010
0000
0100
0000
0001
0000
1000
0000
0100
0000
0000
0100
0010
0000
0001
0000
,
1000
0000
0100
0000
0010
0001
0100
0001
1000
0000
0010
0000
0100
0000
0001
0100
,
0001
0000
0000
0001
1000
0000
0000
1000
0010
0000
0100
0000
0001
1000
0001
1000
,
0001
0000
0100
0000
0010
1000
0100
1000
0001
0000
0010
0000
0100
0000
1000
0100
,
1000
0000
0100
0000
1100
0000
0000
0000
0011
0000
0000
0110
0000
0000
1100
0000
,
0001
0000
0010
0000
0100
1000
0010
1000
0001
0000
0100
0000
0010
0000
1000
0010
,
1000
0000
0000
1000
0001
0000
0000
0001
0100
0000
0010
0000
1000
0001
1000
0001
,
1000
0000
0010
0000
0100
0001
0010
0001
1000
0000
0100
0000
0010
0000
0001
0010
,
0001
0000
0000
0001
0100
0000
0000
0100
0010
0000
0100
0000
0001
0010
0100
2000
,
0002
0000
0000
3003
,
1000
0100
0010
0001
0100
0010
0001
0010
0100
0001
0010
1000
0010
0001
0100
0010
,
1000
0010
0100
0001
0010
0100
0001
0100
0010
0001
0100
1000
0100
0001
0010
0100
,
1000
0100
0010
0100
0001
0100
1000
0001
0100
0010
1000
0010
0100
0010
0001
0010
,
1000
0000
0100
0000
0010
0000
0001
0000
0100
0000
0010
0000
0001
0000
0010
0000
0100
0001
0100
0001
0100
0001
0100
0001
1000
0010
1000
0010
1000
0010
1000
0010
,
1000
0000
0100
0000
1100
0000
0010
0001
0100
0001
0010
0000
0100
0000
1000
0100
,
1000
0000
0001
0100
0001
0000
1000
0100
0010
0001
0100
0000
0001
0100
0001
0010
,
0001
0000
0100
0000
0101
0000
0010
1000
0100
1000
0010
0000
0100
0000
0001
0100
,
0001
0000
1000
0100
1000
0000
0010
0100
0001
0000
0010
0000
0100
1000
0001
1000
,
0010
0000
1000
0000
1010
0000
0010
0100
0001
0100
0010
0000
0110
0000
0010
1000
,
0100
0000
0010
0001
0100
0000
0100
0010
1000
0100
0010
0000
0001
0000
1000
0001
,
1000
0000
0001
0000
1001
0000
1000
0010
0100
0001
0010
0000
0110
0000
0010
0001
,
1000
0000
0010
1000
0001
0000
0100
0001
1000
0100
0010
0000
0001
1000
0000
0001
,
1000
0100
0010
0001
0000
0001
0000
0001
0000
0100
0010
0000
1000
0001
1000
0000
,
2002
0000
0000
0000
,
0000
3003
0000
0000
;

//---------------dance-single - ----------------
#NOTES:
     dance-single:
     :
     Hard:
     13:
     0.723335,0.898490,0.587348,0.151900,0.192407,427.000000,58.000000,15.000000,0.000000,0.000000,0.000000,0.723335,0.898490,0.587348,0.151900,0.192407,427.000000,58.000000,15.000000,0.000000,0.000000,0.000000:
0000
0000
0000
0000
,
0000
0000
0000
0000
,
0000
0000
0000
0000
,
0000
0000
0000
0000
,
2002
0000
0000
3003
,
1001
0001
0100
0110
0000
0010
1000
0000
,
1000
0100
0010
0000
0010
0001
0100
0001
,
1001
0000
0100
0110
0000
0010
0001
0000
,
0001
0100
0001
0100
0010
1000
0100
0010
,
0011
0000
0000
1000
0000
0000
0101
0000
0000
0000
0010
0000
0001
0000
0100
0000
,
0010
0000
1000
0000
0100
0000
1000
0001
1000
0000
0001
0000
0100
0000
0010
0000
,
1010
0000
0000
0001
0000
0000
1100
0000
0000
0000
0010
0000
1000
0000
0100
0000
,
0010
0001
0100
0001
1000
0001
1000
0001
,
1000
0100
0001
0100
1000
0001
0010
0000
,
0001
0100
1000
0100
0001
1000
0100
0000
,
1000
0010
0001
0010
1000
0001
0010
0000
,
0001
0010
1000
0010
0001
1000
0010
1000
,
0010
0100
0001
0010
1000
0010
0001
0000
,
0100
0010
1000
0100
0001
0100
1000
0000
,
0100
0010
0001
0100
1000
0100
0001
0000
,
0010
0100
1000
0010
0001
0010
1000
0100
,
1100
0000
0000
0001
0000
0000
1010
0000
0000
0000
0100
0000
1000
0000
0010
0000
,
0100
0000
0001
0000
0010
0000
0001
1000
0001
0000
1000
0000
0010
0000
0100
0000
,
0101
0000
0000
1000
0000
0000
0011
0000
0000
0000
0100
0000
0001
0000
0010
0000
,
0100
0000
1000
0000
0010
0000
1000
0001
1000
0000
0001
0000
0010
0000
0100
0000
,
1100
0000
0000
1100
0000
0000
1100
0000
0000
0000
1000
0000
0100
0000
0001
0000
,
0100
0000
1000
0000
0001
0000
1000
0001
1000
0000
0001
0000
0100
0000
0010
0000
,
1010
0000
0000
1010
0000
0000
1010
0000
0000
0000
0001
0000
0100
0000
0001
0000
,
0202
0000
0000
0303
,
2001
0000
0010
0000
0100
0100
3100
0000
,
1100
0100
0010
0001
0100
0010
1000
0000
,
1002
0000
0010
0000
0100
0100
0103
0000
,
0101
0100
0010
1000
0100
0010
0001
0000
,
2000
0000
0001
3002
0100
0100
0103
0000
,
0101
0001
1000
0100
0010
0100
1000
0000
,
2100
0000
0001
0000
0010
0010
3010
0000
,
2000
0000
0000
3002
0000
0000
1003
0000
,
1000
0000
0100
0000
0000
0000
0110
0000
0000
0000
0011
0000
0000
0000
0001
0100
,
0001
0100
0010
1000
0100
0010
0001
0000
,
0001
0000
0100
0000
0000
0000
0110
0000
0000
0000
1010
0000
0000
0000
1000
0100
,
1000
0000
0100
0000
0010
0000
0000
0000
1001
0000
0000
1001
0000
0000
1001
0000
,
0001
0000
0010
0000
0000
0000
0110
0000
0000
0000
1100
0000
0000
0000
1000
0010
,
1000
0010
0100
0001
0010
0100
1000
0000
,
1000
0000
0010
0000
0000
0000
0110
0000
0000
0000
0101
0000
0000
0000
0001
0010
,
0001
0000
0100
0000
0010
0000
1000
0000
0100
0000
0000
1000
0100
0000
0010
0000
,
0001
0000
1000
0000
0000
0000
1001
0000
0000
0000
0110
0000
0000
0000
1000
0001
,
1000
0010
0100
0001
0010
0100
1000
0000
,
1000
0000
0001
0000
0000
0000
1001
0000
0000
0000
0110
0000
0000
0000
0001
1000
,
0001
0000
1000
0000
0010
0000
0000
0000
0110
0000
0000
0110
0000
0000
0110
0000
,
0001
0000
1000
0000
0000
0000
1100
0000
0000
0000
0110
0000
0000
0000
0010
0001
,
0010
0100
1000
0010
0100
0001
0010
0000
,
0010
0000
0100
0000
0000
0000
1001
0000
0000
0000
0110
0000
0000
0000
1000
0001
,
1000
0000
0100
0000
0001
0000
0100
0000
1000
0000
0000
0010
0100
0000
0001
0000
,
2002
0000
0000
3003
,
1000
0000
0001
0000
1001
0000
0100
0010
1000
0001
0100
0000
0101
0000
0100
0010
,
1000
0000
0001
0000
1001
0000
0100
0010
0001
1000
0100
0000
1100
0000
0100
0010
,
0001
0000
1000
0000
1001
0000
0010
0100
0001
1000
0100
0000
1100
0000
0100
0010
,
0001
0000
1000
0000
1001
0000
1000
0010
0100
0001
0010
0000
0110
0000
1000
0100
,
1000
1000
1000
0000
1000
0100
0010
0000
,
0010
0001
0100
1000
0100
0001
0010
0000
,
0001
0001
0001
0000
0001
0100
0010
0000
,
0010
1000
0100
0001
0100
1000
0001
0000
,
1000
0100
0010
0001
0100
0010
0001
0010
,
0100
0001
1000
0100
0010
0001
1000
0010
,
1000
0001
0100
0010
1000
0010
0001
0010
,
1000
0100
0010
0001
0010
1000
0010
0100
,
1000
0000
0000
0100
0000
0010
0000
0001
0000
0000
1000
0000
0001
1000
0001
0000
,
2002
0000
0000
0000
,
0000
3003
0000
0000
;

//---------------dance-single - ----------------
#NOTES:
     dance-single:
     :
     Medium:
     9:
     0.444127,0.414688,0.263294,0.212660,0.000000,260.000000,26.000000,21.000000,0.000000,0.000000,0.000000,0.444127,0.414688,0.263294,0.212660,0.000000,260.000000,26.000000,21.000000,0.000000,0.000000,0.000000:
// measure 0
0000
0000
0000
0000
,  // measure 1
0000
0000
0000
0000
,  // measure 2
0000
0000
0000
0000
,  // measure 3
0000
0000
0000
0000
,  // measure 4
2002
0000
0000
3003
,  // measure 5
0100
0000
0000
0100
0000
0000
0100
0000
,  // measure 6
0010
1000
0100
0010
,  // measure 7
0100
0000
0000
0100
0000
0000
0100
0000
,  // measure 8
0010
0001
0100
0010
,  // measure 9
1001
0000
0000
1001
0000
0000
0010
0000
,  // measure 10
0100
1000
0001
1000
,  // measure 11
1001
0000
0000
1001
0000
0000
0010
0000
,  // measure 12
0100
0000
0001
0000
1000
0001
1000
0000
,  // measure 13
1000
0000
0010
0000
0100
0001
0100
0000
,  // measure 14
0001
0000
0010
0000
0100
1000
0100
0000
,  // measure 15
1000
0000
0010
0000
1000
0100
1000
0000
,  // measure 16
0001
0000
0010
0000
0001
0100
0001
0000
,  // measure 17
1001
0000
0100
0000
0010
0100
0010
0000
,  // measure 18
1000
0000
0100
0000
0010
0001
0010
0000
,  // measure 19
0001
0000
0100
0000
0010
1000
0010
0000
,  // measure 20
1000
0000
0001
0000
1000
0001
1000
0000
,  // measure 21
1001
0000
0000
1001
0000
0000
0010
0000
,  // measure 22
0100
0000
1000
0001
1000
0000
0001
0000
,  // measure 23
1001
0000
0000
1001
0000
0000
0100
0000
,  // measure 24
0001
0000
1000
0000
0001
1000
0001
0000
,  // measure 25
1001
0000
0000
1001
0000
0000
0010
0000
,  // measure 26
1000
0000
0001
0100
0010
0000
1000
0000
,  // measure 27
1001
0000
0000
1001
0000
0000
0110
0000
,  // measure 28
2002
0000
0000
3003
,  // measure 29
2100
0001
0010
0100
,  // measure 30
3001
0100
0001
0100
,  // measure 31
0102
1000
0010
0100
,  // measure 32
1003
0100
1000
0100
,  // measure 33
2100
0001
0010
0001
,  // measure 34
3100
1000
0001
0100
,  // measure 35
0102
1000
0010
1000
,  // measure 36
2003
0000
0000
0001
0000
0000
3001
0000
,  // measure 37
1000
0100
0000
0100
0000
0100
0000
0100
,  // measure 38
0010
0001
0100
0010
,  // measure 39
1000
0010
0000
0010
0000
0010
0000
0010
,  // measure 40
0100
0001
1001
1001
,  // measure 41
0001
0100
0000
0100
0000
0100
0000
0100
,  // measure 42
0010
1000
0100
0010
,  // measure 43
0001
0010
0000
0010
0000
0010
0000
0010
,  // measure 44
0100
1000
0001
0100
,  // measure 45
0010
0100
0000
0100
0000
0100
0000
0100
,  // measure 46
0001
1000
0100
0010
,  // measure 47
0100
0010
0000
0010
0000
0010
0000
0010
,  // measure 48
0001
1000
1001
1001
,  // measure 49
0100
0010
0000
0010
0000
0010
0000
0010
,  // measure 50
1000
0100
0010
0001
,  // measure 51
0010
0100
0000
0100
0000
0100
0000
0100
,  // measure 52
1000
0010
0100
0001
,  // measure 53
2002
0000
0000
3003
,  // measure 54
2000
0100
3002
0100
,  // measure 55
2003
0010
3002
0010
,  // measure 56
2003
0100
3200
0010
,  // measure 57
0320
0001
0032
1000
,  // measure 58
1003
1000
1000
0000
0100
0000
1000
0000
,  // measure 59
0001
0100
0001
0100
,  // measure 60
0001
0001
0001
0000
0100
0000
0001
0000
,  // measure 61
1000
0010
1000
0010
,  // measure 62
1000
0100
1000
0000
0100
0000
1000
0000
,  // measure 63
0100
0010
0100
0010
,  // measure 64
0001
0010
0001
0000
0100
0000
0010
0000
,  // measure 65
1000
0100
0010
0001
,  // measure 66
1000
0000
0100
0000
0010
0001
0100
0000
,  // measure 67
2002
0000
0000
0000
,  // measure 68
0000
3003
0000
0000
;

//---------------dance-single - ----------------
#NOTES:
     dance-single:
     :
     Beginner:
     2:
     0.147560,0.135698,0.121520,0.000000,0.000000,90.000000,12.000000,0.000000,0.000000,0.000000,0.000000,0.147560,0.135698,0.121520,0.000000,0.000000,90.000000,12.000000,0.000000,0.000000,0.000000,0.000000:
0000
0000
0000
0000
,
0000
0000
0000
0000
,
0000
0000
0000
0000
,
0000
0000
0000
0000
,
0100
0000
0000
0000
,
1000
0000
1000
0000
,
1000
0000
0000
0000
,
0001
0000
0001
0000
,
0001
0000
0000
0000
,
1001
0000
0000
0000
,
1000
0000
0001
0000
,
1001
0000
0000
0000
,
0001
0000
1000
0000
,
1000
0000
0000
0000
,
0001
0000
0000
0000
,
1000
0000
0000
0000
,
0001
0000
0000
0000
,
0010
0000
0000
0000
,
0100
0000
0000
0000
,
0010
0000
0000
0000
,
0100
0000
0000
0000
,
1001
0000
0000
0000
,
1000
0000
0001
0000
,
1001
0000
0000
0000
,
0001
0000
1000
0000
,
1001
0000
0000
0000
,
1000
0000
0100
0000
,
1001
0000
0000
0000
,
0010
0000
0000
0000
,
1001
0000
0000
0000
,
0010
0000
0010
0000
,
1001
0000
0000
0000
,
0100
0000
0100
0000
,
1001
0000
0000
0000
,
0010
0000
0100
0000
,
1001
0000
0000
0000
,
0100
0000
0000
0000
,
1000
0000
0100
0000
,
1000
0000
0000
0000
,
0001
0000
0100
0000
,
0001
0000
0000
0000
,
1000
0000
0010
0000
,
1000
0000
0000
0000
,
0001
0000
0010
0000
,
0001
0000
0000
0000
,
1000
0000
0100
0000
,
0100
0000
0000
0000
,
0001
0000
0100
0000
,
0100
0000
0000
0000
,
1000
0000
0010
0000
,
0010
0000
0000
0000
,
0001
0000
0010
0000
,
0010
0000
0000
0000
,
1001
0000
0000
0000
,
1000
0000
0100
0000
,
0010
0000
0001
0000
,
1000
0000
0010
0000
,
0100
0000
0001
0000
,
1000
0000
1000
0000
,
0100
0000
0000
0000
,
0100
0000
0100
0000
,
0010
0000
0000
0000
,
0010
0000
0010
0000
,
0001
0000
0000
0000
,
0001
0000
0001
0000
,
1000
0000
0000
0000
,
0100
0000
0000
0000
,
1001
0000
0000
0000
;

//---------------dance-single - ----------------
#NOTES:
     dance-single:
     :
     Easy:
     6:
     0.335627,0.407093,0.070887,0.182280,0.000000,207.000000,7.000000,18.000000,0.000000,0.000000,0.000000,0.335627,0.407093,0.070887,0.182280,0.000000,207.000000,7.000000,18.000000,0.000000,0.000000,0.000000:
0000
0000
0000
0000
,
0000
0000
0000
0000
,
0000
0000
0000
0000
,
0000
0000
0000
0000
,
0000
0000
0000
0000
,
1000
0100
0010
0001
,
0100
1000
0100
0001
,
0001
0100
0010
1000
,
0100
0001
0100
1000
,
1000
0000
0000
1000
0000
0000
1000
0000
,
0100
0010
0001
0100
,
0001
0000
0000
0001
0000
0000
0001
0000
,
0100
0010
1000
0100
,
1000
0100
1000
0000
,
0001
0100
0001
0000
,
1000
0010
1000
0000
,
0001
0010
0001
0000
,
1000
0001
1000
0000
,
0100
0010
0100
0000
,
1000
0001
1000
0000
,
0010
0100
0010
0000
,
1000
0000
0000
1000
0000
0000
0100
0000
,
0010
0001
0100
0010
,
1000
0000
0000
1000
0000
0000
0010
0000
,
0100
0001
0010
0100
,
1000
0000
0000
0001
0000
0000
0001
0000
,
1000
0100
0010
0001
,
1000
0000
0000
1000
0000
0000
0001
0000
,
1001
0000
0000
0000
,
2001
0000
0001
0000
,
3001
0100
1000
0100
,
1002
0000
1000
0000
,
1003
0100
0001
0100
,
2000
0000
0000
3002
0000
0000
0000
0000
,
1003
0100
0001
0100
,
2001
0000
0001
0000
,
0002
0000
0000
3003
,
1000
0000
0000
0100
0000
0010
0000
0000
,
0001
0100
1000
0100
,
0001
0000
0000
0100
0000
0010
0000
0000
,
1000
0001
1000
0001
,
1000
0000
0000
0010
0000
0100
0000
0000
,
0001
0010
1000
0010
,
0001
0000
0000
0100
0000
0010
0000
0000
,
1000
0100
0001
0100
,
0010
0000
0000
0001
0000
0100
0000
0000
,
0010
1000
0100
0001
,
0100
0000
0000
1000
0000
0010
0000
0000
,
1000
0001
1000
0001
,
0010
0000
0000
0100
0000
1000
0000
0000
,
0010
0001
0010
1000
,
0100
0000
0000
0010
0000
0001
0000
0000
,
1000
0100
0001
0100
,
2002
0000
0000
3003
,
2000
0100
3200
0010
,
0320
0001
0032
1000
,
2003
0010
3020
0100
,
0230
0001
0302
1000
,
1003
0100
0001
0100
,
1000
0010
0100
0001
,
0010
1000
0010
0001
,
0100
0010
1000
0001
,
1000
0100
1000
0100
,
0001
0100
0001
0100
,
1000
0001
1000
0001
,
0010
0010
0010
0010
,
0220
0000
0000
0330
,
1001
0000
0000
0000
;
