#TITLE:Wonder Drive;
#SUBTITLE:;
#ARTIST:ORESAMA;
#TITLETRANSLIT:;
#SUBTITLETRANSLIT:;
#ARTISTTRANSLIT:;
#GENRE:;
#CREDIT:;
#BANNER:Wonder Drive-bn.png;
#BACKGROUND:Wonder Drive-bg.png;
#LYRICSPATH:;
#CDTITLE:;
#MUSIC:Wonder Drive.ogg;
#OFFSET:0.000000;
#SAMPLESTART:49.460045;
#SAMPLELENGTH:12.000000;
#SELECTABLE:YES;
#BPMS:0.000000=160.000000
;
#STOPS:
;
#BGCHANGES:;
#KEYSOUNDS:;
#ATTACKS:;

//---------------dance-single - ----------------
#NOTES:
     dance-single:
     :
     Beginner:
     1:
     0.117732,0.195452,0.089095,0.066821,0.000000,74.000000,66.000000,8.000000,6.000000,0.000000,0.000000,0.117732,0.195452,0.089095,0.066821,0.000000,74.000000,66.000000,8.000000,6.000000,0.000000,0.000000:
0000
0000
0000
0000
,
0000
0000
0000
0000
,
0000
0000
0000
0000
,
0000
0000
0000
0000
,
2002
0000
3003
0000
,
1000
0000
0000
0000
,
0001
0000
0000
0000
,
0010
0000
0000
0000
,
0010
0000
0000
0000
,
0001
0000
0000
0000
,
1000
0000
0000
0000
,
0010
0000
0000
0000
,
0100
0000
0000
0000
,
0001
0000
0001
0000
,
0000
0000
0000
0000
,
1000
0000
1000
0000
,
0000
0000
0000
0000
,
0010
0000
0010
0000
,
0000
0000
0000
0000
,
0100
0000
0100
0000
,
0010
0000
0010
0000
,
1000
0000
1000
0000
,
0000
0000
0000
0000
,
0001
0000
0001
0000
,
0000
0000
0000
0000
,
0010
0000
0010
0000
,
0000
0000
0000
0000
,
0100
0000
0100
0000
,
0000
0000
0000
0000
,
1000
0000
0000
0000
,
0100
0000
0000
0000
,
0010
0000
0001
0000
,
1000
0000
0000
0000
,
1001
0000
0000
0000
,
0100
0000
0100
0000
,
1001
0000
0000
0000
,
0010
0000
0010
0000
,
1001
0000
0000
0000
,
0100
0000
0100
0000
,
1001
0000
0000
0000
,
1001
0000
0000
0000
,
1001
0000
0000
0000
,
0001
0000
0001
0000
,
1001
0000
0000
0000
,
1000
0000
1000
0000
,
1000
0000
0001
0000
,
1000
0000
0001
0000
,
0010
0000
0010
0000
,
0100
0000
0000
0000
,
2000
0000
3000
0000
,
0002
0000
0003
0000
,
1000
0000
0000
0000
,
0001
0000
0000
0000
,
0100
0000
0000
0000
,
0100
0000
0000
0000
,
0001
0000
0000
0000
,
1000
0000
0000
0000
,
0200
0000
0300
0000
,
0020
0000
0030
0000
;

//---------------dance-single - OrangeRight----------------
#NOTES:
     dance-single:
     OrangeRight:
     Easy:
     4:
     0.221146,0.327145,0.122505,0.167053,0.000000,139.000000,128.000000,11.000000,15.000000,0.000000,0.000000,0.221146,0.327145,0.122505,0.167053,0.000000,139.000000,128.000000,11.000000,15.000000,0.000000,0.000000:
0000
0000
0000
0000
,
0000
0000
0000
0000
,
0000
0000
0000
0000
,
1000
0000
0000
0001
0000
0000
2002
0000
,
0000
0000
3003
0000
,
1000
0000
0000
0001
0000
0000
2000
0000
,
0000
0000
3000
0000
0000
0010
0000
0000
,
1000
0000
0000
0010
0000
0000
0200
0000
,
0000
0000
0300
0000
,
0001
0000
0000
1000
0000
0000
0001
0000
,
0000
0000
1000
0000
0000
0001
0000
0000
,
1001
0000
0000
0000
,
0110
0000
0000
0000
,
1000
0000
1000
0000
,
0001
0100
0010
0000
,
1000
0000
1000
0000
,
0001
0010
0100
0000
,
1000
0000
1000
0000
,
0001
0100
0001
0000
,
1000
0000
1000
0000
,
0001
1000
0001
0000
,
0001
0000
0001
0000
,
1000
0100
0010
0000
,
0001
0000
0001
0000
,
1000
0010
0100
0000
,
0001
0000
0001
0000
,
1000
0100
1000
0000
,
0001
0000
0001
0000
,
1000
0001
1000
0001
,
1001
0000
1001
0000
,
0110
0000
0110
0000
,
1001
0000
0000
1000
0000
0001
0000
2000
,
0000
0000
3000
0000
,
1000
1000
1000
0000
,
0100
0010
0001
0000
,
0001
0001
0001
0000
,
0001
0100
0010
0000
,
1000
1000
0100
0000
,
0010
0010
0001
0000
,
0100
0010
0100
0010
,
1000
0001
1000
0000
,
0001
0001
0001
0000
,
0100
0010
1000
0000
,
0010
0010
0010
0000
,
0100
0100
0100
0000
,
0001
1000
0001
0000
,
1000
0001
1000
0000
,
1000
0000
0000
0001
0000
0000
0220
0000
,
0000
0000
0330
0000
,
2000
0000
0000
3000
,
0002
0000
0000
0003
,
1000
0000
0000
0001
0000
0000
0200
0000
,
0000
0000
0300
0000
0000
0010
0000
0000
,
1000
0000
0000
0010
0000
0000
0200
0000
,
0000
0000
0300
0000
,
0001
0000
0000
1000
0000
0000
0010
0000
,
0000
0000
0100
0000
0000
0001
0000
0000
,
2002
0000
0000
3003
,
0220
0000
0000
0330
;

//---------------dance-single - OrangeRight----------------
#NOTES:
     dance-single:
     OrangeRight:
     Medium:
     7:
     0.367516,0.426193,0.233874,0.490021,0.000000,231.000000,210.000000,21.000000,44.000000,0.000000,0.000000,0.367516,0.426193,0.233874,0.490021,0.000000,231.000000,210.000000,21.000000,44.000000,0.000000,0.000000:
0000
0000
0000
0000
,
0000
0000
0000
0000
,
0000
0000
0000
0000
,
1001
0000
0000
0110
0000
0000
2002
0000
,
0000
0000
0000
3003
,
2000
0000
0000
3002
0000
0000
0203
0000
,
0000
0000
0001
0000
0000
0320
0000
0000
,
2030
0000
0000
3020
0000
0000
0230
0000
,
0000
0001
0000
0301
,
0002
0000
0000
2003
0000
0000
3200
0000
,
0000
0000
0320
0000
0000
0032
0000
0000
,
2000
0000
0000
3003
,
0220
0000
0000
0000
0330
0110
0000
0000
,
1000
0000
0100
1000
0100
0000
1000
0000
,
0010
0000
0100
0000
0001
0100
0001
0000
,
1000
0000
0010
1000
0010
0000
1000
0000
,
0100
0000
0010
0000
0001
0010
0001
0000
,
1000
0000
0001
1000
0001
0000
0100
0000
,
0010
0000
1000
0000
0100
0010
0100
0000
,
1000
0000
0001
1000
0001
0000
0010
0000
,
0001
0000
1000
0001
1000
0000
0010
0000
,
1000
0100
0010
0002
0000
0000
1003
0000
,
1000
0000
1000
0000
1000
0001
1000
0000
,
0001
0100
0010
2000
0000
0000
3001
0000
,
0001
0000
0001
0000
0001
1000
0001
0000
,
1000
0010
0100
0002
0000
0000
1003
0000
,
1000
0000
1000
0000
1000
0100
0010
0000
,
0001
0100
0010
2000
0000
0000
3001
0000
,
1000
0100
0010
0002
0000
1003
0000
0000
,
1001
0000
0110
0000
,
1000
0100
0010
0001
,
0110
0000
0000
1001
0000
0110
0000
2002
,
0000
0000
0000
3003
,
2010
0100
3010
0100
,
0001
0000
0010
0000
0100
1000
0100
0000
,
0012
0100
0013
0100
,
1000
0000
0010
0000
0100
0001
0100
0000
,
0001
0000
0010
0001
0010
0000
0001
0100
,
0000
0100
0000
0010
0000
0010
1000
0000
,
1001
0000
0000
0110
0000
0000
1000
0001
,
0000
0000
0001
1000
0000
1000
0001
0000
,
0102
0010
0103
0010
,
1000
0000
0100
0000
0010
0001
0010
0000
,
2100
0010
3100
1001
,
0102
0010
0103
1001
,
1000
0000
0100
1000
0100
0000
1000
0100
,
0000
0100
0000
0010
0000
0010
0001
0000
,
1000
0000
0001
1000
0000
1000
0001
0000
,
1000
0001
1000
0000
0100
0100
0100
0000
,
1000
0000
0001
0000
,
0100
0010
1000
0001
,
2000
0000
0000
3002
0000
0000
0023
0000
,
0000
0000
0001
0000
0000
0230
0000
0000
,
2300
0000
0000
3200
0000
0000
0320
0000
,
0000
0001
0000
0031
,
0002
0000
0000
2003
0000
0000
3020
0000
,
0000
0000
0230
0000
0000
0302
0000
0000
,
2000
0000
0000
3003
,
0220
0000
0000
0000
0330
0000
1000
0001
;

//---------------dance-single - OrangeRight----------------
#NOTES:
     dance-single:
     OrangeRight:
     Hard:
     11:
     0.529796,0.557330,0.490021,0.545706,0.000000,333.000000,289.000000,44.000000,49.000000,0.000000,0.000000,0.529796,0.557330,0.490021,0.545706,0.000000,333.000000,289.000000,44.000000,49.000000,0.000000,0.000000:
0000
0000
0000
0000
,
0000
0000
0000
0000
,
0000
0000
0000
0000
,
2002
0000
3003
0220
0000
0330
2002
0000
,
0000
0000
0000
3003
,
2000
0000
3001
0200
0000
0310
2000
0000
,
0001
0000
0100
0000
3010
0200
0001
0300
,
0002
0000
1003
0020
0000
0130
0002
0000
,
1000
0010
0100
1003
,
2000
0000
3010
0200
0000
0301
0020
0000
,
0031
0000
0002
0000
0103
0020
0000
1030
,
2001
0000
0001
0000
0001
0000
3001
0100
,
0020
0000
0100
0000
0130
2002
0000
3003
,
1001
0000
1000
0001
1000
0000
0010
0000
,
0100
0000
0001
0000
0010
0200
0010
0300
,
1001
0000
0001
1000
0001
0000
0010
0000
,
0100
0000
1000
0000
0010
0200
0010
0300
,
1001
0000
1000
0010
1000
0000
0001
0000
,
0100
0000
0010
0000
1000
0002
1000
0003
,
1001
0000
0001
0010
0001
0000
0100
0000
,
1001
0000
1000
0010
1000
0000
0100
0000
,
1000
0100
0010
0001
0000
0100
0000
0010
,
0000
1000
0000
0100
0010
0002
0000
1000
,
1003
0010
0100
0001
0000
1000
0001
0000
,
0100
0000
0010
0000
1000
0002
1000
0003
,
1000
0001
0100
0010
1000
0010
0000
0101
,
0000
0001
0100
0010
1000
0200
0000
0000
,
1300
0100
0010
0001
0100
0010
0000
1001
,
0000
0000
0100
0010
0000
0110
0000
0000
,
1001
0100
1001
0010
,
1000
0100
0010
0001
0100
0010
1000
0000
,
1001
0000
0010
0110
0000
1001
0000
0210
,
0000
0001
0001
0301
,
1001
0000
0101
0000
1001
0000
0001
1000
,
0100
1000
0001
1000
0010
0100
0001
0000
,
1001
0000
1100
0000
1001
0000
1000
0001
,
0010
0001
1000
0001
0100
0010
1000
0000
,
1010
0000
1000
0010
0100
0001
0010
0110
,
0000
1001
0000
0110
0000
0010
0100
0001
,
2000
0000
3001
0200
0000
0310
1000
0200
,
0000
0310
0002
1000
0000
0100
0103
0000
,
0101
0000
1010
0000
0101
0000
0001
0100
,
0010
0100
0001
1000
0100
1000
0010
0000
,
1100
0000
0011
0000
1100
0000
1000
0100
,
1000
0001
0100
0010
1000
0000
0110
0000
,
1001
0000
0010
0100
1000
0010
0100
0101
,
0000
1001
0000
0011
0000
0001
1000
0000
,
2001
0000
3100
1002
0000
0103
1001
0000
,
1000
0001
0100
0010
1000
0100
0010
0001
,
1000
0100
0000
1000
0001
0100
0000
0001
,
0100
0010
0100
1000
0100
0010
0100
0001
,
2000
0000
3001
0020
0000
0130
2000
0000
,
0001
0000
0010
0000
3100
0020
0001
0030
,
0002
0000
1003
0200
0000
0310
0002
0000
,
1000
0100
0010
1003
,
2000
0000
3100
0020
0000
0031
0200
0000
,
0301
0000
0002
0000
0013
0200
0000
1300
,
2001
0000
0001
0000
0001
0000
3001
0010
,
0200
0000
0000
0000
0000
0000
1300
0001
;

//---------------dance-single - OrangeRight----------------
#NOTES:
     dance-single:
     OrangeRight:
     Challenge:
     16:
     0.916404,0.950739,0.679348,0.501158,0.595821,576.000000,515.000000,61.000000,45.000000,0.000000,0.000000,0.916404,0.950739,0.679348,0.501158,0.595821,576.000000,515.000000,61.000000,45.000000,0.000000,0.000000:
// measure 0
0000
0000
0000
0000
,  // measure 1
0000
0000
0000
0000
,  // measure 2
0000
0000
0000
0000
,  // measure 3
2200
0000
3300
0022
0000
0033
1001
0000
,  // measure 4
1000
0100
1000
0100
0010
0001
0010
0100
1000
0001
0100
0010
1000
0010
0100
0001
,  // measure 5
2000
0100
3100
0020
0001
0031
0200
0010
,  // measure 6
0310
1000
0010
0001
0010
0200
0001
0301
,  // measure 7
2000
0010
3010
0200
0001
0301
0020
0100
,  // measure 8
0130
0000
1000
0000
0100
0000
0001
0000
0100
1000
0100
0000
0020
0000
0000
0000
,  // measure 9
0032
0100
0103
0020
1000
1030
0200
0010
,  // measure 10
0310
0001
0020
0001
0031
0200
0001
0301
,  // measure 11
2000
0000
0000
0000
0001
0000
0000
0000
0001
0000
0000
0000
3001
0000
0001
1000
,  // measure 12
0002
0000
1000
0000
1003
0220
0000
0330
,  // measure 13
1010
0010
1000
1100
0100
1000
0001
1000
,  // measure 14
0010
1000
0100
1000
0001
2001
0001
3010
,  // measure 15
0011
0010
0001
0101
0100
0001
1000
0001
,  // measure 16
0010
0001
0100
0001
1000
1002
1000
0103
,  // measure 17
1100
0100
1000
1010
0010
1000
0001
1000
,  // measure 18
0100
1000
0010
1000
0001
2001
0001
3100
,  // measure 19
0101
0100
0001
0011
0010
0001
1000
0001
,  // measure 20
1000
0100
0010
0001
1000
0100
0010
0001
1000
0010
0100
0001
1000
0010
0100
0001
,  // measure 21
1000
0000
0100
1000
0100
0000
1010
0000
0100
0001
0100
0000
0001
0000
1000
0001
,  // measure 22
0010
0000
0100
1000
0100
0000
0010
0000
0001
0000
2001
0000
0010
0000
3001
0000
,  // measure 23
0001
0000
0010
0001
0010
0000
0101
0000
0010
1000
0010
0000
1000
0000
0001
1000
,  // measure 24
0100
0000
0010
0001
0010
0000
0100
0000
1000
0000
1002
0000
0100
0000
1003
0000
,  // measure 25
1100
0000
1000
0001
0100
0000
0101
0000
0100
0001
0010
0000
0100
0000
1000
0001
,  // measure 26
1000
0000
1000
0001
0010
0000
0100
1000
0001
1000
0020
0000
1000
0000
0130
0000
,  // measure 27
0101
0000
0001
1000
0100
0000
1100
0000
1000
0001
0100
0000
0001
1000
0001
1000
,  // measure 28
0001
0000
0001
0100
0010
0000
0010
1000
0100
0000
0110
0000
0000
0000
1001
0000
,  // measure 29
1001
0100
0010
1001
1001
0010
0100
1001
,  // measure 30
1001
0100
0010
1000
0010
0001
0010
0000
,  // measure 31
1001
0000
0010
0110
0000
1001
0000
0110
,  // measure 32
1000
0001
1000
0001
0100
0010
0100
0010
1000
0001
1000
0001
1001
0000
0000
0000
,  // measure 33
1000
0100
1000
0000
0001
0100
0001
0000
1000
0001
1000
0000
0100
0000
0010
0100
,  // measure 34
0010
0000
0100
1000
0010
0100
0001
0010
0100
1000
0001
0000
0110
0000
0000
0000
,  // measure 35
0001
0100
0001
0000
1000
0100
1000
0000
0001
1000
0001
0000
0100
0000
0010
0100
,  // measure 36
0010
0000
0100
0001
0010
0100
1000
0010
0100
0001
1000
0000
0110
0000
0000
0000
,  // measure 37
1010
0000
1000
0000
0100
1000
0010
0100
0001
0010
0100
1000
0001
1000
0001
0000
,  // measure 38
0100
0110
0100
0101
0100
0110
1010
1001
,  // measure 39
1000
0100
1000
0000
0001
0000
0100
0001
0100
0000
0010
1000
0001
0100
0120
0000
,  // measure 40
0000
0000
1000
0000
1030
0000
2010
0000
0000
0000
0100
0000
3100
0010
0001
1000
,  // measure 41
0001
0010
0001
0000
1000
0010
1000
0000
0001
1000
0001
0000
0010
0000
0100
0010
,  // measure 42
0100
0000
0010
0001
0100
0010
1000
0100
0001
0100
1000
0000
0110
0000
0000
0000
,  // measure 43
1000
0010
1000
0000
0001
0010
0001
0000
1000
0001
1000
0000
0010
0000
0100
0010
,  // measure 44
0100
0000
0010
1000
0100
0010
0001
0100
1000
0100
0001
0000
0110
0000
0000
0000
,  // measure 45
0101
0000
0001
0100
1000
0001
0010
1010
,  // measure 46
1000
1100
0100
0110
0010
0011
0011
0000
,  // measure 47
1001
0000
0000
0000
0100
0010
0110
0000
0000
0000
1000
0001
1001
0000
0000
0000
,  // measure 48
1000
0000
0001
0000
0100
0010
0100
0000
0001
0000
0100
0000
0010
0000
1000
0000
,  // measure 49
0001
0101
0000
1000
0100
1100
0000
0010
,  // measure 50
0110
0000
0000
0000
0010
0000
0100
0000
0001
0010
0100
0000
1000
0001
1000
0000
,  // measure 51
1000
0100
2000
0000
0100
0000
3001
0100
0002
0000
0100
0000
1003
0010
2000
0000
,  // measure 52
0001
0000
0000
0000
3001
0000
0100
0000
0010
0000
1000
0001
1000
0000
0100
0000
,  // measure 53
1000
0010
2000
0000
0010
0000
3001
0010
0002
0000
0010
0000
1003
0100
2000
0000
,  // measure 54
0001
0000
0000
0000
0010
0000
0100
0000
3001
0010
0100
0000
2000
0000
0001
0000
,  // measure 55
3001
1000
0002
0000
1000
0000
0013
0100
0020
0000
0100
0000
0031
1000
0002
0000
,  // measure 56
1000
0000
0010
0000
0103
0010
0200
0000
0010
0000
0310
1000
0010
0000
1000
0000
,  // measure 57
0200
0000
0000
0000
2300
0000
0000
0000
3020
0000
0000
0000
0032
0000
0013
1000
,  // measure 58
0200
0000
0000
0000
0001
0000
0000
0000
1300
0001
1000
0000
1001
0000
0110
0000
;
