#VERSION:0.83;
#TITLE:Where is the Love;
#SUBTITLE:;
#ARTIST:Wizzzard;
#TITLETRANSLIT:;
#SUBTITLETRANSLIT:;
#ARTISTTRANSLIT:;
#GENRE:;
#ORIGIN:;
#CREDIT:;
#BANNER:Where Is The Love-BN.png;
#BACKGROUND:Where Is The Love-BG.png;
#PREVIEWVID:;
#JACKET:Where Is The Love-jacket.png;
#CDIMAGE:;
#DISCIMAGE:;
#LYRICSPATH:;
#CDTITLE:;
#MUSIC:Where Is The Love.ogg;
#OFFSET:0.000000;
#SAMPLESTART:49.760017;
#SAMPLELENGTH:12.000000;
#SELECTABLE:YES;
#BPMS:0.000=135.046;
#STOPS:;
#DELAYS:;
#WARPS:;
#TIMESIGNATURES:0.000=4=4;
#TICKCOUNTS:0.000=4;
#COMBOS:0.000=1;
#SPEEDS:0.000=1.000=0.000=0;
#SCROLLS:0.000=1.000;
#FAKES:;
#LABELS:0.000=Song Start;
#BGCHANGES:;
#KEYSOUNDS:;
#ATTACKS:
;

//---------------dance-single - ----------------
#NOTEDATA:;
#CHARTNAME:;
#STEPSTYPE:dance-single;
#DESCRIPTION:;
#CHARTSTYLE:;
#DIFFICULTY:Easy;
#METER:4;
#RADARVALUES:0.246676,0.316906,0.091415,0.000000,0.000000,170.000000,161.000000,9.000000,0.000000,0.000000,0.000000,0.000000,0.000000,0.000000,0.246676,0.316906,0.091415,0.000000,0.000000,170.000000,161.000000,9.000000,0.000000,0.000000,0.000000,0.000000,0.000000,0.000000;
#CREDIT:;
#NOTES:
0000
0000
0000
0000
,
0000
0000
0000
0000
,
0000
0000
0000
0000
,
0000
0000
0000
0000
,
1000
0001
1000
1000
,
0001
0100
0010
1000
,
0100
0000
0010
0000
,
0100
0000
0010
0000
,
0001
0000
0001
0001
,
1000
0010
0100
0001
,
0010
0000
0100
0000
,
1000
0001
1000
0001
,
1000
0100
0001
0000
,
0001
0100
1000
0000
,
1000
0010
0100
0001
,
1000
0000
0001
0000
,
1000
0100
0100
1000
,
0001
0100
0100
0001
,
1000
0010
0010
1000
,
0001
0010
0010
0100
,
1000
0100
1000
0010
,
0100
0000
0001
0000
,
1000
0001
0100
0010
,
1000
0000
0001
0000
,
1001
0000
0010
0000
,
1000
0100
0010
0001
,
1000
0100
0100
1000
,
0001
0100
0100
0001
,
1000
0100
0001
0000
,
0001
0100
1000
0000
,
1000
0001
0100
0010
,
1001
0000
1001
0000
,
0001
0010
1000
0000
,
1000
0010
0001
0000
,
0001
1000
0010
0100
,
1001
0000
1001
0000
,
1000
0000
1000
0100
,
0001
0000
0001
0100
,
1000
0000
1000
0010
,
0001
0010
1000
0001
,
1001
1000
0001
1000
,
1001
0001
0100
0010
,
0110
0000
0100
0000
0010
0000
1000
0001
,
1000
0000
0000
0000
,
1000
0100
1000
1000
,
0001
0100
0001
0001
,
1000
0001
0100
0010
,
1000
0001
0010
0100
,
1000
0010
1000
1000
,
0001
0010
0001
0001
,
1000
0000
0000
0001
0000
0000
0100
0000
,
0010
0000
0100
0010
,
1001
0000
0000
0000
;

//---------------dance-single - ----------------
#NOTEDATA:;
#CHARTNAME:;
#STEPSTYPE:dance-single;
#DESCRIPTION:;
#CHARTSTYLE:;
#DIFFICULTY:Challenge;
#METER:14;
#RADARVALUES:0.795166,0.792264,0.843050,0.060943,0.944623,548.000000,465.000000,83.000000,6.000000,0.000000,0.000000,0.000000,0.000000,0.000000,0.795166,0.792264,0.843050,0.060943,0.944623,548.000000,465.000000,83.000000,6.000000,0.000000,0.000000,0.000000,0.000000,0.000000;
#CREDIT:OrangeRight;
#NOTES:
0000
0000
0000
0000
,
0000
0000
0000
0000
,
0000
0000
0000
0000
,
0000
0000
0000
0000
,
2100
0000
0000
0001
3100
0010
1000
0001
0000
0101
0000
1001
0000
0011
0000
0001
,
0010
0100
1000
0000
0010
1000
0000
1010
0000
0110
0000
0101
0000
1001
0000
0001
,
1000
0100
0000
0010
0001
0000
1000
0010
0000
0100
0001
0000
1000
0001
0000
0010
,
0001
0100
0000
0010
1000
0000
0001
0010
0000
0100
1000
0000
0001
1000
0000
1000
,
0002
0000
0000
1000
0103
0010
0001
1000
0000
1100
0000
1001
0000
1010
0000
1000
,
0010
0100
0001
0000
0010
0001
0000
0011
0000
0110
0000
1100
0000
1001
0000
1000
,
0001
0100
0000
0010
1000
0000
0001
0010
0000
0100
1000
0000
0001
1000
0000
0010
,
0000
1100
0000
0000
0110
0000
0000
0011
0000
0101
0000
0100
0010
1000
0001
0000
,
1000
0000
0100
1000
0100
0000
0010
0000
2100
0000
0001
0000
3010
0000
0000
0000
,
0001
0000
0100
0001
0100
0000
0010
0000
0102
0000
1000
0000
0013
0000
0000
0000
,
0001
0010
0110
0100
1100
1000
1001
0110
,
1000
0100
0010
0001
0100
0010
1000
0001
,
1000
0100
0000
1000
0010
0000
0100
0001
0000
0010
0001
0000
1000
0001
0000
0000
,
0001
0100
0000
0001
0010
0000
0100
1000
0000
0010
1000
0000
0001
1000
0000
0000
,
1000
0100
0000
0010
0100
0000
0001
0100
0000
0010
0100
0000
1000
0001
0000
0000
,
0001
0100
0000
0010
0100
0000
1000
0100
0000
0010
0100
0000
0001
1000
0000
0000
,
1000
0100
1000
0000
0010
0000
0100
0001
0100
0000
0001
0000
0010
0000
0100
1000
,
0010
0100
0001
0000
1000
0000
0010
0000
0100
0000
0001
0000
1000
0000
0001
0000
,
1100
0001
1001
0010
1010
0001
1001
0100
,
0001
0000
0010
0001
0000
0010
0001
0000
1000
0000
0100
1000
0000
0000
1000
0100
,
1000
0010
1000
0000
0010
0000
0100
0000
0001
1000
0001
0000
0100
0000
0010
0000
,
1000
0100
0010
0000
0001
0010
0100
0000
1000
0010
0100
0000
0001
0100
0010
0000
,
1000
0100
0000
0010
0100
0000
0001
0100
0000
0010
0100
0000
1000
0001
0000
0000
,
1000
0010
0000
0100
0010
0000
0001
0010
0000
0100
0010
0000
1000
0001
0000
0000
,
1000
0000
0010
1000
0010
0000
0100
0000
0010
1000
0000
0001
0010
0000
0001
1000
,
0001
0000
0010
0001
0010
0000
0100
0000
0010
0001
0000
1000
0010
0000
1000
0001
,
1000
0100
1100
1000
1010
0010
0110
1001
,
0110
0000
1001
0000
1100
0011
1010
0101
,
1000
0000
0100
1000
0100
0000
0010
0000
0100
1000
0000
0001
0100
0000
0001
1000
,
0001
0000
0100
0001
0100
0000
0010
0000
0100
0001
0000
1000
0100
0000
1000
0001
,
1000
0010
1010
1000
1100
0100
0110
1001
,
0110
0000
1001
0000
0101
1010
1100
0011
,
1000
0000
0001
0000
1000
0000
0001
0000
0100
0000
0010
0000
0100
0000
0010
0100
,
0001
0000
1000
0000
0001
0000
1000
0000
0010
0000
0100
0000
0010
0000
0100
0010
,
1000
0100
0000
0010
0001
0000
1000
0010
0000
0100
0001
0000
1000
0001
0000
0100
,
0001
0010
0000
0100
1000
0000
0001
0100
0000
0010
1000
0000
0001
1000
0000
0000
,
1001
0100
1001
0010
1001
0100
1001
1001
,
0110
0000
1000
0000
0110
0000
0001
0000
0110
0000
1000
0001
1000
0000
0110
0000
,
1001
0010
1001
0100
1001
0010
0110
1001
,
0110
1000
0000
0000
0001
0000
0000
1000
0000
0001
0000
1000
0001
1000
0001
0000
,
2100
0000
0000
0001
3100
0010
1000
0001
0000
0101
0000
1001
0000
0011
0000
0001
,
0010
0100
1000
0000
0010
1000
0000
1010
0000
0110
0000
0101
0000
1001
0000
0001
,
1000
0100
0000
0010
0001
0000
1000
0010
0000
0100
0001
0000
1000
0001
0000
0010
,
0001
0100
0000
0010
1000
0000
0001
0010
0000
0100
1000
0000
0001
1000
0000
1000
,
0002
0000
0000
1000
0103
0010
0001
1000
0000
1100
0000
1001
0000
1010
0000
1000
,
0010
0100
0001
0000
0010
0001
0000
0011
0000
0110
0000
1100
0000
1001
0000
1000
,
0001
0000
0000
0000
1000
0000
0001
1000
0001
0000
0100
0000
0010
0000
1000
0000
0000
0000
0010
0000
0000
0000
0100
0001
0100
0000
0010
0000
1000
0000
0100
0000
,
0010
0001
0000
0000
0110
0000
0000
1001
0000
0110
0000
1000
0001
0100
0010
0000
,
0110
0000
0000
0000
;

//---------------dance-single - ----------------
#NOTEDATA:;
#CHARTNAME:;
#STEPSTYPE:dance-single;
#DESCRIPTION:;
#CHARTSTYLE:;
#DIFFICULTY:Hard;
#METER:11;
#RADARVALUES:0.449820,0.526906,0.264088,0.000000,0.248852,310.000000,284.000000,26.000000,0.000000,0.000000,0.000000,0.000000,0.000000,0.000000,0.449820,0.526906,0.264088,0.000000,0.248852,310.000000,284.000000,26.000000,0.000000,0.000000,0.000000,0.000000,0.000000,0.000000;
#CREDIT:;
#NOTES:
0000
0000
0000
0000
,
0000
0000
0000
0000
,
0000
0000
0000
0000
,
0000
0000
0000
0000
,
1001
0000
1000
0100
1000
0001
0100
0000
,
0010
1000
0010
1000
0001
0100
0001
0000
,
1000
0001
1000
0001
0100
0010
0100
0000
,
0001
1000
0001
1000
0100
0010
0100
0000
,
1001
0000
1000
0010
1000
0001
0010
0000
,
0100
1000
0100
1000
0001
0010
0001
0000
,
1000
0001
1000
0001
0100
0010
0100
0000
,
0001
1000
0001
1000
0100
0010
0100
0000
,
0000
1000
0100
1000
0100
0000
0000
0000
,
0000
0001
0100
0001
0100
0000
0000
0000
,
0000
0000
1100
0000
1001
0000
1000
0010
,
1000
0100
0010
0001
,
0001
1000
0000
0001
1000
0000
0000
0010
0000
0000
0100
0000
0000
0001
0000
0000
,
1000
0001
0000
1000
0001
0000
0000
0010
0000
0000
0100
0000
0000
1000
0000
0000
,
0001
0100
0000
0001
0100
0000
0000
0010
0000
0000
1000
0000
0000
0001
0000
0000
,
1000
0010
0000
1000
0010
0000
1000
0010
0000
1000
0010
0000
1000
0010
0000
0000
,
1000
0100
1000
0000
0010
0000
0010
0000
,
0100
0001
0100
0000
0010
0000
0010
0000
,
1000
0001
0100
0001
0100
0001
1000
0100
,
1000
0010
0100
0001
,
1000
0010
1000
0000
0100
0000
0100
0000
,
0010
0001
0100
0010
1000
0100
1000
0000
,
0001
1000
0000
0001
1000
0000
0000
0010
0000
0000
0100
0000
0000
0010
0000
0000
,
1000
0001
0000
1000
0001
0000
0000
0100
0000
0000
0010
0000
0000
0100
0000
0000
,
0000
1000
0100
0001
0100
0000
0000
0000
,
0000
0001
0100
1000
0100
0000
0000
0000
,
0000
0000
0101
0000
1001
0000
0001
0010
,
0100
0000
1000
0000
0001
0100
0010
1000
,
0000
1000
0010
0001
0010
0000
0000
0000
,
0000
0001
0010
1000
0010
0000
0000
0000
,
0000
0000
1010
0000
1001
0000
1000
0100
,
1000
0000
0000
0000
0001
0000
0000
0000
0100
0000
0010
0000
1000
0000
0001
1000
,
0001
0000
0000
0000
0000
0000
0000
0000
0000
0000
0100
0000
0010
0000
1000
0001
,
1000
0000
0000
0000
0000
0100
0010
0100
,
1000
0001
0000
1000
0001
0000
0000
0010
0000
0000
0100
0000
0000
1000
0000
0000
,
0001
1000
0000
0001
1000
0000
0000
0010
0000
0000
0100
0000
0000
0001
0000
0000
,
1001
0000
1001
0000
1001
0000
0010
0100
,
1001
0000
1001
0000
1001
0100
0010
0100
,
1001
0000
1001
0000
1001
0000
1000
0001
,
0110
0000
0000
0000
,
1001
0000
1000
0100
1000
0001
0100
1000
,
0100
0001
1000
0010
0001
0010
1000
0001
,
1000
0001
0000
1000
0001
0000
0000
0100
0000
0000
0010
0000
0000
0100
0000
0000
,
0001
0010
0000
0001
0010
0000
0100
1000
0000
0100
1000
0000
0001
1000
0000
0000
,
1001
0000
1000
0010
1000
0001
0010
1000
,
0010
0001
1000
0100
0001
0100
1000
0001
,
1001
0000
0000
1100
0000
0000
0101
0000
0000
0000
0011
0000
0000
1010
0000
0000
,
0110
0000
0000
0000
0000
0000
0000
0000
1000
0001
0000
1000
0000
0001
1000
0000
;

//---------------dance-single - ----------------
#NOTEDATA:;
#CHARTNAME:;
#STEPSTYPE:dance-single;
#DESCRIPTION:;
#CHARTSTYLE:;
#DIFFICULTY:Medium;
#METER:8;
#RADARVALUES:0.356954,0.396132,0.253931,0.000000,0.010157,246.000000,221.000000,25.000000,0.000000,0.000000,0.000000,0.000000,0.000000,0.000000,0.356954,0.396132,0.253931,0.000000,0.010157,246.000000,221.000000,25.000000,0.000000,0.000000,0.000000,0.000000,0.000000,0.000000;
#CREDIT:;
#NOTES:
0000
0000
0000
0000
,
0000
0000
0000
0000
,
0000
0000
0000
0000
,
0000
0000
0000
0000
,
1001
0000
1000
0100
1000
0000
0010
0000
,
0100
0001
0100
0000
0010
1000
0010
0000
,
1001
1001
0100
0100
,
1001
1001
0010
0010
,
1001
0000
0001
0010
0001
0000
0100
0000
,
0010
1000
0010
0000
0100
0001
0100
0000
,
1001
1001
0010
0010
,
1001
1001
0100
0100
,
0000
1000
0001
1000
0001
0000
0000
0000
,
0000
0001
1000
0001
1000
0000
0000
0000
,
0000
0000
1001
0000
0110
0000
1000
0001
,
0000
0000
0000
0000
,
1000
0001
1000
0000
0100
0000
0100
0000
,
1000
0001
1000
0000
0010
0000
0010
0000
,
0100
0010
0100
0000
1000
0000
1000
0000
,
0100
1000
0001
0010
0100
1000
0001
0000
,
1000
0100
1000
0001
,
1000
0010
0100
0001
,
0010
0000
0001
0000
0100
0001
0100
0001
,
0010
0100
1000
0001
,
1000
0100
1000
0000
0001
0000
0100
0000
,
0010
0100
0010
0100
0001
1000
0001
0000
,
1000
0001
1000
0000
0100
0000
0100
0000
,
1000
0001
1000
0000
0010
0000
0010
0000
,
0000
1000
0100
1000
0100
0000
0000
0000
,
0000
0010
0001
0010
0001
0000
0000
0000
,
0000
0000
1001
0000
0110
0000
1000
0001
,
0000
0000
0000
0000
,
0000
0001
0100
0001
0100
0000
0000
0000
,
0000
0010
1000
0010
1000
0000
0000
0000
,
0000
0000
1001
0000
0110
0000
0001
1000
,
0000
0000
0000
0000
0000
0000
1000
0001
,
1000
0000
0100
0000
0010
0000
0001
1000
,
0001
0000
0100
0000
0010
0000
1000
0001
,
1000
0100
1000
0000
0001
0000
0100
0000
,
0001
0100
0001
0000
1000
0000
0100
0000
,
1001
0000
1000
0000
0001
0000
1000
0001
,
1001
0000
0001
0000
1000
0001
0100
0010
,
0110
0000
0100
0000
0010
0000
0100
0010
,
1001
0000
0000
0000
,
1001
0000
1000
0010
1000
0010
0100
0000
,
0001
0010
0001
0010
0001
0010
0100
0000
,
1000
0001
1000
0000
0100
0000
0010
0000
,
0001
1000
0001
0000
0100
0000
0010
0000
,
1001
0000
1000
0100
1000
0100
0010
0000
,
0001
0100
0001
0100
0001
0100
0010
0000
,
1000
0000
0000
0001
0000
0000
1001
0000
0000
0000
0100
0000
0000
0010
0000
0000
,
0110
0000
0000
0000
1000
0001
1000
0000
,
0110
0000
0000
0000
;

//---------------dance-solo - ----------------
#NOTEDATA:;
#CHARTNAME:;
#STEPSTYPE:dance-solo;
#DESCRIPTION:;
#CHARTSTYLE:;
#DIFFICULTY:Hard;
#METER:11;
#RADARVALUES:0.471586,0.554585,0.274245,0.000000,0.253931,325.000000,296.000000,27.000000,0.000000,0.000000,1.000000,0.000000,0.000000,0.000000,0.471586,0.554585,0.274245,0.000000,0.253931,325.000000,296.000000,27.000000,0.000000,0.000000,1.000000,0.000000,0.000000,0.000000;
#CREDIT:;
#NOTES:
000000
000000
000000
000000
,
000000
000000
000000
000000
,
000000
000000
000000
000000
,
000000
000000
000000
000000
,
100000
000000
001000
100000
010000
100000
000100
000000
,
001000
000001
000010
000001
000100
000001
010000
000001
,
100000
000001
100000
000001
001000
000100
010000
000000
,
000001
100000
000001
100000
001000
000100
000010
000000
,
100000
000000
000100
100000
010000
100000
001000
000000
,
100000
001000
010000
000100
001000
000010
000100
000001
,
100000
000001
100000
000001
001000
000100
010000
000000
,
000001
100000
000001
100000
001000
000100
000010
000000
,
000000
010000
001000
010000
001000
000000
000000
000000
,
000000
000010
001000
000010
001000
000000
000000
000000
,
000000
000000
101000
000000
100001
000000
100000
000010
,
010000
001000
100000
000010
,
010000
000010
000000
010000
000010
000000
000000
001000
000000
000000
001000
000000
000000
001000
000000
000000
,
000010
010000
000000
000010
010000
000000
000000
001000
000000
000000
001000
000000
000000
001000
000000
000000
,
100000
001000
000000
100000
001000
000000
000000
010000
000000
000000
000010
000000
000000
001000
000000
000000
,
000001
100000
000000
000001
100000
000000
000001
100000
000000
000001
100000
000000
000001
100000
000000
000000
,
100000
001000
100000
000000
000100
000000
000100
000000
,
001000
000001
001000
000000
000100
000000
000100
000000
,
100000
001000
100000
000001
001000
000001
001000
000001
,
100000
001000
000100
000001
,
100000
000010
100000
000000
000001
010000
000001
000000
,
000010
000001
001000
000100
100000
010000
100000
000000
,
100000
001000
000000
100000
001000
000000
000000
000100
000000
000000
000001
000000
000000
000010
000000
000000
,
000001
001000
000000
000001
001000
000000
000000
000100
000000
000000
100000
000000
000000
010000
000000
000000
,
000000
100000
001000
000010
001000
000000
000000
000000
,
000000
000001
001000
010000
001000
000000
000000
000000
,
100000
000000
100100
000000
100010
000000
000001
100000
,
100001
000000
010010
000000
000001
001000
000100
100000
,
000000
000010
001000
100000
001000
000000
000000
000000
,
000000
010000
001000
000001
001000
000000
000000
000000
,
000001
000000
000101
000000
010001
000000
100000
000001
,
100001
000000
000000
000000
001100
000000
000000
000000
100000
000000
001000
000000
000100
000000
000001
100000
,
000001
000000
000000
000000
000000
000000
000000
000000
000001
000000
001000
000000
000100
000000
100000
000001
,
100000
000000
000000
000000
000000
001000
010000
001000
,
100000
001000
000000
100000
001000
000000
000000
100000
000000
000000
000001
000000
000000
001000
000000
000000
,
000001
001000
000000
000001
001000
000000
000100
100000
000000
000100
100000
000000
000100
100000
000000
000000
,
100001
000000
100001
000000
100001
000000
001000
000100
,
100001
000000
100001
000000
100001
000010
010000
001000
,
101000
000000
000101
000000
100100
000000
001000
000100
,
110011
000000
000000
000000
,
100000
001000
010000
000100
001000
000010
000100
000001
,
000010
001000
010000
001000
000001
001000
100000
001000
,
100000
000001
000000
100000
000010
000000
000000
010000
000000
000000
001000
000000
000000
100000
000000
000000
,
000001
001000
000000
000001
001000
000000
000100
100000
000000
000100
100000
000000
000100
100000
000000
000000
,
000001
001000
000010
000100
001000
010000
000100
100000
,
010000
001000
000010
001000
100000
001000
000001
001000
,
001001
000000
000000
001010
000000
000000
010010
000000
000000
000000
101000
000000
000000
011000
000000
000000
,
010010
000000
000000
000000
000000
000000
000000
000000
010000
000010
000000
100000
000000
000001
001000
000000
,
001100
000000
000000
000000
;

//---------------dance-single - ----------------
#NOTEDATA:;
#CHARTNAME:;
#STEPSTYPE:dance-single;
#DESCRIPTION:;
#CHARTSTYLE:;
#DIFFICULTY:Beginner;
#METER:2;
#RADARVALUES:0.140750,0.184862,0.081258,0.000000,0.000000,97.000000,89.000000,8.000000,0.000000,0.000000,0.000000,0.000000,0.000000,0.000000,0.140750,0.184862,0.081258,0.000000,0.000000,97.000000,89.000000,8.000000,0.000000,0.000000,0.000000,0.000000,0.000000,0.000000;
#CREDIT:;
#NOTES:
0000
0000
0000
0000
,
0000
0000
0000
0000
,
0000
0000
0000
0000
,
0000
0000
0000
0000
,
1000
0000
1000
0000
,
0001
0000
0001
0000
,
0100
0000
0100
0000
,
0100
0000
0100
0000
,
0001
0000
0001
0000
,
1000
0000
1000
0000
,
0010
0000
0010
0000
,
0010
0000
0010
0000
,
1000
0000
1000
0000
,
0001
0000
0001
0000
,
0100
0000
0010
0000
,
0100
0000
0000
0000
,
0100
0000
0100
0000
,
0010
0000
0010
0000
,
1000
0000
1000
0000
,
0001
0000
0001
0000
,
1000
0000
0100
0000
,
0010
0000
0000
0000
,
0001
0000
0100
0000
,
0010
0000
0000
0000
,
1000
0000
0001
0000
,
1000
1000
1000
0000
,
0001
0000
0001
0000
,
0100
0000
0100
0000
,
0010
0000
0010
0000
,
0100
0000
0100
0000
,
0001
0000
1000
0000
,
0001
0000
0000
0000
,
0010
0000
0010
0000
,
0100
0000
0100
0000
,
1000
0000
0001
0000
,
1000
0000
0000
0000
,
1001
0000
0000
0000
,
1001
0000
0000
0000
,
1000
0000
1000
0000
,
0001
0000
0001
0000
,
1001
0000
0000
0000
,
1001
0000
0000
0000
,
1001
0000
0000
0000
,
1001
0000
0000
0000
,
1000
0000
0100
0000
,
1000
0000
1000
0000
,
0010
0010
0010
0000
,
0100
0100
0100
0000
,
0001
0000
0001
0000
,
0100
0000
0001
0000
,
1001
0000
0010
0000
,
0100
0000
1000
0000
,
1001
0000
0000
0000
;

//---------------dance-solo - ----------------
#NOTEDATA:;
#CHARTNAME:;
#STEPSTYPE:dance-solo;
#DESCRIPTION:;
#CHARTSTYLE:;
#DIFFICULTY:Easy;
#METER:4;
#RADARVALUES:0.248127,0.369723,0.111730,0.000000,0.000000,171.000000,160.000000,11.000000,0.000000,0.000000,0.000000,0.000000,0.000000,0.000000,0.248127,0.369723,0.111730,0.000000,0.000000,171.000000,160.000000,11.000000,0.000000,0.000000,0.000000,0.000000,0.000000,0.000000;
#CREDIT:;
#NOTES:
000000
000000
000000
000000
,
000000
000000
000000
000000
,
000000
000000
000000
000000
,
000000
000000
000000
000000
,
100000
000000
100000
100000
,
000001
010000
000010
100000
,
000100
000000
001000
000000
,
000100
000000
001000
000000
,
000001
000000
000001
000001
,
100000
000010
010000
000001
,
001000
000000
000100
000000
,
100000
000001
100000
000001
,
100000
001000
000001
000000
,
000001
001000
100000
000000
,
100000
000100
001000
000001
,
100000
000000
000001
000000
,
100000
001000
001000
100000
,
000001
001000
001000
000001
,
100000
000010
000010
100000
,
000001
010000
010000
001000
,
100000
000100
100000
001000
,
000100
000000
000100
000000
,
000001
001000
000100
100000
,
000001
000000
000100
000000
,
100001
000000
001000
000000
,
100000
000010
010000
000001
,
100000
000010
001000
001000
,
000001
010000
001000
001000
,
100000
001000
000010
000000
,
000001
001000
010000
000000
,
100000
000001
001000
000100
,
100001
000000
100001
000000
,
000010
001000
100000
000000
,
010000
001000
000001
000000
,
000001
100000
000100
001000
,
100001
000000
100001
000000
,
100000
000000
100000
001000
,
000100
000000
000100
000001
,
001000
000000
001000
000100
,
100000
000100
000001
000100
,
100001
100000
000001
100000
,
100001
100000
000001
001000
,
010010
000000
010010
000000
010010
000000
010000
000010
,
010000
000000
000000
000000
,
100000
001000
100000
100000
,
000001
000100
000001
000001
,
100000
000001
010000
000010
,
100000
000001
001000
000100
,
100000
001000
100000
100000
,
000001
000100
000001
000001
,
100000
000000
000000
000010
000000
000000
010000
000000
,
001000
000000
010000
000010
,
010010
000000
000000
000000
;

//---------------dance-solo - ----------------
#NOTEDATA:;
#CHARTNAME:;
#STEPSTYPE:dance-solo;
#DESCRIPTION:;
#CHARTSTYLE:;
#DIFFICULTY:Medium;
#METER:8;
#RADARVALUES:0.359856,0.448950,0.274245,0.000000,0.010157,248.000000,221.000000,27.000000,0.000000,0.000000,0.000000,0.000000,0.000000,0.000000,0.359856,0.448950,0.274245,0.000000,0.010157,248.000000,221.000000,27.000000,0.000000,0.000000,0.000000,0.000000,0.000000,0.000000;
#CREDIT:;
#NOTES:
000000
000000
000000
000000
,
000000
000000
000000
000000
,
000000
000000
000000
000000
,
000000
000000
000000
000000
,
100001
000000
100000
001000
100000
000000
001000
000000
,
010000
000100
010000
000000
000010
000100
000010
000000
,
100001
100001
000100
000100
,
100001
100001
001000
001000
,
100001
000000
000001
001000
000001
000000
001000
000000
,
000010
000100
000010
000000
010000
000100
010000
000000
,
100001
100001
001000
001000
,
100001
100001
010000
000010
,
000000
100000
000001
100000
000001
000000
000000
000000
,
000000
000001
100000
000001
100000
000000
000000
000000
,
000000
000000
100001
000000
001100
000000
100000
000001
,
000000
000000
000000
000000
,
100000
000001
100000
000000
001000
000000
001000
000000
,
100000
000001
100000
000000
000100
000000
000100
000000
,
010000
001000
010000
000000
000001
000000
000001
000000
,
010000
000010
010000
000000
000010
010000
000010
000000
,
100000
010000
100000
000100
,
100000
000010
010000
000001
,
001000
000000
000100
000000
100000
000001
100000
000001
,
001000
000010
010000
001000
,
100000
001000
100000
000000
000100
000000
001000
000000
,
000001
001000
000001
001000
000100
100000
000100
000000
,
100000
000100
100000
000000
000010
000000
010000
000000
,
000001
000100
000001
000000
010000
000000
000010
000000
,
000000
010000
000010
100000
000001
000000
000000
000000
,
000000
100000
000001
010000
000010
000000
000000
000000
,
000000
000000
100001
000000
001100
000000
100000
000001
,
000000
000000
000000
000000
,
000000
000001
010000
000010
100000
000000
000000
000000
,
000000
100000
000010
010000
000001
000000
000000
000000
,
000000
000000
100001
000000
001100
000000
000001
100000
,
000000
000000
000000
000000
000000
000000
100000
000001
,
100000
000000
001000
000000
000100
000000
000001
100000
,
000001
000000
001000
000000
000100
000000
100000
000001
,
100000
000100
100000
000000
000100
000000
010000
000000
,
000001
000100
000001
000000
000100
000000
000010
000000
,
010010
000000
010000
000000
000010
000000
100000
000001
,
100001
000000
000001
000000
100000
000001
001000
000100
,
001100
000000
001100
000000
001100
000000
100000
000001
,
100001
000000
000000
000000
,
100001
000000
100000
001000
100000
001000
010000
000000
,
000001
001000
000001
001000
000001
001000
000010
000000
,
100000
000001
100000
000000
001000
000000
000100
000000
,
000001
100000
000001
000000
001000
000000
000100
000000
,
100001
000000
010000
000010
010000
000010
001000
000000
,
000010
010000
000010
010000
000010
010000
001000
000000
,
100000
000000
000000
000001
000000
000000
100001
000000
000000
000000
001000
000000
000000
000100
000000
000000
,
001100
000000
000000
000000
010000
000010
010000
000010
,
010010
000000
000000
000000
;

//---------------dance-solo - ----------------
#NOTEDATA:;
#CHARTNAME:;
#STEPSTYPE:dance-solo;
#DESCRIPTION:;
#CHARTSTYLE:;
#DIFFICULTY:Challenge;
#METER:14;
#RADARVALUES:0.805324,0.897899,0.853208,0.060943,0.939544,555.000000,464.000000,84.000000,6.000000,0.000000,6.000000,0.000000,0.000000,0.000000,0.805324,0.897899,0.853208,0.060943,0.939544,555.000000,464.000000,84.000000,6.000000,0.000000,6.000000,0.000000,0.000000,0.000000;
#CREDIT:;
#NOTES:
000000
000000
000000
000000
,
000000
000000
000000
000000
,
000000
000000
000000
000000
,
000000
000000
000000
000000
,
201000
000000
000000
000001
301000
000010
100000
000001
000000
000101
000000
010001
000000
100001
000000
000001
,
000100
001000
100000
000000
000100
100000
000000
100100
000000
100010
000000
010001
000000
100001
000000
000001
,
100000
001000
000000
000100
000001
000000
100000
000100
000000
001000
000001
000000
100000
000001
000000
000100
,
000001
001000
000000
000100
100000
000000
000001
000100
000000
001000
100000
000000
000001
100000
000000
100000
,
000002
000000
000000
100000
001003
010000
000001
100000
000000
100100
000000
100010
000000
100001
000000
100000
,
000100
001000
000001
000000
000100
000001
000000
000101
000000
010001
000000
100010
000000
100001
000000
100000
,
000001
001000
000000
000100
100000
000000
000001
000100
000000
001000
100000
000000
000001
100000
000000
000100
,
000000
100100
000000
000000
100010
000000
000000
000101
000000
010001
000000
001000
000100
100000
000001
000000
,
100000
000000
001000
100000
001000
000000
010000
000000
201000
000000
000001
000000
300100
000000
000000
000000
,
000001
000000
001000
000001
001000
000000
000010
000000
001002
000000
100000
000000
000103
000000
000000
000000
,
000001
000100
001100
001000
101000
100000
100001
001100
,
100000
001000
010000
000001
001000
000010
010000
001000
,
100000
001000
000000
100000
000100
000000
100000
000010
000000
100000
000001
000000
000001
100000
000000
000000
,
000001
001000
000000
000001
000100
000000
000001
010000
000000
000001
100000
000000
100000
000001
000000
000000
,
100000
001000
000000
010000
001000
000000
000100
001000
000000
000010
001000
000000
100000
000001
000000
000000
,
000001
001000
000000
000010
001000
000000
000100
001000
000000
010000
001000
000000
000001
100000
000000
000000
,
100000
001000
100000
000000
000010
000000
001000
000001
001000
000000
000001
000000
000100
000000
001000
100000
,
000100
001000
000001
000000
100000
000000
000100
000000
001000
000000
000001
000000
100000
000000
000001
000000
,
101000
000001
001001
100000
100100
100010
100001
010001
,
000001
000000
000100
000001
000000
000100
000001
000000
100000
000000
001000
100000
000000
000000
100000
001000
,
100000
010000
100000
000000
000100
000000
001000
000000
000001
100000
000001
000000
001000
000000
000100
000000
,
100000
001000
010000
000000
000001
001000
000010
000000
100000
000010
001000
000000
000001
010000
001000
000000
,
100000
001000
000000
000100
001000
000000
000001
001000
000000
000100
001000
000000
100000
000001
000000
000000
,
100000
000100
000000
001000
000100
000000
000001
000100
000000
001000
000100
000000
100000
000001
000000
000000
,
100000
000000
000100
010000
000100
000000
001000
000000
000100
100000
000000
000001
000100
000000
000001
100000
,
000001
000000
000100
000010
000100
000000
001000
000000
000100
000001
000000
100000
000100
000000
100000
000001
,
100000
001000
101000
100000
100100
000100
001100
100010
,
001100
000000
100001
000000
101000
000101
100100
001001
,
100000
000000
001000
100000
001000
000000
010000
000000
001000
100000
000000
000001
001000
000000
000001
100000
,
000001
000000
001000
000001
001000
000000
000010
000000
001000
000001
000000
100000
001000
000000
100000
000001
,
100000
000100
100100
100000
101000
001000
001100
010001
,
001100
000000
100001
000000
001001
100100
101000
000101
,
100000
000000
000001
000000
010000
000000
000010
000000
001000
000000
000100
000000
010000
000000
000010
010000
,
000001
000000
100000
000000
000010
000000
010000
000000
000100
000000
001000
000000
000010
000000
010000
000010
,
100000
001000
000000
000100
000001
000000
100000
000100
000000
001000
000001
000000
100000
000001
000000
001000
,
000001
000100
000000
000001
010000
000000
000001
100000
000000
000010
100000
000000
000100
100000
000000
000000
,
010001
001000
100001
001000
100010
001000
010001
100010
,
001100
000000
010000
000000
001100
000000
000010
000000
001100
000000
100000
000001
100000
000000
000001
000000
,
110001
001000
100011
001000
110001
001000
110010
010011
,
110011
000000
000000
000000
100000
000000
000000
000001
000000
100000
000000
000001
100000
000001
100000
000000
,
200010
000000
000000
000001
301000
000100
100000
000001
000000
001001
000000
010001
000000
000101
000000
000001
,
000100
001000
100000
000000
000100
100000
000000
100100
000000
001100
000000
001001
000000
100001
000000
000001
,
100000
001000
000000
010000
000001
000000
100000
000010
000000
001000
000001
000000
100000
000001
000000
000100
,
000001
001000
000000
000010
100000
000000
000001
010000
000000
001000
100000
000000
000001
100000
000000
100000
,
000002
000000
000000
100000
001003
000100
000001
100000
000000
101000
000000
100010
000000
100100
000000
100000
,
000100
001000
000010
000000
000100
000001
000000
000101
000000
001100
000000
101000
000000
100001
000000
100000
,
000001
000000
000000
000000
100000
000000
000001
100000
000001
000000
010000
000000
000010
000000
010000
000000
000000
000000
000010
000000
000000
000000
100000
000001
100000
000000
000001
000000
100000
000000
000001
000000
,
010000
000010
000000
000000
001100
000000
000000
010010
000000
100001
000000
100000
000001
001000
000100
000000
,
001100
000000
000000
000000
;

//---------------dance-threepanel - ----------------
#NOTEDATA:;
#CHARTNAME:;
#STEPSTYPE:dance-threepanel;
#DESCRIPTION:;
#CHARTSTYLE:;
#DIFFICULTY:Easy;
#METER:4;
#RADARVALUES:0.246676,0.369723,0.111730,0.000000,0.000000,170.000000,159.000000,11.000000,0.000000,0.000000,0.000000,0.000000,0.000000,0.000000,0.246676,0.369723,0.111730,0.000000,0.000000,170.000000,159.000000,11.000000,0.000000,0.000000,0.000000,0.000000,0.000000,0.000000;
#CREDIT:;
#NOTES:
000
000
000
000
,
000
000
000
000
,
000
000
000
000
,
000
000
000
000
,
100
010
010
001
,
001
010
010
100
,
001
100
001
100
,
100
001
100
001
,
100
010
010
001
,
001
010
010
100
,
001
100
001
100
,
100
001
100
001
,
000
100
001
100
001
000
000
000
,
000
001
100
001
100
000
000
000
,
000
010
100
001
,
010
000
000
000
,
010
001
001
010
,
001
100
100
001
,
100
010
010
100
,
001
100
100
010
,
100
000
100
100
,
001
000
001
001
,
010
010
001
001
,
100
000
001
000
,
101
000
100
000
,
001
100
001
100
,
010
100
100
010
,
100
001
001
100
,
000
001
100
001
100
000
000
000
,
000
100
001
100
001
000
000
000
,
000
100
001
010
,
001
000
000
000
,
000
100
001
100
001
000
000
000
,
000
001
100
001
100
000
000
000
,
000
001
100
010
,
100
000
000
000
,
101
000
000
000
,
110
000
000
000
,
011
000
000
000
,
101
000
000
000
,
101
001
100
001
,
101
100
001
100
,
101
000
101
000
101
000
100
001
,
100
000
000
000
,
100
010
010
001
,
001
010
010
100
,
001
100
001
100
,
100
001
100
001
,
100
010
010
001
,
001
010
010
100
,
100
000
000
001
000
000
010
000
,
001
000
100
001
,
101
000
000
000
;

//---------------dance-double - ----------------
#NOTEDATA:;
#CHARTNAME:;
#STEPSTYPE:dance-double;
#DESCRIPTION:;
#CHARTSTYLE:;
#DIFFICULTY:Easy;
#METER:3;
#RADARVALUES:0.191536,0.369723,0.081258,0.000000,0.000000,132.000000,124.000000,8.000000,0.000000,0.000000,0.000000,0.000000,0.000000,0.000000,0.191536,0.369723,0.081258,0.000000,0.000000,132.000000,124.000000,8.000000,0.000000,0.000000,0.000000,0.000000,0.000000,0.000000;
#CREDIT:;
#NOTES:
00000000
00000000
00000000
00000000
,
00000000
00000000
00000000
00000000
,
00000000
00000000
00000000
00000000
,
00000000
00000000
00000000
00000000
,
00010000
00000000
00010000
00010000
,
00001000
00000000
00001000
00001000
,
00100000
00000000
00100000
00000000
,
00000010
00000000
00000010
00000000
,
00010000
00000000
00010000
00010000
,
00001000
00000000
00001000
00001000
,
01000000
00000000
01000000
00000000
,
00000100
00000000
00000100
00000000
,
00000000
00100000
00100000
00000000
,
00000000
00000010
00000010
00000000
,
00000000
00000000
00010000
00000000
00001000
00000000
00010000
00001000
,
00000000
00000000
00000000
00000000
,
00100000
00000000
00100000
00000000
,
00000010
00000000
00000010
00000000
,
01000000
00000000
01000000
00000000
,
00000100
00000000
00001000
00000100
,
00010000
00000000
00001000
00000000
,
00100000
00010000
00100000
00000000
,
00001000
00000000
00010000
00000000
,
00000010
00001000
00000010
00000000
,
00000100
00000000
00000001
00000000
,
00000010
00000100
00010000
00001000
,
00010000
00000000
00010000
00000000
,
00001000
00000000
00001000
00000000
,
00000000
00100000
00100000
00000000
,
00000000
00000010
00000010
00000000
,
00000000
00000000
00010000
00000000
00001000
00000000
00010000
00001000
,
00000000
00000000
00000000
00000000
,
00000000
01000000
01000000
00000000
,
00000000
00000100
00000100
00000000
,
00000000
00000000
00010000
00000000
00001000
00000000
00010000
00001000
,
00000000
00000000
00000000
00000000
,
10010000
00000000
00000000
00000000
,
00011000
00000000
00000000
00000000
,
00000001
00001000
00001000
00000001
,
00001000
00000100
00010000
00001000
,
00011000
00001000
00010000
00001000
,
00011000
00010000
00001000
00010000
,
00011000
00000000
00011000
00000000
00011000
00000000
00010000
00001000
,
00010000
00000000
00000000
00000000
,
00001000
00000000
00001000
00001000
,
00010000
00000000
00010000
00010000
,
00000100
00001000
00001000
00000100
,
01000000
00010000
00010000
01000000
,
00001000
00000000
00001000
00001000
,
00010000
00000000
00010000
00010000
,
00001000
00000000
00000000
00001000
00000000
00000000
00010000
00000000
,
00001000
00000000
00010000
10000000
,
10010000
00000000
00000000
00000000
;

//---------------dance-double - ----------------
#NOTEDATA:;
#CHARTNAME:;
#STEPSTYPE:dance-double;
#DESCRIPTION:;
#CHARTSTYLE:;
#DIFFICULTY:Hard;
#METER:12;
#RADARVALUES:0.486096,0.579597,0.325031,0.040629,0.264088,335.000000,303.000000,32.000000,4.000000,0.000000,0.000000,0.000000,0.000000,0.000000,0.486096,0.579597,0.325031,0.040629,0.264088,335.000000,303.000000,32.000000,4.000000,0.000000,0.000000,0.000000,0.000000,0.000000;
#CREDIT:;
#NOTES:
// measure 0
00000000
00000000
00000000
00000000
,  // measure 1
00000000
00000000
00000000
00000000
,  // measure 2
00000000
00000000
00000000
00000000
,  // measure 3
00000000
00000000
00000000
00000000
,  // measure 4
11000000
00000000
00100000
00010000
01000000
00001000
00010000
00000000
,  // measure 5
00100000
00010000
00001000
00010000
00000100
00001000
00000010
00000100
,  // measure 6
00000001
00001000
00000001
00001000
00000100
00000010
00000100
00000000
,  // measure 7
00001000
00000001
00001000
00000001
00000100
00000010
00000100
00000000
,  // measure 8
00000101
00000000
00000010
00001000
00000100
00010000
00001000
00000000
,  // measure 9
00000010
00001000
00010000
00001000
01000000
00010000
00100000
01000000
,  // measure 10
10000000
00010000
10000000
00010000
00100000
01000000
00100000
00000000
,  // measure 11
00010000
10000000
00010000
10000000
00100000
01000000
00100000
00000000
,  // measure 12
00000000
10000000
01000000
10000000
01000000
00000000
00000000
00000000
,  // measure 13
00000000
00010000
01000000
00010000
01000000
00000000
00000000
00000000
,  // measure 14
00000000
00000000
11000000
00000000
10010000
00000000
01000000
00001000
,  // measure 15
00010000
00000010
00000100
00000001
,  // measure 16
00001000
00000001
00000000
00001000
00000001
00000000
00000000
00000100
00000000
00000000
00000010
00000000
00000000
00001000
00000000
00000000
,  // measure 17
00000100
00010000
00000000
00000100
00010000
00000000
00000000
00001000
00000000
00000000
00100000
00000000
00000000
00010000
00000000
00000000
,  // measure 18
10000000
00010000
00000000
10000000
00010000
00000000
00000000
01000000
00000000
00000000
00100000
00000000
00000000
01000000
00000000
00000000
,  // measure 19
00001000
01000000
00000000
00001000
01000000
00000000
00001000
01000000
00000000
00001000
01000000
00000000
00001000
01000000
00000000
00000000
,  // measure 20
00001000
00010000
00001000
00100000
00010000
00000000
01000000
00010000
,  // measure 21
01000000
00001000
00010000
00000100
,  // measure 22
00001000
00000100
00010000
00001000
00100000
00010000
01000000
00100000
,  // measure 23
10000000
00000000
00100000
00000000
01000000
00000000
00010000
00100000
,  // measure 24
00001000
00000000
00010000
00000100
00001000
00000000
00000010
00000100
,  // measure 25
00000001
00000010
00000100
00010000
00001000
00010000
00000100
00000000
,  // measure 26
00010000
00001000
00000000
00010000
00001000
00000000
00000000
00100000
00000000
00000000
00010000
00000000
00000000
01000000
00000000
00000000
,  // measure 27
00001000
00010000
00000000
00001000
00010000
00000000
00000000
00000010
00000000
00000000
00001000
00000000
00000000
00000100
00000000
00000000
,  // measure 28
00010000
00001000
00010000
00100000
00020000
00000000
00030000
00000000
,  // measure 29
00001000
00000100
00001000
00010000
00002000
00000000
00003000
00000000
,  // measure 30
00001000
00000000
01001000
00000000
00010100
00000000
00100000
00001000
,  // measure 31
00011000
00000000
00011000
00000000
00001000
00010000
00001000
00010000
,  // measure 32
00001000
00000100
00000001
00000100
00002000
00000000
00003000
00000000
,  // measure 33
00010000
01000000
10000000
01000000
00020000
00000000
00030000
00000000
,  // measure 34
01000000
00000000
11000000
00000000
10100000
00000000
01000000
00010000
,  // measure 35
10010000
00000000
00000000
00000000
01100000
00000000
00000000
00000000
10000000
00000000
01000000
00000000
00100000
00000000
00010000
10000000
,  // measure 36
00010000
00000000
00000000
00000000
00000000
00000000
00000000
00000000
00000001
00000000
00000100
00000000
00000010
00000000
00001000
00000001
,  // measure 37
00001000
00000000
00000000
00000000
00000000
00000100
00001000
00000100
,  // measure 38
00010000
00001000
00000000
00010000
00001000
00000000
00010000
00001000
00000000
00010000
00001000
00000000
00010000
00001000
00000000
00000000
,  // measure 39
00100000
00010000
00000000
00100000
00010000
00000000
10000000
01000000
00000000
10000000
01000000
00000000
10000000
01000000
00000000
00000000
,  // measure 40
10010000
00000000
10010000
00000000
10010000
00000000
10000000
00010000
,  // measure 41
00011000
00000000
00011000
00000000
00011000
00001000
00010000
00001000
,  // measure 42
00001001
00000000
00000110
00000000
00001001
00000000
00000110
00001001
,  // measure 43
00000110
00000000
00000000
00000000
,  // measure 44
00000011
00000000
00000100
00001000
00000010
00010000
00001000
00000000
,  // measure 45
00000100
00001000
00010000
00001000
00100000
00010000
01000000
00100000
,  // measure 46
10000000
00010000
00000000
10000000
00010000
00000000
01000000
00100000
00000000
01000000
00100000
00000000
01000000
00100000
00000000
00000000
,  // measure 47
01000000
00010000
00000000
01000000
00010000
00000000
10000000
00100000
00000000
10000000
00100000
00000000
10000000
00100000
00000000
00000000
,  // measure 48
10100000
00000000
01000000
00010000
00100000
00001000
00010000
00000000
,  // measure 49
01000000
00010000
00001000
00010000
00000010
00001000
00000100
00000010
,  // measure 50
00000011
00000000
00000000
00001001
00000000
00000000
00000101
00000000
00000000
00000000
00000110
00000000
00000000
00001010
00000000
00000000
,  // measure 51
00010010
00000000
00000000
00000000
00000000
00000000
00000000
00000000
00001000
00010000
00000000
00001000
00000000
00010000
00001000
00000000
;

//---------------dance-double - ----------------
#NOTEDATA:;
#CHARTNAME:;
#STEPSTYPE:dance-double;
#DESCRIPTION:;
#CHARTSTYLE:;
#DIFFICULTY:Medium;
#METER:10;
#RADARVALUES:0.348248,0.396132,0.192987,0.000000,0.010157,240.000000,221.000000,19.000000,0.000000,0.000000,0.000000,0.000000,0.000000,0.000000,0.348248,0.396132,0.192987,0.000000,0.010157,240.000000,221.000000,19.000000,0.000000,0.000000,0.000000,0.000000,0.000000,0.000000;
#CREDIT:;
#NOTES:
00000000
00000000
00000000
00000000
,
00000000
00000000
00000000
00000000
,
00000000
00000000
00000000
00000000
,
00000000
00000000
00000000
00000000
,
10010000
00000000
01000000
00100000
00010000
00000000
01000000
00000000
,
00001000
00010000
00001000
00000000
00010000
00001000
00010000
00000000
,
00000100
00001000
00000100
00000000
00001000
00000010
00001000
00000000
,
00001000
00000100
00001000
00000000
00000010
00001000
00000010
00000000
,
00001001
00000000
00000010
00000100
00001000
00000000
00000010
00000000
,
00010000
00001000
00010000
00000000
00001000
00010000
00001000
00000000
,
00100000
00010000
00100000
00000000
00010000
01000000
00010000
00000000
,
00010000
00100000
00010000
00000000
01000000
00010000
01000000
00000000
,
00000000
00010000
10000000
00010000
10000000
00000000
00000000
00000000
,
00000000
10000000
00010000
10000000
00010000
00000000
00000000
00000000
,
00000000
00000000
10010000
00000000
01100000
00000000
10000000
00010000
,
00000000
00000000
00000000
00000000
,
00010000
00000100
00010000
00000000
00000100
00000000
00010000
00000000
,
00001000
01000000
00001000
00000000
01000000
00000000
00001000
00000000
,
00010000
00000010
00010000
00000000
00000010
00000000
00010000
00000000
,
00001000
01000000
00001000
01000000
00001000
01000000
00001000
00000000
,
10000000
01000000
00100000
00010000
,
01000000
00001000
00010000
00000100
,
00001000
00000000
00000100
00000000
00000010
00000001
00000010
00000001
,
00000100
00000010
00001000
00000100
,
00011000
00000000
00010000
00001000
,
00100000
00010000
00100000
00010000
10000000
01000000
10000000
00000000
,
10000000
00010000
10000000
00000000
00001000
01000000
00001000
00000000
,
00010000
00000100
00010000
00000000
00000001
00001000
00000001
00000000
,
00000000
00000001
00001000
00000001
00001000
00000000
00000000
00000000
,
00000000
00001000
00000001
00001000
00000001
00000000
00000000
00000000
,
00000000
00000000
00001001
00000000
00000110
00000000
00001000
00000001
,
00000000
00000000
00000000
00000000
,
00000000
00010000
10000000
00010000
10000000
00000000
00000000
00000000
,
00000000
10000000
00010000
10000000
00010000
00000000
00000000
00000000
,
00000000
00000000
10010000
00000000
01100000
00000000
10000000
00010000
,
00000000
00000000
00000000
00000000
00000000
00000000
10000000
00010000
,
10000000
00000000
00000000
00000000
00000000
00000000
00001000
00000001
,
00001000
00000000
00000000
00000000
00000000
00000000
00010000
00001000
,
00010000
00010000
00001000
00001000
,
00100000
01000000
10000000
00010000
,
10010000
00000000
10000000
00000000
00010000
00000000
10000000
00010000
,
10010000
00010000
00100000
00001000
,
00011000
00000000
00011000
00000000
00011000
00000000
00010000
00001000
,
00010000
00000000
00000000
00000000
,
00001001
00000000
00000010
00000100
00001000
00000000
00000010
00000000
,
00010000
00000100
00010000
00000000
00001000
00100000
00001000
00000000
,
00100000
00010000
00100000
00000000
00010000
01000000
00010000
00000000
,
00010000
00100000
00010000
00100000
01000000
10000000
01000000
00000000
,
10010000
00000000
01000000
00100000
00010000
00000000
01000000
00000000
,
00001000
00100000
00001000
00000000
00010000
00000100
00010000
00000000
,
00000001
00000000
00000000
00001000
00000000
00000000
00001001
00000000
00000000
00000000
00000100
00000000
00000000
00100000
00000000
00000000
,
00011000
00000000
00000000
00000000
01000000
00100000
01000000
00100000
,
01100000
00000000
00000000
00000000
;

//---------------dance-double - ----------------
#NOTEDATA:;
#CHARTNAME:;
#STEPSTYPE:dance-double;
#DESCRIPTION:;
#CHARTSTYLE:;
#DIFFICULTY:Challenge;
#METER:15;
#RADARVALUES:0.786460,0.818673,0.873522,0.020314,0.909072,542.000000,456.000000,86.000000,2.000000,0.000000,0.000000,0.000000,0.000000,0.000000,0.786460,0.818673,0.873522,0.020314,0.909072,542.000000,456.000000,86.000000,2.000000,0.000000,0.000000,0.000000,0.000000,0.000000;
#CREDIT:;
#NOTES:
00000000
00000000
00000000
00000000
,
00000000
00000000
00000000
00000000
,
00000000
00000000
00000000
00000000
,
00000000
00000000
00000000
00000000
,
11000000
00000000
00000000
10000000
01000000
00100000
00010000
01000000
00000000
01010000
00000000
01001000
00000000
01010000
00000000
00010000
,
01000000
00001000
00010000
00000000
00010000
00000100
00000000
00001100
00000000
00001010
00000000
00000110
00000000
00000101
00000000
00000100
,
00000001
00001000
00000000
00000010
00000100
00000000
00000001
00001000
00000000
00000100
00000010
00000000
00000001
00001000
00000000
00001000
,
00000001
00000100
00000000
00000010
00001000
00000000
00000001
00000010
00000000
00000100
00001000
00000000
00000001
00001000
00000000
00001000
,
00000001
00000000
00000000
00000001
00000010
00000100
00001000
00000010
00000000
00001010
00000000
00010010
00000000
00001010
00000000
00001000
,
00000010
00010000
00001000
00000000
00001000
00100000
00000000
00110000
00000000
01010000
00000000
01100000
00000000
10100000
00000000
00100000
,
10000000
00010000
00000000
01000000
00100000
00000000
10000000
00010000
00000000
00100000
01000000
00000000
10000000
00010000
00000000
00010000
,
10000000
00100000
00000000
01000000
00010000
00000000
10000000
01000000
00000000
00100000
00010000
00000000
10000000
00010000
00000000
00010000
,
01000000
00000000
00100000
01000000
00010000
00000000
00100000
00000000
00210000
00000000
00001000
00000000
00310000
00000000
00000000
00000000
,
00000100
00000000
00000010
00000100
00001000
00000000
00000010
00000000
00001020
00000000
00010000
00000000
00001030
00000000
00000000
00000000
,
00000010
00001000
00001010
00000010
00010010
00010000
00011000
00011000
,
01000000
00010000
10000000
01000000
00100000
00010000
10000000
00100000
,
10000000
01000000
00000000
01000000
00100000
00000000
00100000
00010000
00000000
00100000
00001000
00000000
00010000
00001000
00000000
00000000
,
00001000
00010000
00000000
00010000
00000100
00000000
00000100
00001000
00000000
00000010
00001000
00000000
00000001
00001000
00000000
00000000
,
00000001
00000100
00000000
00000010
00001000
00000000
00000100
00010000
00000000
00001000
00100000
00000000
00010000
01000000
00000000
00000000
,
10000000
01000000
00000000
00100000
01000000
00000000
00010000
01000000
00000000
00100000
01000000
00000000
00010000
10000000
00000000
00000000
,
10000000
01000000
00010000
01000000
10000000
00100000
00010000
00001000
,
00000010
00000001
00000100
00001000
00000100
00000001
00001000
00000100
,
00011000
00100000
00011000
00000010
00011000
01001000
00011000
00010100
,
00010000
00000000
00001000
00010000
00000000
00001000
00100000
00000000
00010000
00000000
00100000
01000000
00000000
00000000
10000000
01000000
,
10000000
00100000
10000000
00000000
00010000
00000000
01000000
00000000
00001000
00000000
00000000
00000000
00010000
00000000
00001000
00000000
,
00101000
00100000
00110000
00100000
01100000
01000000
11000000
00000000
,
01000000
00100000
00000000
00100000
00001000
00000000
00001000
00010000
00000000
00010000
00000010
00000000
00000010
00000100
00000000
00000000
,
00000100
00000010
00000000
00000010
00010000
00000000
00010000
00001000
00000000
00001000
00100000
00000000
00100000
01000000
00000000
00000000
,
10000000
00000000
00100000
10000000
00010000
00000000
00100000
00000000
00001000
00010000
00000000
00010000
00000100
00000000
00000100
00001000
,
00000001
00000000
00000010
00000001
00001000
00000000
00000010
00000000
00010000
00001000
00000000
00001000
00100000
00000000
00100000
01000000
,
10000000
01000000
11000000
00100000
10100000
00010000
10010000
00001000
,
01001000
00000000
00010010
00000000
00101000
00010100
00001010
00000101
,
00000001
00000000
00000100
00000001
00001000
00000000
00000100
00000000
00010000
00001000
00000000
00001000
00100000
00000000
00100000
00010000
,
10000000
00000000
01000000
10000000
00010000
00000000
01000000
00000000
00001000
00010000
00000000
00010000
00000100
00000000
00000100
00000010
,
00000001
00000010
00000011
00000100
00000101
00001000
00001001
00010000
,
00010010
00000000
01001000
00000000
00010100
00101000
01010000
10100000
,
01000000
00000000
00100000
00000000
01000000
00000000
00100000
00000000
01000000
00000000
00100000
00000000
01000000
00100000
00001000
00010000
,
00000100
00000000
00000010
00000000
00000100
00000000
00000010
00000000
00000100
00000000
00000010
00000000
00000100
00000010
00001000
00000000
,
00000001
00000100
00000000
00000010
00001000
00000000
00000100
00010000
00000000
00001000
00100000
00000000
00010000
01000000
00000000
00100000
,
10000000
01000000
00000000
00100000
00010000
00000000
01000000
00001000
00000000
00010000
00000010
00000000
00001000
00000001
00000000
00000000
,
00001001
00000100
00001001
00000010
00001001
00000100
00001001
00011000
,
10010000
00000000
01000000
00000000
10010000
00000000
00100000
00000000
10010000
00000000
10000000
00001000
00010000
00000000
00011000
00000000
,
00001001
00000100
00001010
00010000
00101000
01000000
10010000
01100000
,
10010000
01000000
00000000
00000000
00001000
00000000
00000000
00010000
00000000
00000010
00000000
00000100
00000001
00000100
00000001
00000000
,
00000011
00000000
00000000
00000001
00000010
00000100
00001000
00000010
00000000
00001010
00000000
00010010
00000000
00001010
00000000
00001000
,
00000010
00010000
00001000
00000000
00001000
00100000
00000000
00110000
00000000
01010000
00000000
01100000
00000000
10100000
00000000
00100000
,
10000000
00010000
00000000
01000000
00100000
00000000
10000000
00010000
00000000
00100000
01000000
00000000
10000000
00010000
00000000
00010000
,
10000000
00100000
00000000
01000000
00100000
00000000
00010000
00100000
00000000
01000000
00100000
00000000
10000000
00010000
00000000
00010000
,
10000000
00000000
00000000
10000000
01000000
00100000
00010000
01000000
00000000
01010000
00000000
01001000
00000000
01010000
00000000
00010000
,
01000000
00001000
00010000
00000000
00010000
00000100
00000000
00001100
00000000
00001010
00000000
00000110
00000000
00000101
00000000
00000100
,
00000001
00000000
00000000
00000000
00001000
00000000
00000001
00000100
00000010
00000000
00001000
00000000
00000100
00000000
00010000
00000000
00000000
00000000
00011000
00000000
00000000
00000000
00001000
00100000
00010000
00000000
01000000
00000000
00100000
00000000
10000000
00000000
,
00000000
10100000
00000000
00000000
00110000
00000000
00000000
00011000
00000000
00001010
00000000
00000011
00000000
00001000
00000001
00000000
,
00000110
00000000
00000000
00000000
;
