#TITLE:Spin Around;
#SUBTITLE:;
#ARTIST:nc ft. Yasushi Asada;
#TITLETRANSLIT:;
#SUBTITLETRANSLIT:;
#ARTISTTRANSLIT:;
#GENRE:;
#CREDIT:;
#BANNER:spinaround-bn.png;
#BACKGROUND:spinaround-bg.png;
#LYRICSPATH:;
#CDTITLE:;
#MUSIC:spinaround.ogg;
#OFFSET:1.263000;
#SAMPLESTART:1.262960;
#SAMPLELENGTH:12.000000;
#LASTBEATHINT:0.832833;
#SELECTABLE:YES;
#BPMS:0.000000=190.000000
;
#STOPS:
;
#BGCHANGES:;
#KEYSOUNDS:;
#ATTACKS:;

//---------------dance-single - ----------------
#NOTES:
     dance-single:
     :
     Hard:
     13:
     0.831863,0.789429,0.417461,0.513798,0.117745,457.000000,39.000000,48.000000,0.000000,0.000000,0.000000,0.831863,0.789429,0.417461,0.513798,0.117745,457.000000,39.000000,48.000000,0.000000,0.000000,0.000000:
0000
0000
0000
0000
,
0000
0000
0000
0000
,
1000
0100
1000
0001
0100
0001
1000
0010
,
1000
0001
0010
0001
1000
0100
0010
0001
,
1000
0010
1000
0001
0010
0001
1000
0100
,
0010
0100
0001
0100
0010
0100
1000
0000
,
0001
0100
0001
1000
0100
1000
0001
0010
,
0001
1000
0010
1000
0001
0100
0010
1000
,
0001
0010
0001
1000
0010
1000
0001
0100
,
0010
1000
1010
0000
0001
0100
0101
0000
,
0001
0100
0010
0100
0010
1000
0001
0010
,
0100
0010
0100
1000
0001
1000
0010
0100
,
0001
0010
0100
0010
0100
1000
0001
0100
,
0010
0100
1000
0100
0010
0100
0001
0000
,
1000
0100
0010
0100
0010
0001
1000
0010
,
0100
0010
0100
0001
1000
0001
0100
0010
,
0200
0302
2003
3200
,
1300
0001
1001
0000
0001
1000
1001
0000
,
1000
0100
1000
0020
0000
0130
0000
0101
,
0000
0100
0001
0100
0010
1000
0100
0000
,
1000
0010
1000
0200
0000
0310
0000
0011
,
0000
0010
0001
0100
0110
0000
0101
0000
,
0001
0100
0001
0020
0000
0130
0000
1100
,
0000
0100
1000
0100
0010
0001
0100
0000
,
0001
0010
0001
0200
0000
0310
0000
1010
,
0000
0010
1000
0100
0110
0000
1001
0000
,
1000
1000
0000
0010
0010
0000
0100
0100
,
0000
0001
0001
0000
0001
1000
0010
0100
,
0010
0010
0000
0100
0100
0000
0001
0001
,
0000
1000
1000
0000
1000
0001
1001
0000
,
1000
1000
0000
0100
0100
0000
0010
0010
,
0000
0001
0001
0000
1000
0001
0100
0010
,
1001
0000
0000
0110
0000
0000
1010
0000
1100
0000
0000
0000
0110
0000
0000
0000
,
2002
0000
0000
3000
,
2003
0000
0000
3200
0000
0000
0302
0000
,
0203
2300
3002
0203
,
0310
0100
0001
1000
0100
0010
0100
1000
,
0001
0000
0000
0100
0000
0000
0010
0000
1010
0000
0000
0000
0101
0000
0000
0000
,
0002
0000
0000
0203
0000
0000
2300
0000
,
3200
0302
2003
3200
,
0310
0100
1000
0001
0010
0100
0010
0001
,
1000
0001
1001
0000
0001
1000
1001
0000
,
2000
0000
3200
0000
0310
0001
0100
0001
,
0020
0230
2300
3000
,
0002
0000
0203
0000
0310
1000
0100
0010
,
0012
0103
2010
3100
,
2000
0000
3020
0000
0130
0001
0010
0001
,
0200
0320
2030
3000
,
0002
0000
0013
0100
1000
0100
0010
0001
,
0021
0130
1020
0130
,
0001
0100
0001
1000
0001
0010
0001
0100
,
0001
1000
0100
0001
0200
0000
0300
0000
,
1000
0010
1000
0001
1000
0100
0001
0100
,
1000
0001
0100
0010
1000
0001
1001
0000
,
0001
0010
0001
1000
0001
0100
0001
0010
,
0001
1000
0010
0001
0020
0000
1030
0000
,
1100
0000
0000
0000
0000
0000
0011
0000
0000
0000
0000
0000
1000
0001
1000
0002
,
2000
0000
0000
3003
,
1000
0100
1000
0001
0100
0001
1000
0010
,
1000
0001
0010
0001
1000
0010
0100
0001
,
1000
0010
1000
0001
0010
0001
1000
0100
,
0010
0100
0001
0100
0010
0100
1000
0001
,
1000
0100
1000
0001
0010
0001
1000
0010
,
0100
0001
0100
0001
0100
0001
1000
0100
1000
0100
1000
0100
,
0010
0001
0010
0001
0010
0001
1000
0001
1000
0001
1000
0001
,
0200
0000
0000
0000
0301
1000
0010
0100
,
0110
1010
1100
0110
,
1001
0000
0110
0000
1000
0100
0001
0100
,
0010
0001
1000
0010
0001
0010
0100
0001
,
1000
0100
0001
0100
1000
0001
2000
0000
,
3001
0100
0002
0000
0013
0100
1000
0001
,
0100
0010
1000
0001
0100
0001
0101
0000
,
0001
0010
0001
0000
0100
0000
0010
1000
0010
0000
0100
0000
0001
0000
0000
0000
,
1000
0100
1100
0000
0001
0100
0101
0000
;

//---------------dance-single - ----------------
#NOTES:
     dance-single:
     :
     Medium:
     12:
     0.737055,0.631543,0.171266,0.685063,0.010704,402.000000,16.000000,64.000000,0.000000,0.000000,0.000000,0.737055,0.631543,0.171266,0.685063,0.010704,402.000000,16.000000,64.000000,0.000000,0.000000,0.000000:
0000
0000
0000
0000
,
0000
0000
0000
0000
,
1000
0100
1000
0001
0100
0001
1000
0010
,
1000
0001
0010
0001
1000
0000
0001
0000
,
1000
0010
1000
0001
0010
0001
1000
0100
,
0010
0001
0100
0001
1000
0001
0020
0000
,
0031
0100
0001
1000
0100
1000
0001
0010
,
0001
1000
0010
1000
0001
0000
1000
0000
,
0001
0010
0001
1000
0010
1000
0001
0100
,
0010
0010
0010
0000
1000
1000
1000
0000
,
1000
0100
0010
0100
0010
0001
1000
0010
,
0100
0010
0100
0001
1000
0000
1000
0000
,
0001
0100
0010
0100
0010
1000
0001
0010
,
0100
1000
0010
1000
0001
1000
0200
0000
,
0310
0001
0010
0100
1000
0100
1000
0010
,
1000
0001
0100
0001
1000
0000
0010
0000
,
0200
0000
0302
0000
,
1003
1000
1000
0000
0001
0001
0001
0000
,
1000
0100
1000
0100
0000
0010
0000
0011
,
0000
0001
0100
0010
1000
0100
0010
0000
,
0001
0100
0001
0100
0000
0010
0000
1010
,
0000
1000
0100
0000
1001
0000
0110
0000
,
1000
0010
1000
0010
0000
0100
0000
0101
,
0000
0001
0010
0100
1000
0010
0100
0000
,
0001
0010
0001
0010
0000
0100
0000
1100
,
0000
1000
0001
1000
1001
0000
0110
0000
,
1000
0010
0000
1000
0100
0000
1000
0010
,
0000
1000
0100
0000
1000
0100
0010
0000
,
0001
0010
0000
0001
0100
0000
0001
0010
,
0000
0001
0100
0000
0001
0100
0010
0000
,
1000
0001
0000
0001
1000
0000
1000
0010
,
0000
0010
0100
0000
0001
0100
0001
0000
,
0001
0000
0000
1000
0000
0000
0001
0000
1000
0000
0000
0000
0110
0000
0000
0000
,
2002
0000
0000
3003
,
2000
0000
0000
3200
0000
0000
0320
0000
,
0032
0203
2300
3200
,
0302
0100
1000
0010
,
0103
0000
0000
0001
0000
0000
1000
0000
0010
0000
0000
0000
0100
0000
0000
0000
,
0002
0000
0000
0203
0000
0000
0320
0000
,
2030
3200
0302
0203
,
2300
0001
0010
3100
,
1000
1000
1000
0000
0001
0001
0001
0000
,
2000
0000
3200
0000
0310
0001
0100
0001
,
0020
0230
2300
0000
,
3002
0000
0203
0000
0310
1000
0100
1000
,
0010
0100
0001
0000
0010
0100
1000
0000
,
0002
0000
0023
0000
0130
1000
0010
1000
,
0200
0320
0032
0000
,
1003
0000
0010
0100
0001
1000
0100
0010
,
0002
0000
2003
0000
,
3002
0000
2003
0000
3010
0100
0001
0100
,
0020
2030
3200
0000
,
2300
0000
3002
0000
0013
0100
1000
0100
,
0010
0001
0100
0000
0010
1000
0100
0000
,
2000
0000
3002
0000
0103
0010
1000
0010
,
0200
0302
0023
2030
,
3010
0001
0100
1000
0100
0001
1000
0100
,
2000
0000
3002
0000
,
1003
0001
0100
0001
1000
0100
1000
0001
,
0010
0001
1000
0010
1000
0000
0001
0000
,
1000
0001
0010
0001
1000
0010
1000
0100
,
0010
0001
0100
0001
1000
0001
0020
0000
,
0031
1000
0100
1000
0001
0100
0001
1000
,
0020
2030
3200
0302
,
0203
2300
3002
2003
,
3200
0000
0000
0000
0010
0010
0310
0000
,
0110
0011
0101
0110
,
1010
0000
1100
0000
1000
0100
1000
1000
,
0010
1000
1000
0001
1000
0001
0100
0001
,
0001
1000
0001
0001
0010
0001
0100
0000
,
0100
0001
0100
0010
1000
0010
1000
0100
,
1000
0001
0010
0001
1000
0000
0001
0000
,
2000
0000
0000
3002
0000
0000
0203
0000
,
0310
0010
0010
0000
0100
0100
0100
0000
;

//---------------dance-single - ----------------
#NOTES:
     dance-single:
     :
     Easy:
     8:
     0.438869,0.552600,0.149858,0.064225,0.000000,267.000000,14.000000,6.000000,0.000000,0.000000,0.000000,0.438869,0.552600,0.149858,0.064225,0.000000,267.000000,14.000000,6.000000,0.000000,0.000000,0.000000:
0000
0000
0000
0000
,
0000
0000
0000
0000
,
1000
0100
0001
0100
,
1000
0001
0100
1000
,
0100
0001
1000
0100
,
0010
0001
0010
0100
,
1000
0010
0001
0010
,
1000
0001
0010
1000
,
0010
0001
0100
1000
,
0100
0100
0001
0001
,
1000
0010
0100
0010
,
0001
0010
0100
0001
,
1000
0100
0010
0100
,
0001
0100
1000
0001
,
1000
0100
0010
0100
,
0001
0100
0010
0001
,
0100
1000
0100
0001
,
1000
1000
0001
0001
,
1000
0010
0100
0001
,
0001
0010
0100
1000
,
1000
0100
0010
0001
,
0001
0100
0010
0010
,
1000
0100
0010
0001
,
0001
0100
0010
1000
,
1000
0010
0100
0001
,
1000
0001
1001
1001
,
1000
0000
0000
1000
0000
0000
0001
0000
,
0000
0001
0000
0000
1000
0000
0010
0000
,
0100
0000
0000
0100
0000
0000
0001
0000
,
0000
0001
0000
0000
0010
0000
0100
0000
,
1000
0000
0000
1000
0000
0000
0001
0000
,
0000
0001
0000
0000
1000
0000
0100
0000
,
0010
0000
0000
0001
0000
0000
0100
0000
,
0020
0030
0200
0300
,
0001
0000
0000
0001
0000
0000
0001
0000
,
0100
0010
1000
0100
,
1000
0100
0001
0100
,
1000
0010
0100
0001
,
1000
0000
0000
1000
0000
0000
1000
0000
,
0100
0010
0001
0100
,
1000
0100
0001
0100
,
0010
1000
0001
0100
,
0010
1000
0100
0001
,
0100
1000
0020
0030
,
0100
0010
1000
0010
,
0001
0010
0100
0001
,
0010
0001
0100
1000
,
0100
0001
0020
0030
,
0200
0000
1300
1000
,
0001
0100
0010
1000
,
0001
0100
1000
0100
,
0001
0010
1000
0000
,
0010
0001
0100
1000
,
0100
0001
0010
0000
,
1000
0010
0001
0100
,
1000
0100
0001
0010
,
1000
0000
0000
0010
0000
0000
0001
0000
,
0200
0000
0000
0300
,
0001
0010
1000
0010
,
0001
1000
0010
0001
,
0010
1000
0001
0010
,
0100
1000
0100
0010
,
0001
0100
1000
0100
,
0001
1000
0100
0001
,
0100
1000
0010
0001
,
0010
0010
1000
1000
,
1001
1001
1001
1001
,
1001
1001
1000
1000
,
0100
0100
0010
0010
,
0001
0001
1000
1001
,
1000
0100
0001
1000
,
0010
0001
1000
0001
,
1001
0000
0000
0110
0000
0000
1001
0000
,
0010
1001
0100
1001
;

//---------------dance-single - ----------------
#NOTES:
     dance-single:
     :
     Beginner:
     3:
     0.247724,0.314701,0.117745,0.085633,0.000000,143.000000,11.000000,8.000000,0.000000,0.000000,0.000000,0.247724,0.314701,0.117745,0.085633,0.000000,143.000000,11.000000,8.000000,0.000000,0.000000,0.000000:
// measure 0
0000
0000
0000
0000
,  // measure 1
0000
0000
0000
0000
,  // measure 2
1000
0000
0000
0001
,  // measure 3
0000
0000
0100
0000
,  // measure 4
0001
0000
0000
1000
,  // measure 5
1000
0000
1000
0000
,  // measure 6
0001
0000
0000
1000
,  // measure 7
0000
0000
0100
0000
,  // measure 8
0010
0000
0000
0001
,  // measure 9
0001
0000
1001
0000
,  // measure 10
1000
0000
0000
0001
,  // measure 11
0000
0000
0010
0000
,  // measure 12
0010
0000
0000
0100
,  // measure 13
0100
0000
1000
0000
,  // measure 14
0001
0000
0000
1000
,  // measure 15
0000
0000
0010
0000
,  // measure 16
1001
0000
0000
0000
,  // measure 17
0100
0000
0010
0000
,  // measure 18
1000
0000
0000
0000
0000
0000
0000
0100
,  // measure 19
0000
0000
0010
0000
,  // measure 20
0001
0000
0000
0000
0000
0000
0000
0100
,  // measure 21
0000
0000
0010
0000
,  // measure 22
1000
0000
0000
0000
0000
0000
0000
0001
,  // measure 23
0000
0000
0100
0000
,  // measure 24
0001
0000
0000
0000
0000
0000
0000
1000
,  // measure 25
0000
0000
0100
0000
,  // measure 26
1000
0000
0000
0000
,  // measure 27
0001
0000
0100
0010
,  // measure 28
1000
0000
0000
0000
,  // measure 29
0001
1000
0001
0000
,  // measure 30
0001
0000
0000
0000
,  // measure 31
1000
0000
0010
0100
,  // measure 32
0001
0000
1000
0000
,  // measure 33
2002
0000
3003
0000
,  // measure 34
1000
0000
1000
0000
,  // measure 35
0100
0010
0001
0000
,  // measure 36
0002
0000
0003
0000
,  // measure 37
0100
0000
0100
0000
,  // measure 38
0001
0000
0001
0000
,  // measure 39
0100
0010
1000
0000
,  // measure 40
2000
0000
3000
0000
,  // measure 41
1000
0000
0001
0000
,  // measure 42
1000
0000
1000
0001
,  // measure 43
1000
0000
1000
0000
,  // measure 44
0001
0000
0001
1000
,  // measure 45
0001
0000
0001
0000
,  // measure 46
1000
0000
1000
0001
,  // measure 47
1000
0000
1000
0000
,  // measure 48
0100
0000
0010
0000
,  // measure 49
0001
0000
1001
0000
,  // measure 50
0001
0000
0001
1000
,  // measure 51
0001
0000
1000
0000
,  // measure 52
1000
0000
1000
0001
,  // measure 53
1000
0000
0001
0000
,  // measure 54
0001
0000
0100
0010
,  // measure 55
1000
0000
0110
0000
,  // measure 56
2002
0000
0000
0000
,  // measure 57
3003
0000
0000
0000
,  // measure 58
1000
0000
0000
1000
,  // measure 59
0000
0000
0100
0000
,  // measure 60
0010
0000
0000
0010
,  // measure 61
0001
0100
0001
0000
,  // measure 62
2000
0000
0000
3000
,  // measure 63
0001
0001
0100
0100
,  // measure 64
0010
0010
1000
0001
,  // measure 65
2000
0000
3000
0000
,  // measure 66
1001
0000
0000
0000
,  // measure 67
0000
0000
1000
1000
,  // measure 68
0100
0100
0010
0010
,  // measure 69
0001
0001
1000
0001
,  // measure 70
1000
0000
1000
0000
,  // measure 71
0100
0010
0001
0000
,  // measure 72
1001
0000
1001
0000
,  // measure 73
0110
0000
1001
0000
;

//---------------dance-single - ----------------
#NOTES:
     dance-single:
     :
     Challenge:
     15:
     0.937375,1.000000,0.620839,0.460277,0.262251,512.000000,58.000000,43.000000,0.000000,0.000000,0.000000,0.937375,1.000000,0.620839,0.460277,0.262251,512.000000,58.000000,43.000000,0.000000,0.000000,0.000000:
0000
0000
0000
0000
,
0000
0000
0000
0000
,
1000
0100
0001
1000
0100
0001
1000
0010
,
0001
1000
0010
0001
0010
1000
0100
0001
,
1000
0010
0001
1000
0010
0100
0010
0001
,
0010
1000
0100
0010
0100
0001
0100
0000
,
0001
0100
1000
0001
0100
1000
0001
0010
,
1000
0001
0010
1000
0010
0001
0100
1000
,
0001
0010
1000
0001
0010
0100
0010
1000
,
0010
0001
0201
0000
0310
1000
1200
0000
,
1300
0100
0001
1000
0010
0001
1000
0010
,
0001
1000
0100
0001
0010
1000
0010
0001
,
1000
0010
0001
1000
0100
0001
1000
0100
,
0010
0100
0001
0100
0010
0100
2000
0000
,
3001
0100
1000
0001
0010
1000
0001
0010
,
1000
0001
0100
1000
0010
0001
0010
1000
,
2001
0000
0100
0000
0010
0010
3001
0000
,
1000
0001
1001
0000
0001
0100
0101
0000
,
1000
0100
0001
0020
0000
0130
0000
1100
,
0000
0100
0010
0001
0010
0100
1000
0100
,
0001
0100
1000
0020
0000
0130
0000
0101
,
0000
0100
0010
0100
1001
0000
0110
0000
,
1000
0010
0001
0020
0000
1030
0000
1100
,
0000
0100
0001
0100
1000
0001
0100
1000
,
0001
0010
1000
0020
0000
0130
0000
0101
,
0000
0001
0010
0100
1100
0000
0011
0000
,
1000
1010
0000
0001
0011
0000
1000
1100
,
0000
0001
0101
0000
0001
0100
1000
0100
,
0010
1010
0000
0100
0101
0000
0010
0011
,
0000
1000
1100
0000
0101
0101
1010
0000
,
1000
1010
0000
0100
0101
0000
0001
0011
,
0000
0100
1100
0000
1000
0010
0001
0010
,
0110
0000
0000
1010
0000
0000
1100
0000
0101
0000
0000
0000
1100
0000
0000
0000
,
1001
0000
1000
0100
1000
0000
0100
0000
0001
0000
0100
0000
0010
0000
0100
0000
,
2000
0000
0100
3200
0000
0001
0302
0000
,
2003
3020
0032
0203
,
1300
0100
0001
1000
0100
0001
0100
1000
,
1100
0000
0000
0101
0000
0000
1100
0000
1001
0000
0000
0000
0110
0000
0000
0000
,
0002
0000
0100
0203
0000
1000
2300
0000
,
3002
0023
2030
3200
,
0301
0100
1000
0001
0100
1000
0100
0010
,
1000
0100
1200
0000
0310
0001
0012
0000
,
2003
0000
3200
0000
0310
0001
0100
1000
,
0200
0000
0000
0000
0010
0000
0000
0000
0301
0000
0000
0000
0000
0000
0001
0100
,
0002
0000
0203
0000
1300
0100
0010
1000
,
1100
0100
0010
0000
0101
0100
0010
0000
,
2000
0000
3020
0000
0130
0001
0010
1000
,
0020
0000
0000
0000
0100
0000
0000
0000
0031
0000
0000
0000
0000
0000
0001
0010
,
0002
0000
0013
0100
1000
0100
0001
0100
,
2100
0000
0000
0000
0000
0000
3001
0100
0002
0000
0000
0000
0103
0000
0000
0000
,
0001
0100
0001
1000
0001
0010
1000
0010
,
0001
0000
1000
0000
0100
0000
0001
0000
0200
0000
0000
0000
0300
0000
1000
0100
,
1000
0100
1000
0001
1000
0010
0001
0010
,
1000
0100
1100
0000
0001
0100
0101
0000
,
0001
0010
0001
1000
0001
0100
1000
0100
,
0001
1000
0010
0001
0020
0000
1030
0000
,
1100
0000
1000
0000
0100
0000
0011
0000
0010
0000
0001
0000
1000
0001
1000
0001
,
2002
3000
0200
0303
,
1000
0100
0001
1000
0100
0001
1000
0010
,
0001
1000
0010
0001
0010
1000
0100
0001
,
1000
0010
0001
1000
0010
0100
0010
0001
,
0010
1000
0100
0010
0100
0001
0100
1000
,
0001
0100
1000
0001
0010
1000
0100
0010
,
0001
0010
0001
0010
0100
0010
0100
1000
0100
1000
0010
1000
,
0010
0100
0010
0100
0001
0100
0001
0010
0100
0010
0100
1000
,
0200
0000
1300
0000
0010
0001
0010
1000
,
1001
0101
0011
1001
,
1100
0000
0000
0000
1010
0000
0000
0000
1000
0100
1000
0010
0100
0001
1000
0010
,
1000
0100
0010
0001
0100
0010
0100
0001
0010
0100
1000
0001
1000
0100
0010
0001
,
1000
0001
1000
0010
0100
0001
1000
0001
1000
0100
0010
0001
2000
0000
0000
0000
,
3001
0100
0201
0000
0310
1000
0100
0001
,
0100
1000
0010
0100
0001
0010
1000
0010
,
0001
0010
0001
0100
0010
1000
0001
0100
0001
0010
0100
1000
0001
0000
0001
0000
,
1000
0100
1100
1000
0001
0100
0101
0001
;
