#TITLE:Sir Duke;
#SUBTITLE:(Hard Mix);
#ARTIST:Capitan Go!!;
#TITLETRANSLIT:;
#SUBTITLETRANSLIT:;
#ARTISTTRANSLIT:;
#GENRE:;
#CREDIT:;
#MUSIC:Sir Duke (Hard Mix) (172 BPM).ogg;
#BANNER:Sir Duke-bn.png;
#BACKGROUND:Sir Duke-bg.png;
#CDTITLE:;
#SAMPLESTART:39.036;
#SAMPLELENGTH:12.000;
#SELECTABLE:YES;
#OFFSET:1.396;
#BPMS:0.000=172.000;
#STOPS:;
#CDIMAGE:;
#CHARTNAME:;
#CHARTSTYLE:;
#DISCIMAGE:;
#JACKET:Sir Duke-jacket.png;
#ORIGIN:;
#PREVIEWVID:;
#RADARVALUES:0.338293,0.353897,0.043691,0.061167,0.000000,271.000000,266.000000,5.000000,7.000000,0.000000,0.000000,0.000000,0.000000,0.000000,0.338293,0.353897,0.043691,0.061167,0.000000,271.000000,266.000000,5.000000,7.000000,0.000000,0.000000,0.000000,0.000000,0.000000;
#BGCHANGES:;
#FGCHANGES:;

//--------------- dance-single - OrangeRight ----------------
#NOTES:
     dance-single:
     OrangeRight:
     Beginner:
     2:
     0,0,0,0,0:
0000
0000
0000
0000
,
0000
0000
0000
0000
,
0000
0000
0000
0000
,
0000
0000
0000
0000
,
0000
0000
0000
0000
,
0000
0000
0000
0000
,
0000
0000
0000
0000
,
0000
0000
0000
0000
,
0000
0000
0000
0000
,
1000
0000
1000
0000
,
1000
0000
1000
0000
,
0001
0000
0001
0000
,
0001
0000
0001
0000
,
1000
0000
1000
0000
,
1000
0000
1000
0000
,
0001
0000
0001
0000
,
0100
0000
0010
0000
,
1001
0000
0000
0000
,
1000
0000
0000
0000
,
0100
0000
0000
0000
,
0010
0000
0010
0000
,
0001
0000
0000
0000
,
0001
0000
0000
0000
,
0001
0000
0100
0000
,
0010
0000
0010
0000
,
1000
0000
1000
0000
,
0100
0000
0000
0000
,
0010
0000
0010
0000
,
0001
0000
0000
0000
,
1000
0000
1000
0000
,
0001
0000
0100
0000
,
0001
0000
0001
0000
,
1000
0000
0100
0000
,
1000
0000
1000
0000
,
0001
0000
0100
0000
,
0001
0000
0001
0000
,
1000
0000
0100
0000
,
1000
0000
1000
0000
,
1000
0000
1000
0000
,
0001
0000
0001
0000
,
0001
0000
0001
0000
,
1000
0000
1000
0000
,
1000
0000
1000
0000
,
0001
0000
0001
0000
,
0100
0000
0010
0000
,
1001
0000
0000
0000
,
0001
0000
0000
0000
,
0010
0000
0000
0000
,
0100
0000
0100
0000
,
1000
0000
0000
0000
,
1000
0000
0000
0000
,
1000
0000
0010
0000
,
0100
0000
0100
0000
,
0001
0000
0001
0000
,
0100
0000
0000
0000
,
0010
0000
0010
0000
,
1000
0000
0000
0000
,
1000
0000
1000
0000
,
0001
0000
0010
0000
,
0001
0000
0001
0000
,
1000
0000
0010
0000
,
1000
0000
1000
0000
,
0001
0000
0010
0000
,
0001
0000
0001
0000
,
1000
0000
0010
0000
,
1000
0000
1000
0000
,
0100
0000
0010
0000
,
0001
0000
0001
0000
,
0100
0000
0010
0000
,
1000
0000
1000
0000
,
0010
0000
0100
0000
,
0001
0000
0001
0000
,
0010
0100
0010
0100
,
0010
0000
0000
0000
,
0010
0000
0000
0000
,
0010
0000
0000
0000
,
0100
0000
0000
0000
,
1000
0000
0000
0000
,
1000
0000
0000
0000
,
0001
0000
0000
0000
,
0001
0000
0000
0000
,
1001
0000
0000
0000
;

//--------------- dance-single - OrangeRight ----------------
#NOTES:
     dance-single:
     OrangeRight:
     Easy:
     5:
     0,0,0,0,0:
0000
0000
0000
0000
,
0000
0000
0000
0000
,
0000
0000
0000
0000
,
0000
0000
0000
0000
,
0000
0000
0000
0000
,
0000
0000
0000
0000
,
0000
0000
0000
0000
,
0000
0000
0000
0000
,
1000
0000
0001
0000
,
1000
0100
1000
1000
,
0001
0100
0001
0001
,
1000
0100
1000
1000
,
0001
0100
0010
1000
,
0001
0100
0001
0001
,
1000
0100
1000
1000
,
0001
0100
0001
0001
,
1000
0100
0010
0001
,
1001
0100
0001
0100
,
0010
1000
0010
0000
,
1000
0100
1000
0010
,
0100
0001
0010
0001
,
1001
0100
1000
0100
,
0010
0001
0010
0000
,
0001
0100
0001
0010
,
0100
0100
0100
0100
,
1000
0100
0010
0001
,
0100
0010
0100
0000
,
0001
0100
0010
1000
,
0100
0010
0100
0000
,
1000
0100
0010
0001
,
0100
0000
0000
0100
0000
0000
0000
0000
,
0001
0100
0010
1000
,
0100
0100
0100
0100
,
1000
0010
0100
0001
,
0010
0000
0000
0010
0000
0000
0000
0000
,
0001
0010
0100
1000
,
0010
0010
0010
0010
,
1000
1000
0010
1000
,
0001
0001
0010
0001
,
1000
1000
0010
1000
,
0001
0010
0100
1000
,
0001
0001
0010
0001
,
1000
1000
0010
1000
,
0001
0001
0010
0001
,
1000
0010
0100
0001
,
1001
0010
1000
0010
,
0100
0001
0100
0000
,
0001
0010
0001
0100
,
0010
1000
0100
1000
,
1001
0010
0001
0010
,
0100
1000
0100
0000
,
1000
0010
1000
0100
,
0010
0001
0100
0010
,
1000
1000
0100
0100
,
0010
0001
0100
0000
,
0001
0001
0100
0100
,
0010
1000
0100
0000
,
1000
0100
0010
0001
,
0100
0000
0000
0100
0000
0000
0000
0000
,
0001
0100
0010
1000
,
0100
0100
0100
0100
,
1000
0010
0100
0001
,
0010
0000
0000
0010
0000
0000
0000
0000
,
0001
0010
0100
1000
,
0010
0010
0010
0010
,
1000
0001
0010
0001
,
0100
0000
0000
0010
0000
0000
1000
0000
,
0001
1000
0010
1000
,
0100
0010
0100
0010
,
0001
1000
0100
1000
,
0010
0000
0000
0100
0000
0000
0001
0000
,
1000
0100
0010
0001
,
1000
0001
1000
0001
,
2000
0000
0100
3001
,
0002
0000
0100
1003
,
2000
0000
0010
3001
,
0002
0000
0010
1003
,
2000
0000
0100
3010
,
0002
0000
0100
0013
,
2000
0000
0010
3100
,
1001
0000
0000
1000
0000
0001
0000
1000
,
0001
0000
0000
0000
;

//--------------- dance-single - OrangeRight ----------------
#NOTES:
     dance-single:
     OrangeRight:
     Medium:
     12:
     0,0,0,0,0:
0000
0000
0000
0000
,
0000
0000
0000
0000
,
0000
0000
0000
0000
,
0000
0000
0000
0000
,
0000
0000
0000
0000
,
0000
0000
0000
0000
,
0000
0000
0000
0000
,
0000
0000
0000
0000
,
1001
0000
0000
0001
0000
1000
0000
0001
,
1000
1000
0001
0001
0100
0010
1000
0000
,
1000
1000
0001
0001
0010
0100
1000
0000
,
1000
1000
0010
0010
0100
0100
0001
0001
,
1000
0001
1000
0001
1000
0001
0100
0010
,
1000
1000
0010
0010
0100
0001
0010
0000
,
0001
0001
0100
0100
0010
1000
0100
0000
,
1000
1000
0010
0010
0100
0100
0001
0001
,
1000
0001
1000
0001
1000
0100
0010
0001
,
1001
0000
0100
0001
0010
0100
1000
0010
,
0100
0001
0000
1001
0000
0000
0001
0010
,
0100
1000
0010
0100
0001
0100
0000
0101
,
0000
0001
0100
0000
0010
1000
0010
0000
,
1001
0000
0100
1000
0010
0100
0001
0010
,
0100
1000
0000
1001
0000
0000
1000
0010
,
0100
0001
0010
0100
1000
0100
0000
0100
,
1000
0001
0000
0100
0000
0010
0000
1000
,
0001
0001
0100
0100
0010
0010
1000
1000
,
0100
0100
0010
0010
0002
0000
0003
0000
,
1000
1000
0100
0100
0010
0010
0001
0001
,
0100
0100
0010
0010
0120
0000
1030
0000
,
1000
0000
0010
0100
0001
0100
0010
0000
,
1000
0100
0010
0002
0000
0000
0103
0000
,
0001
0000
0010
0100
1000
0100
0010
0000
,
0011
0101
0011
0101
,
0001
0000
0100
0010
1000
0010
0100
0000
,
0001
0010
0100
2000
0000
0000
3010
0000
,
1000
0000
0100
0010
0001
0010
0100
0000
,
1100
1010
1100
1010
,
0100
0100
0010
0010
0001
1000
0100
0000
,
0010
0010
0100
0100
1000
0001
0010
0000
,
0010
0010
0100
0100
1000
1000
0001
0001
,
0100
0010
1000
0001
0100
0010
1000
0001
,
1000
1000
0001
0001
0010
0001
1000
0000
,
0001
0001
1000
1000
0010
1000
0001
0000
,
1000
1000
0001
0001
0100
0100
0010
0010
,
2000
3002
2003
3001
,
1001
0000
0010
1000
0100
0010
0001
0100
,
0010
1000
0000
1001
0000
0000
1000
0100
,
0010
0001
0100
0010
1000
0010
0000
1010
,
0000
1000
0010
0000
0100
0001
0100
0000
,
1001
0000
0010
0001
0100
0010
1000
0100
,
0010
0001
0000
1001
0000
0000
0001
0100
,
0010
1000
0100
0010
0001
0010
0000
0010
,
0002
0203
0320
2030
,
3001
0001
0010
0010
0100
0100
1000
1000
,
0010
0010
0100
0100
0002
0000
0003
0000
,
1000
1000
0100
0100
0010
0010
0001
0001
,
0100
0100
0010
0010
0210
0000
0301
0000
,
1000
0000
0100
0010
0001
0010
0100
0000
,
1000
0010
0100
0002
0000
0000
0013
0000
,
0001
0000
0100
0010
1000
0010
0100
0000
,
0101
0011
0101
0011
,
0001
0000
0010
0100
1000
0100
0010
0000
,
0001
0100
0010
2000
0000
0000
3100
0000
,
1000
0000
0010
0100
0001
0100
0010
0000
,
1010
1100
1010
1100
,
1000
0100
0010
0001
1000
0100
0010
0001
,
1000
0001
1000
0002
0000
0000
1003
0000
,
0001
0100
0010
1000
0001
0100
0010
1000
,
0002
2003
3002
2003
,
3001
0010
0100
1000
0001
0010
0100
1000
,
0001
1000
0001
2000
0000
0000
3001
0000
,
1000
0100
0010
0001
1000
0100
0010
0001
,
1000
0001
1000
0001
0100
0010
0100
0010
,
1000
0000
0000
0000
0100
0000
0000
0100
0010
0000
0000
0000
0001
0000
0000
0001
,
1000
0000
0000
0000
0001
0000
0000
0001
0100
0000
0000
0000
0010
0000
0000
0010
,
1000
0000
0000
0000
0100
0000
0000
0100
0010
0000
0000
0000
0001
0000
0000
0001
,
0100
0000
0000
0100
0001
0000
0000
0001
0100
0000
0000
0100
0001
0000
0100
0000
,
0001
0000
0000
0000
0010
0000
0000
0010
0100
0000
0000
0000
1000
0000
0000
1000
,
0001
0000
0000
0000
1000
0000
0000
1000
0010
0000
0000
0000
0100
0000
0000
0100
,
0001
0000
0000
0001
0010
0000
0000
0010
0100
0000
0000
0100
1000
0000
0000
1000
,
0010
0000
0000
0100
0000
0010
0000
0110
,
1001
0000
0000
0000
;

//--------------- dance-single - OrangeRight ----------------
#NOTES:
     dance-single:
     OrangeRight:
     Hard:
     15:
     0,0,0,0,0:
0000
0000
0000
0000
,
0000
0000
0000
0000
,
0000
0000
0000
0000
,
0000
0000
0000
0000
,
0000
0000
0000
0000
,
0000
0000
0000
0000
,
0000
0000
0000
0000
,
0000
0000
0000
0000
,
1001
0000
0000
1001
0000
1001
0000
1001
,
1000
0000
0100
1000
0100
0000
1000
0100
1000
0000
0010
0100
0000
0100
0001
0000
,
0010
0000
0001
0010
0001
0010
0001
0000
0100
0000
0010
1000
0000
1000
0010
0000
,
1000
0000
1000
0000
0010
0000
0010
0000
0100
0000
0100
0000
0001
0000
0001
0100
,
0000
0100
0010
0100
0001
1000
0100
0010
,
0001
0000
0010
0001
0010
0000
0001
0010
0001
0000
0100
0010
0000
0010
1000
0000
,
0100
0000
1000
0100
1000
0100
1000
0000
0010
0000
0100
0001
0000
0001
0100
0000
,
0001
0000
0001
0000
0100
0000
0100
0000
0010
0000
0010
0000
1000
0000
1000
0100
,
0000
0000
0100
0000
0010
0000
0100
0000
1000
0001
1000
0001
0100
0000
0010
0000
,
1001
0000
1000
0100
0010
0001
0010
1000
,
0010
0001
0100
0010
0000
0010
1000
0100
,
0001
0100
1000
0010
0100
0001
0000
1001
,
0000
0001
0001
0010
0001
0100
0001
1000
,
1001
0000
0001
0010
0100
1000
0100
0001
,
0100
1000
0010
0100
0000
0100
0001
0010
,
1000
0010
0001
0100
0010
1000
0000
0001
,
1000
0100
0000
0110
0000
0011
0000
0001
,
1000
1000
0100
0100
0010
0010
0001
0001
,
0100
0000
0100
0000
0010
0000
0010
0100
0000
0000
1001
0000
0000
0000
0000
0000
,
0001
0001
0100
0100
0010
0010
1000
1000
,
0100
0100
0010
0010
0110
0000
1001
0000
,
1000
0001
0100
0010
1000
0100
0010
0001
,
0100
1000
0100
0002
0000
1003
0100
1000
,
0001
1000
0100
0010
0001
0100
0010
1000
,
1000
0010
0000
0000
0010
0001
0000
0000
0001
0010
0000
0000
0010
1000
0000
0000
,
0001
1000
0010
0100
0001
0010
0100
1000
,
0010
0001
0010
2000
0000
3001
0010
0001
,
1000
0001
0010
0100
1000
0010
0100
0001
,
0001
0100
0000
0000
0100
1000
0000
0000
1000
0100
0000
0000
0100
0001
0000
0000
,
0001
0000
0100
0001
0100
0000
0001
0100
0001
0000
0010
0100
0000
0100
1000
0000
,
0010
0000
1000
0010
1000
0010
1000
0000
0100
0000
0010
0001
0000
0001
0010
0000
,
0001
0000
0001
0000
0100
0000
0100
0000
0010
0000
0010
0000
1000
0000
1000
0100
,
0000
0100
0010
0100
1000
0001
0100
0010
,
1000
0000
0010
1000
0010
0000
1000
0010
1000
0000
0100
0010
0000
0010
0001
0000
,
0100
0000
0001
0100
0001
0100
0001
0000
0010
0000
0100
1000
0000
1000
0100
0000
,
1000
1000
0100
0100
0010
0010
0001
0001
,
0101
1010
1100
0011
,
1001
0000
1000
0100
0001
0100
0010
0100
,
1000
0001
0100
1000
0000
1000
0100
0001
,
0010
0100
1000
0010
0001
0010
1000
0001
,
0000
1000
1000
0100
1000
0010
1000
0001
,
1001
0000
0001
0010
1000
0010
0100
0010
,
0001
1000
0010
0001
0000
0001
0010
1000
,
0100
0010
0001
0100
1000
0100
0001
1000
,
0100
0010
0001
1000
0010
0100
0001
1000
,
0001
0001
0010
0010
0100
0100
1000
1000
,
0010
0000
0010
0000
0100
0000
0100
0010
0000
0000
1001
0000
0000
0000
0000
0000
,
1000
1000
0010
0010
0100
0100
0001
0001
,
0010
0010
0100
0100
0110
0000
1001
0000
,
1000
0100
0001
0100
1000
0100
0001
0100
,
1000
0010
0100
0002
0000
1003
0100
1000
,
0001
0100
1000
0100
0001
0100
1000
0100
,
0001
0100
0000
0000
0001
0010
0000
0000
0010
0100
0000
0000
0100
1000
0000
0000
,
1000
0010
0001
0010
1000
0010
0001
0010
,
1000
0100
0010
0002
0000
1003
0010
1000
,
0001
0010
1000
0010
0001
0010
1000
0010
,
0001
0010
0000
0000
0001
0100
0000
0000
0100
0010
0000
0000
0010
1000
0000
0000
,
1000
0100
0001
0100
0010
0100
1000
0001
,
0100
1000
0100
0002
0000
1003
0010
1000
,
0001
0100
1000
0100
0010
0100
0001
1000
,
0001
1000
0000
0000
1000
0010
0000
0000
0010
0100
0000
0100
0010
0000
0100
0000
,
0001
0010
1000
0010
0100
0010
0001
0100
,
1000
0100
0001
2000
0000
3001
1000
0001
,
1000
1000
0100
0100
0010
0010
0001
0001
,
1000
0100
1000
0100
0010
0001
0010
0001
1000
0010
1000
0010
0100
0001
0100
0001
,
2000
0010
0001
0100
,
3002
0010
1000
0100
,
2003
0100
0001
0010
,
3002
0100
1000
0010
,
1003
0000
1000
0000
0100
0000
0000
0100
0010
0000
0001
0000
0100
0000
0000
0100
,
0001
0000
0001
0000
0010
0000
0000
0010
0100
0000
1000
0000
0010
0000
0000
0010
,
1000
0100
1000
0000
0100
1000
0100
0000
0010
0001
0010
0000
0001
0010
0001
0000
,
1001
0000
0000
1001
0000
1001
0000
1001
,
0110
0000
0000
0000
;

//--------------- dance-single - OrangeRight ----------------
#NOTES:
     dance-single:
     OrangeRight:
     Challenge:
     17:
     0,0,0,0,0:
0000
0000
0000
0000
,
0000
0000
0000
0000
,
0000
0000
0000
0000
,
0000
0000
0000
0000
,
0000
0000
0000
0000
,
0000
0000
0000
0000
,
0000
0000
0000
0000
,
0000
0000
0000
0000
,
1001
0000
0000
1100
0000
0101
0000
1001
,
1000
0000
0001
0100
0001
0000
1000
0100
1000
0000
0001
0100
0000
0100
0010
0100
,
0001
0000
1000
0100
1000
0010
0100
0000
0001
0100
0001
1000
0000
1000
0100
1000
,
0001
0100
0001
0000
0001
0010
0001
0000
0001
0010
0100
0000
1000
0100
1000
0001
,
0000
1000
0001
1000
0001
1000
0001
0000
1000
0001
1000
0000
0001
0100
0010
1000
,
0001
0000
1000
0010
1000
0000
0001
0010
0001
0000
1000
0010
0000
0010
0100
0010
,
1000
0000
0001
0010
0001
0100
0010
0000
1000
0010
1000
0001
0000
0001
0010
0001
,
1000
0010
1000
0000
1000
0100
1000
0000
1000
0100
0010
0000
0001
0010
0001
1000
,
0000
0000
0000
0001
0000
0000
1000
0000
0000
0010
0000
0000
0100
0000
0000
0001
0000
0000
1000
0000
0000
0000
0000
0000
1000
0000
0000
0100
0000
0000
0010
0000
0000
0001
0000
0000
1000
0000
0100
0000
0010
0000
0001
0000
1000
0000
0100
0000
,
0010
0000
1001
0100
0001
0100
1000
0100
,
0010
0001
0100
1000
0000
1000
0100
0001
,
0100
0010
1000
0010
0001
0010
0000
1001
,
0000
0000
1000
0000
1000
0000
0100
1000
0000
0010
0100
0000
0001
0000
1000
0000
,
0010
0000
1001
0100
1000
0100
0001
0100
,
0010
1000
0100
0001
0000
0001
0100
1000
,
0010
0001
0010
0100
0010
1000
0010
0100
,
0110
0000
1010
0000
1000
0000
1100
0000
0100
0000
0110
0000
0010
0000
0001
1000
,
0001
0101
0100
0110
0010
1010
1000
1100
,
0100
0000
0110
0000
0010
0000
0100
0010
0000
0000
1001
0000
0000
0000
1000
0001
,
1000
0000
1010
0000
0010
0000
0100
0010
0000
0100
0001
0000
0010
0000
0011
0000
,
0010
0000
0110
0000
0100
0000
0010
0100
0010
0000
0000
0000
1001
0000
0000
0000
,
1000
0100
1000
0001
1000
0010
1000
0100
,
0001
0100
0010
0100
1000
0001
1000
1000
,
0001
0100
0001
1000
0001
0010
0001
0100
,
0001
0100
0002
0000
1003
0100
2000
0000
3001
0010
0002
0000
1003
0010
2000
0000
,
3001
0100
0001
1000
0001
0010
0001
0100
,
1000
0100
0010
0100
0001
1000
0001
0001
,
1000
0100
1000
0000
0001
0000
1000
0000
0001
0100
0001
0000
1000
0000
0001
0000
,
1000
0100
0020
0000
0031
0100
0020
0000
1030
0010
0200
0000
0301
0010
0200
0000
,
1300
0000
0001
0010
0001
0000
1000
0010
1000
0000
0001
0010
0000
0010
0100
0010
,
0001
0000
1000
0010
1000
0100
0010
0000
0001
0010
0001
1000
0000
1000
0010
1000
,
0001
0010
0001
0000
0001
0100
0001
0000
0001
0100
0010
0000
1000
0010
1000
0001
,
0000
1000
0001
1000
0001
1000
0001
0000
1000
0001
1000
0000
0001
0010
0100
1000
,
0001
0000
1000
0100
1000
0000
0001
0100
0001
0000
1000
0100
0000
0100
0010
0100
,
1000
0000
0001
0100
0001
0010
0100
0000
1000
0100
1000
0001
0000
0001
0100
0001
,
1000
0100
1000
0000
1000
0010
1000
0000
1000
0010
0100
0000
0001
0100
0001
1000
,
0000
0000
0000
0001
0000
0000
1000
0000
0000
0100
0000
0000
0010
0000
0000
0001
0000
0000
1000
0000
0000
0000
0000
0000
1000
0000
0000
0010
0000
0000
0100
0000
0000
0001
0000
0000
1000
0000
0010
0000
0100
0000
0001
0000
1000
0000
0010
0000
,
0100
0000
1001
0010
1000
0010
0001
0010
,
1000
0100
0001
0100
1000
0001
0100
1000
,
0100
0001
0010
1000
0010
0001
0100
0010
,
1000
0000
0010
0000
0100
0000
0001
0100
0000
1000
0100
0000
0001
0000
1000
0000
,
0010
0000
1001
0100
0001
0100
1000
0100
,
0001
0010
1000
0010
0001
1000
0010
0001
,
0010
0020
1000
2030
0100
3200
0010
0310
,
0001
0100
0010
1000
0100
0010
0001
1000
0100
0010
0001
0100
0010
1000
0001
0100
,
0010
0000
0110
0000
0100
0000
0101
0000
0001
0000
1000
0001
1000
0000
1001
0000
,
1000
0000
1100
0000
0100
0000
0010
0100
0000
0000
1001
0000
0000
0000
0001
1000
,
0001
0000
0101
0000
0100
0000
0110
0000
0010
0000
1000
0100
0000
0100
1000
0000
,
1100
1100
0101
0101
1001
0000
0110
0000
,
1000
0100
0010
0100
0001
0100
0010
0100
,
1000
0010
0001
0010
1000
0100
1000
0001
,
0100
1000
0100
0010
0100
1000
0100
0001
,
0010
0001
0200
0000
0310
1000
0200
0000
1300
0100
0020
0000
0031
0010
0200
0000
,
1300
0010
0100
0010
0001
0010
0100
0010
,
1000
0100
0001
0100
1000
0010
0100
0001
,
0010
1000
0010
0100
0010
1000
0010
0001
,
0100
0001
0020
0000
0130
1000
0020
0000
1030
0010
0200
0000
0301
0100
0020
0000
,
1030
0100
0001
0100
0010
0001
0010
1000
,
0010
0001
0100
0010
1000
0100
1000
1000
,
0001
0100
1000
0100
0010
1000
0010
0001
,
0010
1000
0020
0000
0130
0010
0200
0000
0301
1000
0001
0010
0100
1000
0001
0000
,
0001
0100
1000
0100
0010
1000
0010
0001
,
0010
1000
0100
0010
0001
0100
0001
0001
,
1001
1001
0110
0110
1010
1010
0101
0101
,
1000
0100
0010
0001
0100
0010
1000
0001
0010
0100
1000
0100
0010
0001
0100
0010
,
1000
0000
0001
0010
0100
0000
1000
0010
0100
0000
0001
1000
0000
1000
0100
0010
,
0001
0000
1000
0010
0100
0001
0010
0000
0001
0010
0100
1000
0000
1000
0010
0100
,
0001
0010
0001
0000
0001
0100
0001
0000
0001
0100
0010
0000
1000
0010
0100
0001
,
0000
1000
0001
0100
0010
1000
0001
0000
1000
0001
1000
0000
0001
0010
0100
1000
,
0001
0000
1000
0100
0010
0000
0001
0100
0010
0000
1000
0001
0000
0001
0010
0100
,
1000
0000
0001
0100
0010
1000
0100
0000
1000
0100
0010
0001
0000
0001
0100
0010
,
1000
0100
1000
0000
1000
0010
1000
0000
1000
0010
0100
0000
0001
0100
0010
1000
,
0001
0000
0000
1000
0000
0000
0001
0000
0000
1000
0000
0000
0001
0000
0000
1000
0000
0000
0001
0000
0000
1000
0000
0000
0010
0000
0000
0100
0000
0000
0001
0000
0000
1000
0000
0000
0100
0000
0010
0000
0001
0000
1000
0000
0100
0000
0010
0000
,
0001
0000
0000
0000
;
