#TITLE:SPIRAL;
#SUBTITLE:;
#ARTIST:Pr!sm;
#TITLETRANSLIT:;
#SUBTITLETRANSLIT:;
#ARTISTTRANSLIT:;
#GENRE:;
#CREDIT:;
#MUSIC:spiral.ogg;
#BANNER:spiral-bn.png;
#BACKGROUND:spiral-bg.png;
#CDTITLE:;
#SAMPLESTART:85.882;
#SAMPLELENGTH:12.000;
#SELECTABLE:YES;
#OFFSET:1.548;
#BPMS:0.000=155.000
,36.000=465.000
,39.000=155.000
,40.000=310.000
,168.000=465.000
,171.000=155.000
,224.000=65.000
,232.000=160.000
,264.000=480.000
,267.000=160.000
,268.000=320.000
;
#STOPS:36.000=0.774
,168.000=0.774
,204.000=0.387
,204.500=0.387
,205.000=0.387
,205.500=0.387
,208.000=0.387
,208.500=0.387
,209.000=0.387
,209.500=0.387
,212.000=0.387
,212.500=0.387
,213.000=0.387
,213.500=0.387
,264.000=0.720
;
#DISPLAYBPM:65.000:320.000;
#CDIMAGE:;
#CHARTNAME:;
#CHARTSTYLE:;
#DISCIMAGE:;
#JACKET:;
#ORIGIN:;
#PREVIEWVID:;
#RADARVALUES:0.282230,0.455583,0.102187,0.093671,0.000000,209.000000,12.000000,11.000000,0.000000,0.000000,0.000000,0.000000,0.000000,0.282230,0.455583,0.102187,0.093671,0.000000,209.000000,12.000000,11.000000,0.000000,0.000000,0.000000,0.000000,0.000000;
#BGCHANGES:;
#FGCHANGES:;

//--------------- dance-single - ----------------
#NOTES:
     dance-single:
     :
     Beginner:
     6:
     0,0,0,0,0:
0000
0000
0000
0000
,
0000
0000
0000
0000
,
0000
0000
0000
0000
,
0000
0000
0000
0000
,
0000
0000
0000
0000
,
1000
0000
1000
0000
,
0001
0000
0001
0000
,
0100
0000
0100
0000
,
0010
0010
0010
0000
,
2002
0000
0000
3003
,
1000
0000
1000
0000
,
0100
0000
1000
0000
,
0001
0000
0001
0000
,
0100
0000
0001
0000
,
1000
0000
1000
0000
,
0010
0000
1000
0000
,
0001
0000
0001
0000
,
0010
0000
0001
0000
,
1000
0000
1000
0000
,
0100
0000
0010
0000
,
0001
0000
0001
0000
,
0100
0000
0010
0000
,
1000
0000
1000
0000
,
0010
0000
0100
0000
,
0001
0000
0001
0000
,
0010
0000
0100
0000
,
2000
0000
0000
0000
,
0100
0000
0000
0000
,
0001
0000
0000
0000
,
3010
0000
0000
0000
,
0002
0000
0000
0000
,
0100
0000
0000
0000
,
1000
0000
0000
0000
,
0013
0000
0000
0000
,
0020
0000
0000
0000
,
0100
0000
0000
0000
,
0100
0000
0000
0000
,
0130
0000
0000
0000
,
0100
0000
1000
0000
,
0001
0000
0100
0000
,
0010
0000
1000
0000
,
0001
0001
0001
0000
,
2002
0000
0000
3003
,
1000
1000
0000
1000
,
0001
0001
0000
0001
,
1000
1000
0000
1000
,
0001
0001
0000
0001
,
0100
0100
0000
0001
,
1000
1000
0000
0100
,
0010
0010
0000
0001
,
1000
1000
0010
0100
,
0000
0000
1001
1001
,
0000
0000
1001
1001
,
0000
0000
1001
1001
,
1000
0010
0100
0001
,
1000
0100
0010
0001
,
2002
0000
0000
0000
,
0000
0000
0000
3003
,
1000
0000
1000
0000
0001
0001
0001
0000
,
0001
0000
0001
0000
1000
1000
1000
0000
,
0010
0000
0010
0000
0100
0100
0100
0000
,
0100
0000
0100
0000
0010
0010
0010
0000
,
1000
0000
1000
0000
0001
0001
0001
0000
,
0001
0000
0001
0000
1000
1000
1000
0000
,
1000
0100
0100
1000
,
0001
0100
0100
0001
,
2002
0000
0000
3003
,
1000
0000
0010
0000
,
0010
0000
0100
0000
,
0001
0000
0010
0000
,
0010
0000
0100
0000
,
1000
0000
0100
0000
,
0100
0000
0010
0000
,
0001
0000
0100
0000
,
0100
0000
0010
0000
,
1000
0000
0100
0000
,
0010
0000
0001
0000
,
1000
0000
0010
0000
,
0100
0000
0001
0000
,
0001
0000
0100
0000
,
0010
0000
1000
0000
,
0001
0000
0010
0000
,
0100
0000
1000
0000
,
1000
0000
0000
1000
,
0000
0000
1000
0000
,
0000
1000
0000
0000
,
0100
0000
0010
0000
,
0001
0000
0000
0001
,
0000
0000
0001
0000
,
0000
0100
0000
0000
,
0010
0000
0010
0000
,
1000
0000
0100
0000
,
0010
0000
0100
0000
,
1000
0000
0001
0000
,
0100
0000
0010
0000
,
1000
0000
0100
0000
,
0010
0000
0001
0000
,
1000
0001
1000
0001
,
1000
0001
1000
0001
,
1000
0000
0000
0000
,
0000
0000
0000
0000
,
0000
0000
0000
0000
,
0000
0000
0000
0000
,
0000
0000
0000
0000
,
0000
0000
0000
0000
,
0000
0000
0000
0000
,
0000
0000
0000
0000
,
1001
0000
0000
0000
;

//--------------- dance-single - ----------------
#NOTES:
     dance-single:
     :
     Easy:
     10:
     0,0,0,0,0:
0000
0000
0000
0000
,
0000
0000
0000
0000
,
0000
0000
0000
0000
,
0000
0000
0000
0000
,
0000
0000
0000
0000
,
1000
1000
0001
0001
,
1000
1000
0001
0001
,
1000
0001
1000
0001
,
1000
0100
0010
0001
,
2002
0000
0000
3003
,
1000
0001
1000
0000
,
0001
1000
0001
0000
,
1000
0100
1000
0000
,
0001
0100
0001
0000
,
0100
0010
0100
0000
,
0010
0100
0010
0000
,
0010
1000
0010
0000
,
0100
0001
0100
0000
,
0001
1000
0001
0000
,
1000
0001
1000
0000
,
0001
0010
0001
0000
,
1000
0010
1000
0000
,
0010
0100
0010
0000
,
0100
0010
0100
0000
,
0100
0001
0100
0000
,
0010
0010
1000
1000
,
0002
0000
0100
0000
,
0100
0000
0100
0000
,
1000
0000
1000
0000
,
0010
0000
0010
0003
,
0001
0010
0100
0000
,
1000
0010
0100
0000
,
0001
0100
0010
0000
,
1000
0100
0010
0100
,
2000
0000
0100
0000
,
0100
0000
0100
0000
,
0001
0000
0001
0000
,
0010
0000
0010
3000
,
0010
1000
0010
0100
,
0001
1000
0001
0010
,
0100
1000
0001
0100
,
0010
1000
0001
0010
,
0200
0000
0000
0300
,
1000
0000
1000
0000
0010
1000
0010
0000
,
0100
0000
0100
0000
0001
0100
0001
0000
,
0001
0000
0001
0000
0010
0001
0010
0000
,
0100
0000
0100
0000
1000
0100
1000
0000
,
1000
0000
1001
0000
0100
0010
0100
0000
,
0001
0000
1001
0000
0100
0010
0100
0000
,
1000
0000
1010
0000
0100
0001
0100
0000
,
0001
0000
0011
0000
0100
1000
0100
0000
,
2000
3000
2000
3000
2000
3000
2000
3000
1000
0000
0000
0000
1001
0000
0000
0000
,
0002
0003
0002
0003
0002
0003
0002
0003
0001
0000
0001
0000
0101
0000
0000
0000
,
0200
0300
0200
0300
0200
0300
0200
0300
0100
0000
0000
0000
0110
0000
0000
0000
,
0010
1001
0100
1001
,
0010
1000
1001
0110
,
2002
0000
0000
0000
,
0000
0000
0000
3003
,
1000
1000
1000
0000
0100
0000
0010
0000
,
0001
0001
0001
0000
0100
0000
0010
0000
,
1000
0000
0010
0000
0100
0001
0100
0000
,
0001
0000
0010
0000
0100
1000
0100
0000
,
1000
1000
1000
0000
0010
0000
0100
0000
,
0001
0001
0001
0000
0010
0000
0100
0000
,
1000
0100
0010
0001
,
1000
0000
0010
0000
0100
0001
0100
0001
,
2000
0000
0000
3000
,
1000
0100
1000
0000
,
0001
0010
0001
0000
,
1000
0010
1000
0000
,
0001
0100
0001
0000
,
1000
0001
1000
0000
,
0100
0010
0100
0000
,
0010
0001
0010
0000
,
0100
1000
0100
0000
,
1000
0010
0100
0000
,
0001
0010
0100
0000
,
1000
0100
0010
0000
,
0001
0100
0010
0000
,
1000
0001
0100
0000
,
0001
1000
0100
0000
,
1000
0001
0010
0000
,
0001
1000
0010
0100
,
0001
0100
0001
0100
,
0010
1000
0010
0000
,
1000
0100
1000
0100
,
0010
0001
0010
0000
,
0001
0010
0001
0010
,
0100
1000
0100
0000
,
1000
0100
0010
0001
,
0100
0010
1000
0000
,
1001
0000
1001
0000
,
0110
0000
0110
0000
,
1010
0000
1010
0000
,
0101
0000
0101
0000
,
1000
0001
1000
0001
,
0100
0010
0100
0010
,
1000
0100
0010
0001
,
0100
0010
1000
0100
,
0020
0000
0000
0000
,
0000
0000
0000
0000
,
0000
0000
0000
0000
,
0000
0000
0000
0000
,
0000
0000
0000
0000
,
0000
0000
0000
0000
,
0000
0000
0000
0000
,
0000
0000
0000
0000
,
0031
0000
0000
0000
;

//--------------- dance-single - ----------------
#NOTES:
     dance-single:
     :
     Medium:
     15:
     0,0,0,0,0:
0000
0000
0000
0000
,
0000
0000
0000
0000
,
0000
0000
0000
0000
,
0000
0000
0000
0000
,
0000
0000
0000
0000
,
1000
0100
1000
0100
,
0010
0001
0010
0001
,
0100
0010
1000
0100
0010
0100
1000
0001
,
1000
1000
0001
0001
1000
0010
0100
0001
,
0102
0000
0000
1003
,
1000
0100
1000
0000
0010
0000
0100
0000
,
0001
0100
0001
0000
0010
0000
0100
0000
,
1000
0010
1000
0000
0100
0000
0010
0000
,
0001
0010
0001
0000
0100
0000
0010
0000
,
1000
0001
1000
0000
0010
0000
0100
0000
,
0001
1000
0001
0000
0010
0000
0100
0000
,
0010
0100
0010
0000
0100
0000
1000
0000
,
0010
0100
0010
0000
0100
0000
0001
0000
,
1000
0100
1000
0000
0100
0000
0010
0000
,
0001
0100
0001
0000
0100
0000
0010
0000
,
1000
0010
1000
0000
0010
0000
0100
0000
,
0001
0010
0001
0000
0010
0000
0100
0000
,
1000
0100
0010
0000
0001
0000
0100
0000
,
0001
0100
0010
0000
1000
0000
0100
0000
,
1000
0100
1000
0000
0001
0000
0100
0000
,
0001
0100
0001
0000
1000
0100
1000
0000
,
2000
0010
0010
3010
,
0020
0100
0100
0130
,
0200
0001
0001
0301
,
0002
1000
1000
1003
,
0001
1000
0001
0000
0010
0000
0100
0000
,
1000
0001
1000
0000
0010
0000
0100
0000
,
0001
0100
0001
0000
1000
0000
0100
0000
,
1000
0100
1000
0000
0001
0000
0100
0000
,
0002
0100
0100
0103
,
0200
0010
0010
0310
,
0020
1000
1000
1030
,
2000
0001
0001
3001
,
1000
0001
1000
0001
1000
0001
1000
0000
,
0001
1000
0001
1000
0001
1000
0001
0000
,
1000
0100
0010
0001
0100
0010
1000
0001
,
0010
0100
1000
0001
1000
0001
0100
0010
,
0200
0000
0000
0310
,
0010
1000
0100
0010
0001
0100
0001
0000
,
0010
0001
0100
0010
1000
0100
1000
0000
,
0100
1000
0010
0100
0001
0010
0001
0000
,
0100
0001
0010
0100
1000
0010
1000
1000
,
0001
0000
0100
0000
0010
0000
0100
0001
0000
0000
0001
0000
0101
0000
0000
0000
,
1000
0000
0100
0000
0010
0000
0100
1000
0000
0000
1000
0000
1100
0000
0000
0000
,
1000
0000
0010
0000
0100
0000
0010
1000
0000
0000
1010
0000
0101
0000
0000
0000
,
0001
0000
0010
0000
0100
0000
0010
0001
1000
0100
1000
0100
1000
0001
1000
0001
,
2000
3000
2000
3000
2000
3000
2000
3000
1100
0000
0000
0000
0011
0000
0000
0000
,
0002
0003
0002
0003
0002
0003
0002
0003
0101
0000
0101
0000
1010
0000
0000
0000
,
0020
0030
0020
0030
0020
0030
0020
0030
1010
0000
0000
0000
1001
0000
0000
0000
,
1000
1000
0001
0100
0001
0001
1000
0100
,
1000
0000
1000
0000
0001
0000
0001
0000
1000
0001
1000
0001
1000
0001
1000
0001
,
2002
0000
0000
0000
,
0000
0000
0000
3003
,
1000
0100
0010
0001
1000
0001
1000
0000
,
0001
0100
0010
1000
0001
1000
0001
1000
,
0010
1000
0000
0000
1000
0010
0000
0000
0010
0100
0000
0000
0100
0001
0000
0000
,
0001
1000
0000
0000
1000
0100
0000
0000
0100
0010
0000
0000
0010
0001
0000
0000
,
0001
0100
0010
1000
0001
1000
0001
0000
,
1000
0100
0010
0001
1000
0001
1000
0001
,
1000
0100
0000
0000
0100
0010
0000
0000
0010
0001
0000
0000
0001
0100
0000
0000
,
0100
0010
0000
0000
0010
1000
0000
0000
1000
0001
1000
0001
2000
0000
0000
0000
,
3002
0000
0000
0103
,
0001
0100
0001
0100
0010
0000
1000
0000
,
0100
0010
0100
1000
,
0001
0010
0001
0010
0100
0000
1000
0000
,
0010
0100
0010
1000
,
0100
0010
0100
0010
0100
0000
1000
0000
,
0001
0010
0100
1000
,
0010
0100
0010
0100
0010
0000
1000
0000
,
0001
0000
0100
0000
0010
0000
1000
0010
,
0100
0001
0100
0001
1000
0000
0100
0000
,
0010
0001
1000
0010
,
0100
0001
0100
0001
0010
0000
0001
0000
,
0100
0010
1000
0100
,
1000
0100
1000
0100
0010
0000
0001
0000
,
1000
0010
0100
0001
,
1000
0001
1000
0001
1000
0000
0001
0000
,
0100
0000
0010
0000
0100
0000
0010
0100
,
0001
0100
0001
0100
0010
1000
0010
1000
,
0001
0010
0001
0010
0100
1000
0100
0000
,
1000
0100
1000
0100
0010
0001
0010
0001
,
0100
0001
0100
0001
0100
0010
1000
0000
,
1000
0010
1000
0010
0100
0001
0100
0001
,
1000
0100
1000
0100
0010
0001
0010
0000
,
0001
0010
0001
0010
0100
1000
0100
1000
,
0001
0100
0001
0100
0010
1000
0001
0000
,
1001
0000
1100
0000
,
0101
0000
0011
0000
,
1010
0000
0110
0000
,
1001
0000
0110
0000
,
1000
0100
1000
0100
0010
0001
0010
0001
,
1000
0010
1000
0010
0100
0001
0100
0001
,
1000
0100
0010
0001
1000
0010
0100
0001
,
0010
0100
1000
0001
0100
0010
1000
0001
,
2002
0000
0000
0000
,
0000
0000
0000
0000
,
0000
0000
0000
0000
,
0000
0000
0000
0000
,
0000
0000
0000
0000
,
0000
0000
0000
0000
,
0000
0000
0000
0000
,
0000
0000
3003
0000
,
0110
0000
0000
0000
;

//--------------- dance-single - ----------------
#NOTES:
     dance-single:
     :
     Hard:
     17:
     0,0,0,0,0:
0000
0000
0000
0000
,
0000
0000
0000
0000
,
0000
0000
0000
0000
,
0000
0000
0000
0000
,
0000
0000
0000
0000
,
1000
0100
1000
0100
,
0010
0001
0010
0001
,
0100
0001
0100
0001
1000
0010
1000
0010
,
1000
0100
1000
0000
0001
0100
0001
0000
1000
0010
1000
0010
0100
0001
0100
0000
,
0102
0000
0000
1003
,
1000
0100
1000
0100
0000
0100
0010
0000
,
0001
0100
0001
0100
0000
0100
0010
0000
,
1000
0010
1000
0010
0000
0010
0100
0000
,
0001
0010
0001
0010
0000
0010
0100
0000
,
1000
0100
0010
0001
0000
0001
0010
0000
,
0001
0100
0010
1000
0000
1000
0010
0000
,
1000
0010
0100
0001
0000
0001
0100
0000
,
0001
0010
0100
1000
0000
1000
0100
0000
,
1000
0100
0010
0100
0000
0100
1000
0000
,
0001
0100
0010
0100
0000
0100
0001
0000
,
1000
0010
0100
0010
0000
0010
1000
0000
,
0001
0010
0100
0010
0000
0010
0001
0000
,
1000
0001
1000
0010
0000
0010
0100
0000
,
0001
1000
0001
0010
0000
0010
0100
0000
,
1000
0001
1000
0001
0000
0100
0010
0000
,
1000
0010
1000
0000
0001
0100
0001
0000
,
1000
0100
1000
0000
1000
0001
1000
0000
,
1000
0010
1000
0000
1000
0001
1000
0000
,
1000
0100
1000
0000
1000
0010
1000
0000
,
1000
0001
1000
0000
0001
1000
0001
0000
,
0001
0100
0001
0000
0001
1000
0001
0000
,
0001
0010
0001
0000
0001
1000
0001
0000
,
0001
0100
0001
0000
0001
0010
0001
0000
,
0001
1000
0001
0000
1000
0001
1000
0001
,
0100
0010
1000
0001
0000
0001
1000
0000
,
0100
0010
0001
1000
0000
1000
0001
0000
,
0010
0100
1000
0001
0000
0001
1000
0000
,
0010
0100
0001
1000
0000
1000
0001
0000
,
1000
0100
1000
0100
1000
0100
1000
0000
,
0001
0100
0001
0100
0001
0100
0001
0000
,
1000
0001
0100
0010
1000
0100
0010
0001
,
0100
0010
0100
0010
0100
0010
1000
0100
1000
0100
0000
0000
,
2100
0000
0000
3001
,
2001
0000
0000
0000
3001
0000
0001
1000
0000
1000
0100
0000
1100
0000
0000
0000
,
1002
0000
0000
0000
1003
0000
1000
0001
0000
0001
0100
0000
0101
0000
0000
0000
,
0102
0000
0000
0000
1003
0000
1000
0010
0000
0100
0001
0000
0101
0000
0000
0000
,
2100
0000
0000
0000
3001
0000
0001
0010
0000
0100
1000
0000
1100
0000
0000
0000
,
0210
0000
0000
0000
1300
0000
1000
0010
0000
0010
0100
0000
0101
0000
0000
0000
,
0210
0000
0000
0000
0301
0000
0001
0010
0000
0010
0100
0000
1100
0000
0000
0000
,
2001
0000
0000
0000
3100
0000
0100
0010
0000
0010
0001
0000
1001
0000
0000
0000
,
1002
0000
0000
0000
0103
0000
0100
0010
0100
0001
0100
0001
1000
0100
1000
0100
,
1100
0011
0101
1010
1001
0000
0110
0000
,
0101
1010
1100
0011
1001
1001
1001
0000
,
1100
0110
0011
0101
0110
0000
1010
0000
,
1100
1001
0011
1001
0101
1001
1010
1001
,
0110
0000
0000
0110
0000
0000
1001
0000
0000
1001
0000
0000
1000
0001
1000
0001
1000
0001
1000
0001
1000
0001
1000
0002
,
2000
0000
0000
0000
,
0000
0000
0000
3003
,
1001
0000
1000
0100
1000
0000
0010
0000
0100
0000
0001
0000
0101
0000
0000
0000
,
1001
0000
0001
0100
0001
0000
0010
0000
0100
0000
1000
0000
0010
0000
0100
0000
,
0100
0001
0000
0000
0001
0010
0000
0000
0010
0100
0010
0100
0010
0000
0000
0000
,
0100
1000
0000
0000
1000
0010
0000
0000
0100
0010
0100
0010
0100
0000
0000
0000
,
1001
0000
0001
0100
0001
0000
0010
0000
0100
0000
1000
0000
0001
0000
0000
0000
,
1001
0000
1000
0100
1000
0000
0001
0000
0010
0000
0100
0000
1000
0000
0100
0000
,
0010
0001
0000
0000
0001
0100
0000
0000
0100
0010
0000
0000
0010
1000
0000
0000
,
1000
0000
0000
0100
0000
0000
0000
0000
0000
0000
0000
0000
0100
0000
0000
0010
0000
0000
0000
0000
0000
0000
0000
0000
0010
0000
0000
0001
0000
0000
0100
0000
0000
0010
0000
0000
1000
0000
0010
0000
1000
0000
0010
0000
1000
0000
0010
0000
,
2000
0000
0000
3001
,
1000
0100
0010
0001
0000
0001
0100
0000
,
0001
0100
0010
1000
0000
1000
0100
0000
,
1000
0010
0100
0001
0000
0001
0010
0000
,
0001
0010
0100
1000
0000
1000
0010
0000
,
1000
0100
0010
0100
0000
0010
0001
0000
,
0001
0100
0010
0100
0000
0010
1000
0000
,
1000
0001
0100
0001
0000
1000
0001
0000
,
0001
1000
0100
1000
0000
0001
1000
0000
,
0010
1000
0100
0010
0000
0010
0001
0000
,
0010
0001
0100
0010
0000
0010
1000
0000
,
0100
1000
0010
0100
0000
0100
0001
0000
,
0100
0001
0010
0100
0000
0100
1000
0000
,
0100
1000
0100
1000
0000
0001
0100
0000
,
0010
1000
0010
1000
0000
0001
0010
0000
,
0100
0010
0100
0010
0000
0010
0100
0000
,
1000
0001
1000
0001
0000
0001
1000
0100
,
1000
0010
1000
0010
0100
0001
0100
0001
,
0010
0100
0010
0100
1000
0001
2000
0000
,
3001
0010
0001
0010
0100
1000
0100
1000
,
0001
1000
0001
1000
0010
0100
0020
0000
,
1030
0100
0010
0001
0010
0100
1000
0001
,
0100
0010
1000
0010
0100
0001
2000
0000
,
3001
0100
0010
0100
0001
0010
0100
1000
,
0010
0100
0010
1000
0100
0010
0002
0000
,
1003
1001
0001
1001
,
1000
1100
0001
0101
,
1000
1010
0001
0011
,
1000
1100
0010
0011
,
1000
0001
0100
0010
1000
0100
0010
0100
,
1000
0010
0100
0001
0010
0001
0100
0010
,
1000
0010
1000
0010
1000
0010
0100
0001
0100
0001
0100
0001
,
0010
0001
0010
0001
0010
0001
1000
0100
1000
0100
1000
0100
,
2000
0000
0000
0000
,
0000
3002
0000
0000
0000
0000
0000
0000
0000
0000
0000
0000
,
0000
2003
0000
0000
0000
0000
0000
0000
0000
0000
0000
0000
,
3002
0000
0000
0000
0000
0000
0000
0000
0000
0000
2003
0000
,
0000
0000
0000
0000
0000
0000
0000
3002
0000
0000
0000
0000
,
0000
0000
0000
2003
0000
0000
0000
0000
0000
0000
3002
0000
,
0000
0000
0000
0000
2003
0000
0000
0000
0000
3002
0000
0000
,
0000
1003
0000
0000
0100
0000
0010
0001
1000
0100
0010
0002
,
2000
0000
0000
0000
,
3003
0000
0000
0000
;

//--------------- dance-single - ----------------
#NOTES:
     dance-single:
     :
     Challenge:
     18:
     0,0,0,0,0:
0000
0000
0000
0000
,
0000
0000
0000
0000
,
0000
0000
0000
0000
,
0000
0000
0000
0000
,
0000
0000
0000
0000
,
1000
0100
1000
0100
0000
0100
0010
0000
0001
0100
0001
0100
0000
0100
0010
0000
,
1000
0010
1000
0010
0000
0010
0100
0000
0001
0010
0001
0010
0000
0010
0100
0000
,
1100
0100
0110
0010
0011
0001
1001
1000
,
1000
0001
1000
0000
0001
1000
0001
0000
1000
0100
0010
0001
0010
0100
1000
0000
,
2100
0000
0000
3001
,
1000
0100
1000
0002
0000
0103
0001
0000
,
0001
1000
0010
2000
0000
3001
1000
0000
,
1000
0010
0100
0002
0000
1003
0001
0000
,
0001
0010
0100
2000
0000
3001
1000
0000
,
1000
0001
1000
0020
0000
0130
0001
0000
,
0001
1000
0001
0020
0000
0130
1000
0000
,
1000
0001
0100
0020
0000
0130
0010
0000
,
1000
0001
0010
0200
0000
0310
0100
0000
,
1000
0010
1000
0002
0000
0013
0001
0000
,
0001
1000
0100
2000
0000
3001
1000
0000
,
1000
0100
0010
0002
0000
1003
0001
0000
,
0001
0100
0010
2000
0000
3001
1000
0000
,
1000
0100
1000
0020
0000
0130
0010
0000
,
0100
0010
0100
0002
0000
0013
0100
0000
,
1000
0001
1000
0002
0000
1003
0001
0000
,
1000
0100
1000
0000
0001
0100
0001
0000
,
1000
0100
1000
0100
0010
0100
0010
0100
,
0010
0001
0010
0001
0100
0001
0100
0001
,
0100
0010
0100
0010
1000
0010
1000
0010
,
1000
0001
1000
0001
1000
0001
1000
0000
,
0001
0100
0001
0100
0010
0100
0010
0100
,
0010
1000
0010
1000
0100
1000
0100
1000
,
0001
0010
0001
0010
0100
0010
0100
0010
,
0100
1000
0100
1000
0010
1000
0010
1000
,
0100
0010
0100
0010
0001
0010
0001
0010
,
0100
0010
0100
0010
1000
0010
1000
0010
,
0100
0010
0100
0010
0100
0001
0100
0001
,
0100
0010
0100
0010
0100
1000
0100
1000
,
0001
0100
0010
1000
0010
0100
0001
0000
,
1000
0100
0010
0001
0010
0100
1000
0000
,
1000
0010
0100
0001
0100
0010
1000
0001
,
1000
0100
0010
0001
0010
0100
1000
0001
0010
0100
1000
0100
,
2100
0000
0000
3001
,
1001
0000
0100
0000
0110
0000
0010
1000
0100
0010
0001
0100
0001
0000
1000
0000
,
1001
0000
0100
0000
0110
0000
0010
0001
0100
0010
1000
0100
1000
0000
0001
0000
,
1001
0000
0001
0000
0101
0000
1000
0010
1000
0100
1000
0001
1000
0000
0001
0000
,
1001
0000
1000
0000
1100
0000
0001
0010
0001
0100
0001
1000
0001
0000
1001
0000
,
0110
0000
1000
0000
1100
0000
1000
0100
0010
0001
0100
0001
0100
0000
0010
0000
,
0110
0000
0001
0000
0101
0000
0001
0100
0010
1000
0100
1000
0100
0000
1000
0000
,
1001
0000
0010
0000
1001
0000
0100
0010
0001
0010
0100
1000
0001
0000
0010
0000
,
1001
0000
0100
0000
1001
0000
0100
0010
1000
0010
0001
0010
1000
0100
0001
0100
,
1100
0011
0101
1010
1001
0000
0110
0000
,
0101
1010
1100
0011
1001
1001
1001
0000
,
1100
0011
0101
1010
1001
0000
0110
0000
,
0101
1010
1100
0011
1001
0110
0011
1010
,
1100
0000
0000
0101
0000
0000
1001
0000
0000
0110
0000
0000
1000
0100
0010
0100
0010
0001
1000
0010
0100
0010
0100
0002
,
2000
0000
0000
0000
,
0000
0000
0000
3003
,
1001
0000
1000
0100
1100
0000
0010
0000
0100
0000
0001
0000
0101
0000
0000
0000
,
1001
0000
0001
0100
0101
0000
0010
0000
0100
0000
1000
0000
0010
0000
0100
0000
,
0100
0001
0000
0000
0001
0010
0000
0000
0010
0100
1000
0001
0010
0000
0000
0000
,
0100
1000
0000
0000
1000
0010
0000
0000
0100
0010
1000
0001
0100
0000
0000
0000
,
1001
0000
0001
0100
0101
0000
0010
0000
0100
0000
1000
0000
1100
0000
0000
0000
,
1001
0000
1000
0100
1100
0000
0001
0000
0010
0000
0100
0000
1000
0000
0100
0000
,
0010
0001
0000
0000
0001
0100
0000
0000
0100
1000
0000
0000
0100
0001
0000
0000
,
1000
0000
0000
0010
0000
0000
0000
0000
0000
0000
0000
0000
0100
0000
0000
0001
0000
0000
0000
0000
0000
0000
0000
0000
1000
0000
0000
0001
0000
0000
0100
0000
0000
0010
0000
0000
1000
0000
0010
0000
1000
0000
0001
0000
1000
0000
0100
0000
,
2000
0000
0000
3001
,
1000
0100
0010
0001
1000
0001
0100
0000
,
0001
0100
0010
1000
0001
1000
0100
0000
,
1000
0010
0100
0001
1000
0001
0010
0000
,
0001
0010
0100
1000
0001
1000
0010
0000
,
1000
0100
0010
0100
0010
0001
0010
0000
,
0001
0100
0010
0100
0010
1000
0010
0000
,
1000
0001
0100
0001
0010
0100
0010
0000
,
0001
1000
0100
1000
0010
0100
0010
0000
,
0010
1000
0100
0010
0100
0010
0001
0100
,
0010
1000
0100
0010
0100
0010
0001
1000
,
0100
1000
0010
0100
0010
0100
0001
0010
,
0100
1000
0010
0100
0010
0100
0001
1000
,
0100
1000
0100
1000
0001
0100
0001
0100
,
0010
1000
0010
1000
0001
0010
0001
0010
,
0100
0010
1000
0010
0100
0010
0001
0100
,
0010
0100
1000
0100
0010
0100
0001
0001
,
1000
0100
0001
0100
1000
0010
0100
0001
,
0010
1000
0010
0001
0100
0010
2010
0000
,
3001
0100
1000
0100
0001
0010
0100
1000
,
0010
0001
0010
1000
0100
0001
0201
0000
,
1300
0100
0010
0001
0010
0100
1000
0100
,
0001
0100
0010
0100
1000
0001
2001
0000
,
3001
0100
0010
0100
1000
0100
0001
0010
,
0100
1000
0100
1000
0010
0001
0021
0000
,
1030
0100
1100
0000
0001
0100
0101
0000
,
1000
0010
1010
0000
0001
0010
0011
0000
,
1000
0001
1001
0000
0100
0010
0110
0000
,
0001
1000
1100
0000
1000
0001
0011
0000
,
1000
0001
0100
1000
0100
0001
1000
0100
,
0001
0100
1000
0001
0010
1000
0010
0001
,
1000
0010
0100
0001
0100
0010
1000
0010
0100
0010
1000
0010
,
0100
0001
0010
0100
1000
0100
0010
0001
0010
0100
0010
0001
,
2000
0000
0000
0000
,
3000
2200
0000
0000
0000
0000
0000
0000
0000
0000
0000
0000
,
3300
0220
0000
0000
0000
0000
0000
0000
0000
0000
0000
0330
,
0022
0000
0000
0000
0000
0000
0000
0000
0000
0000
0000
0000
0000
0000
0000
0000
0000
0033
0000
0000
0202
0000
0000
0000
,
0000
0000
0000
0000
0000
0000
0303
2002
0000
0000
0000
0000
,
0000
0000
0000
3003
0000
0000
2020
0000
0000
0000
0000
0000
0000
0000
0000
0000
0000
3030
0000
0000
2002
0000
0000
0000
,
0000
0000
0000
3003
0220
0000
0000
0000
0330
2002
0000
3003
,
0000
0220
0000
0330
1001
0000
1000
0100
0010
0001
0100
0020
,
2000
0000
0000
0000
,
3030
0000
0000
0000
;
