#TITLE:New York;
#SUBTITLE:Future Breeze Single Edit;
#ARTIST:Lambda;
#TITLETRANSLIT:;
#SUBTITLETRANSLIT:;
#ARTISTTRANSLIT:;
#GENRE:;
#CREDIT:;
#BANNER:newyork.png;
#BACKGROUND:newyork-bg.png;
#LYRICSPATH:;
#CDTITLE:;
#MUSIC:newyorkfuturebreeze.ogg;
#OFFSET:-0.010000;
#SAMPLESTART:69.557983;
#SAMPLELENGTH:14.000000;
#SELECTABLE:YES;
#BPMS:0.000000=138.000000
;
#STOPS:
;
#BGCHANGES:;
#KEYSOUNDS:;
#ATTACKS:;

//---------------dance-single - Blank----------------
#NOTES:
     dance-single:
     Blank:
     Challenge:
     16:
     0.803707,0.901397,0.287527,0.277943,1.049474,587.000000,557.000000,30.000000,29.000000,0.000000,0.000000,0.803707,0.901397,0.287527,0.277943,1.049474,587.000000,557.000000,30.000000,29.000000,0.000000,0.000000:
// measure 0
0000
0000
0000
0000
,  // measure 1
0000
0000
0000
0000
,  // measure 2
0000
0000
0000
0000
,  // measure 3
0000
0000
0000
0000
,  // measure 4
2010
0000
0100
0010
0000
0010
0100
3002
,  // measure 5
0100
0000
0000
0000
1000
0000
0010
0000
0000
0000
0010
0000
0103
0001
0010
0000
,  // measure 6
0012
0000
0100
1000
0000
1000
0010
2003
,  // measure 7
0100
0000
0000
0000
0001
0000
0010
0000
0000
0000
0010
0000
3100
1000
0001
0100
,  // measure 8
0002
0000
0100
0010
0000
0010
1000
0023
,  // measure 9
0100
0000
0000
0000
1000
0000
0001
0000
0000
0000
0001
0000
0130
1000
0010
0000
,  // measure 10
2010
0000
0100
0010
0000
0010
0001
3020
,  // measure 11
0100
0000
0000
0000
0001
0000
1000
0000
0000
0000
1000
0000
0130
0001
0010
0000
,  // measure 12
0001
0100
0001
0100
0010
1000
0010
1000
0001
0010
0001
0010
0100
1000
0100
1000
,  // measure 13
0010
0100
0010
0100
0001
1000
0001
1000
0100
0010
0100
0010
0001
1000
0001
1000
,  // measure 14
0001
0100
0010
1000
0100
0010
0001
1000
0010
0100
0001
0010
0100
1000
0010
0100
,  // measure 15
0001
0010
0100
1000
0010
0100
0001
1000
0100
0010
0001
0100
0010
0010
0100
0001
,  // measure 16
2000
0000
0000
0100
0000
0100
0000
0000
3020
0000
0000
1000
0000
1000
0000
0000
,  // measure 17
0230
0000
0000
0010
0000
0010
0000
0000
0302
0000
0000
0100
0000
0100
0000
0000
,  // measure 18
2003
0000
0000
0010
0000
0100
0000
0000
3002
0000
0000
0010
0000
0100
0000
0000
,  // measure 19
2003
0000
0000
0100
0000
0010
0000
0000
3002
0000
0000
0100
0000
0010
0000
0000
,  // measure 20
2003
0100
0000
0100
0000
0000
3100
0000
0020
1000
0000
1000
0000
0000
1030
0000
,  // measure 21
0200
0010
0000
0010
0000
0000
0310
0000
0002
0100
0000
0100
0000
0000
0103
0000
,  // measure 22
2000
0100
0000
0010
0000
0000
3001
0000
0002
0100
0000
0010
0000
0000
1003
0000
,  // measure 23
2000
0001
0000
0100
0000
0000
3010
0000
1000
0100
0010
0001
1000
0010
0100
0001
,  // measure 24
1000
0100
0000
0100
1000
0000
0010
0000
0100
0010
0000
0010
0100
0000
0001
0000
,  // measure 25
0010
0100
0000
0100
0010
0000
0001
0000
1000
0001
0000
0001
1000
0000
0010
0000
,  // measure 26
1000
0100
0000
0010
0001
0000
1000
0000
0001
0100
0000
0010
1000
0000
0001
0000
,  // measure 27
1000
0010
0000
0100
0001
0000
1000
0000
0001
0010
0000
0100
1000
0000
0001
0000
,  // measure 28
1000
0000
0100
0000
0110
0000
0100
1000
0001
0000
0101
0000
0010
0000
0101
0000
,  // measure 29
0001
0000
0010
0000
0110
0000
0010
0001
1000
0000
1010
0000
0100
0000
1010
0000
,  // measure 30
1000
0000
0010
0000
0110
0000
0010
1000
0001
0000
0011
0000
0100
0000
0011
0000
,  // measure 31
0001
0000
0100
0000
0110
0000
0100
0001
1000
0100
0010
0100
1000
0000
1100
0000
,  // measure 32
2000
0100
0000
0100
0000
0000
0010
0000
0000
0100
0000
0100
0000
0000
3001
0000
,  // measure 33
0001
0100
0000
0100
0001
0000
1000
0000
0001
0010
0000
0010
0001
0000
1000
0000
,  // measure 34
0002
0100
0000
0100
0000
0000
0010
0000
0000
0100
0000
0100
0000
0000
1003
0000
,  // measure 35
1000
0010
0000
0010
1000
0000
0001
0000
1000
0100
0000
0100
1000
0000
0001
0000
,  // measure 36
1000
0100
1000
0100
0010
0001
0010
0001
1000
0010
1000
0010
0100
0001
0100
0001
,  // measure 37
0100
0010
0100
0010
1000
0001
1000
0001
0010
0100
0010
0100
1000
0001
1000
0001
,  // measure 38
1000
0100
0010
0001
0100
0010
1000
0010
0100
0001
0010
0100
1000
0100
0010
0002
,  // measure 39
2000
0000
0000
0000
0000
0000
3003
0000
1000
0100
0010
0001
1000
0010
0100
0001
,  // measure 40
1000
0100
0010
0100
1000
0000
0001
0100
0010
1000
0001
1000
0010
0000
0110
0000
,  // measure 41
0001
0100
0010
0100
0001
0000
1000
0100
0010
0001
1000
0001
0010
0000
0110
0000
,  // measure 42
1000
0100
0010
0001
0100
0000
0001
0010
0001
0100
0010
1000
0100
0000
1100
0000
,  // measure 43
1000
0010
0100
0001
0010
0000
0001
0100
0001
0010
0100
1000
0010
0000
1010
0000
,  // measure 44
0010
0100
0001
0100
0010
0000
1000
0001
0100
0010
1000
0010
0100
0000
0101
0000
,  // measure 45
0010
0100
1000
0100
0010
0000
0001
1000
0100
0010
0001
0010
0100
0000
1100
0000
,  // measure 46
0010
0001
0100
0001
0010
0000
0100
1000
0010
0100
0001
0100
0010
0000
1010
0000
,  // measure 47
0010
1000
0100
1000
0010
0000
0100
0001
0010
0100
1000
0100
0010
0000
0011
0000
,  // measure 48
1000
0100
0001
0100
1000
0000
1000
0100
0010
0001
0010
1000
0010
0000
0011
0000
,  // measure 49
0001
0100
1000
0100
0001
0000
0001
0100
0010
1000
0010
0001
0010
0000
1010
0000
,  // measure 50
1000
0010
0001
0010
1000
0000
1000
0010
0100
0001
0100
1000
0100
0000
0101
0000
,  // measure 51
0001
0010
1000
0010
0001
0000
0001
0010
0100
1000
0100
0001
0100
0000
1100
0000
,  // measure 52
1000
0100
0001
0100
0010
0000
0010
0001
0100
0010
1000
0100
1000
0000
0110
0000
,  // measure 53
0001
0100
1000
0100
0010
0000
0010
1000
0100
0010
0001
0100
0001
0000
0110
0000
,  // measure 54
0001
0010
1000
0010
0100
0000
0100
1000
0010
0100
0001
0010
0001
0000
1001
0000
,  // measure 55
1000
0010
0001
0010
0100
0000
0100
0001
0010
0100
1000
0010
1000
0100
0010
0001
,  // measure 56
2002
0000
0000
0000
,  // measure 57
3003
0000
0000
0000
;

//---------------dance-single - Blank----------------
#NOTES:
     dance-single:
     Blank:
     Hard:
     12:
     0.477843,0.600932,0.249190,0.268359,0.378577,349.000000,323.000000,26.000000,28.000000,0.000000,0.000000,0.477843,0.600932,0.249190,0.268359,0.378577,349.000000,323.000000,26.000000,28.000000,0.000000,0.000000:
0000
0000
0000
0000
,
0000
0000
0000
0000
,
0000
0000
0000
0000
,
0000
0000
0000
0000
,
2100
0000
0010
0000
0001
0000
0100
3002
,
0100
0010
1000
0103
,
0012
0000
1000
0000
0100
0000
0010
2003
,
0010
0001
0100
3010
,
2001
0000
0100
0000
0001
0000
0010
3002
,
1000
0100
1000
0013
,
1002
0000
0010
0000
1000
0000
0100
2003
,
0001
0010
0001
3100
,
1000
0001
0100
0010
1000
0100
0010
0001
,
1000
0001
0010
0100
1000
0001
0100
0010
,
1000
0100
0001
0100
1000
0010
0001
0010
,
1000
0000
0100
0000
0010
0000
0001
0000
0100
0000
0010
0000
1000
0100
0010
0002
,
2000
0000
0000
3003
,
2200
0000
0000
3300
,
0022
0000
0000
0000
,
0000
0030
0200
0303
,
2002
0000
0000
3003
,
0202
0000
0000
0303
,
2020
0000
0000
0000
,
0000
0000
0000
0000
3030
0000
0000
0000
1000
0100
1000
0100
1000
0100
1000
0100
,
1000
0000
0100
0000
0010
0000
0100
1000
0000
0000
0001
0000
0100
0000
0010
0000
,
1000
0000
0100
0000
0010
0000
0100
1000
0000
0000
0001
0000
0010
0000
0100
0000
,
1000
0000
0010
0000
0100
0000
0010
1000
0000
0000
0001
0000
0100
0000
0010
0000
,
1000
0000
0010
0000
0100
0000
0010
1000
0000
0000
1000
0000
0100
0000
0010
0000
,
0001
0000
0100
0000
0010
0000
0100
0001
0000
0000
1000
0000
0100
0000
0010
0000
,
0001
0000
0100
0000
0010
0000
0100
0001
0000
0000
1000
0000
0010
0000
0100
0000
,
0001
0000
0010
0000
0100
0000
0010
0001
0000
0000
1000
0000
0100
0000
0010
0000
,
0001
0000
0010
0000
0100
0000
0010
0001
0000
0000
0001
0000
0100
0000
0010
0000
,
2000
0000
0000
0000
0100
0000
0000
0010
0000
0000
0001
0000
0000
0000
3002
0000
,
0000
0000
0000
0000
0100
0000
0000
0010
0000
0000
1000
0000
0003
0000
1000
0000
,
0002
0000
0000
0000
0010
0000
0000
0100
0000
0000
1000
0000
0000
0000
2003
0000
,
0000
0000
0000
0000
0010
0000
3000
0100
0000
0000
1000
0000
0010
0000
0100
0000
,
0001
1000
0100
0010
0001
0100
0010
1000
,
0001
1000
0010
0100
0001
1000
0100
0010
,
0001
0100
1000
0100
0001
0010
0100
2000
,
0000
0000
0000
0000
3000
0000
0000
0000
1000
0001
1000
0001
1000
0001
1000
0001
,
1000
0100
0000
0100
0010
0000
0000
0001
0000
0000
0101
0000
0000
0000
1001
0000
,
0001
0100
0000
0100
0010
0000
0000
1000
0000
0000
1100
0000
0000
0000
0110
0000
,
0010
0001
0000
0001
0100
0000
0000
0010
0000
0000
1010
0000
0000
0000
0110
0000
,
0010
1000
0000
1000
0100
0000
0000
0010
0000
0000
0011
0000
0000
0000
1001
0000
,
0001
0100
0000
0010
1000
0000
0000
0010
0000
0000
0110
0000
0000
0000
1001
0000
,
1000
0100
0000
0010
0001
0000
0000
0010
0000
0000
1001
0000
0000
0000
0110
0000
,
0010
1000
0000
0001
0100
0000
0000
0100
0000
0000
0110
0000
0000
0000
1001
0000
,
0010
0001
0000
1000
0100
0000
0000
0100
0000
0000
1001
0000
0000
0000
0110
0000
,
1000
0100
0000
0100
0000
0000
0010
0000
0001
0100
0000
0100
0000
0000
0010
0000
,
1000
0010
0000
0010
0000
0000
0100
0000
0001
0010
0000
0010
0000
0000
0100
0000
,
1000
0001
0000
0001
0000
0000
0100
0000
0001
1000
0000
1000
0000
0000
0100
0000
,
1000
0001
0000
0001
0000
0000
0010
0000
0001
1000
0000
1000
0000
0000
1000
0000
,
0001
0100
0000
0100
0000
0000
0010
0000
1000
0100
0000
0100
0000
0000
0010
0000
,
0001
0010
0000
0010
0000
0000
0100
0000
1000
0010
0000
0010
0000
0000
0100
0000
,
0001
1000
0000
1000
0000
0000
0010
0000
1000
0001
0000
0001
0000
0000
0010
0000
,
0000
0001
0000
0010
0000
0000
0100
0000
0010
0100
0010
0100
0010
0100
0010
0000
,
0220
0000
0000
0000
,
0330
0000
0000
0000
;

//---------------dance-single - Blank----------------
#NOTES:
     dance-single:
     Blank:
     Medium:
     8:
     0.314911,0.382411,0.086258,0.277943,0.000000,230.000000,221.000000,9.000000,29.000000,0.000000,0.000000,0.314911,0.382411,0.086258,0.277943,0.000000,230.000000,221.000000,9.000000,29.000000,0.000000,0.000000:
0000
0000
0000
0000
,
0000
0000
0000
0000
,
0000
0000
0000
0000
,
0000
0000
0000
0000
,
0002
0000
1000
0000
0000
0000
1000
0203
,
0000
0010
0000
0310
,
2000
0000
0001
0000
0000
0000
0001
3200
,
0000
0010
0000
0310
,
2000
0000
0001
0000
0000
0000
0001
3020
,
0000
0100
0000
0130
,
0002
0000
1000
0000
0000
0000
1000
0023
,
0000
0100
0000
0130
,
1000
0100
0010
0001
1000
0100
0010
0200
,
0000
1000
0000
1300
,
0001
0100
0010
1000
0001
0100
0010
0200
,
0000
0001
0000
0301
,
2000
0000
0000
0000
,
0002
0000
0000
3000
,
0200
0000
0000
0000
,
0000
0003
0020
0300
,
2000
0000
0000
0030
,
0200
0000
0000
3000
,
0020
0000
0000
0000
,
0000
0330
2002
3003
,
1000
0100
0001
0000
0100
0000
0010
0000
,
0001
0100
1000
0000
0100
0000
0010
0000
,
1000
0010
0001
0000
0010
0000
0100
0000
,
0001
0010
1000
0000
0010
0001
0010
0000
,
0001
0100
1000
0000
0100
0000
0010
0000
,
1000
0100
0001
0000
0100
0000
0010
0000
,
0001
0010
1000
0000
0010
0000
0100
0000
,
1000
0010
0001
0000
0010
1000
0010
0000
,
2000
0000
0100
0000
0100
0000
3100
0020
,
0001
0001
0001
0031
,
0002
0000
0100
0000
0100
0000
0103
0020
,
1000
1000
1000
1030
,
1000
0010
0100
0001
1000
0010
0100
0020
,
0000
1000
1000
1030
,
0001
0010
0100
1000
0001
0010
0100
0020
,
0000
0000
0002
0030
,
1003
0100
0010
0000
0010
0001
0100
0000
,
0001
0100
0010
0000
0010
1000
0100
0000
,
1000
0100
0001
0000
0001
0100
1000
0000
,
0001
0100
1000
0000
1000
0100
0001
0000
,
1000
1000
0100
0000
0010
0100
1000
0000
,
0001
0001
0100
0000
0010
0100
0001
0000
,
1000
1000
0010
0000
0100
0010
1000
0000
,
0001
0001
0010
0000
0100
0100
1000
0000
,
0001
0100
1000
0000
0100
0000
1100
0000
,
1000
0100
0001
0000
0100
0000
0101
0000
,
0010
0100
0010
0000
1000
0000
1001
0000
,
0010
0100
0010
0000
0001
0000
1001
0000
,
1000
0010
0001
0000
0010
0000
0011
0000
,
0001
0010
1000
0000
0010
0000
1010
0000
,
1000
0001
1000
0000
0100
0000
0110
0000
,
0002
0000
0000
0000
1003
0001
1000
0001
,
2002
0000
0000
0000
,
3003
0000
0000
0000
;

//---------------dance-single - Blank----------------
#NOTES:
     dance-single:
     Blank:
     Easy:
     4:
     0.160194,0.245836,0.067090,0.287527,0.000000,117.000000,110.000000,7.000000,30.000000,0.000000,0.000000,0.160194,0.245836,0.067090,0.287527,0.000000,117.000000,110.000000,7.000000,30.000000,0.000000,0.000000:
0000
0000
0000
0000
,
0000
0000
0000
0000
,
0000
0000
0000
0000
,
0000
0000
0000
0000
,
2000
0000
0000
0000
0000
0000
0000
3002
,
0000
0000
0000
0003
,
0002
0000
0000
0000
0000
0000
0000
2003
,
0000
0000
0000
3000
,
2000
0000
0000
0000
0000
0000
0000
3020
,
0000
0000
0000
0030
,
0200
0000
0000
0000
0000
0000
0000
0302
,
0000
0000
0000
0003
,
2000
0000
0000
0000
0000
0000
0000
3200
,
0000
0000
0000
0300
,
0020
0000
0000
0000
0000
0000
0000
0032
,
0000
0000
0000
0003
,
2000
0000
0000
0000
,
3200
0000
0000
0000
,
0302
0000
0000
0000
,
0000
0000
0203
0000
,
2300
0000
0000
0000
,
3020
0000
0000
0000
,
0032
0000
0000
0000
,
0000
0000
0023
0000
,
1030
0000
0100
0010
,
0001
0000
0100
0010
,
1000
0000
0010
0100
,
0001
0000
0010
0100
,
1000
0000
0100
0100
,
1000
0000
0010
0010
,
1000
0000
0001
0001
,
1000
1000
0001
0001
,
2002
0000
0000
0000
0000
0000
0000
3003
,
0100
0010
0100
0010
,
2002
0000
0000
0000
0000
0000
0000
3003
,
0010
0100
0010
0100
,
2002
0000
0000
0000
0000
0000
0000
3003
,
1000
0100
0010
0001
,
2002
0000
0000
0000
0000
0000
0000
3003
,
0000
0000
0110
0000
,
0001
0000
0100
0010
,
1000
0000
0100
0010
,
0001
0000
0010
0100
,
1000
0000
0010
0100
,
0001
0000
0100
0100
,
0001
0000
0010
0010
,
0001
0000
1000
1000
,
0001
0001
1000
1000
,
0001
0000
1000
0100
,
0001
0000
0001
0100
,
1000
0000
0010
0100
,
0001
0000
0010
0100
,
1000
0000
0001
0100
,
1000
0000
1000
0100
,
0001
0000
0010
0100
,
0000
0000
0110
0000
,
2002
0000
0000
0000
,
3003
0000
0000
0000
;

//---------------dance-single - Blank----------------
#NOTES:
     dance-single:
     Blank:
     Beginner:
     2:
     0.088996,0.134179,0.076674,0.000000,0.000000,65.000000,57.000000,8.000000,0.000000,0.000000,0.000000,0.088996,0.134179,0.076674,0.000000,0.000000,65.000000,57.000000,8.000000,0.000000,0.000000,0.000000:
0000
0000
0000
0000
,
0000
0000
0000
0000
,
0000
0000
0000
0000
,
0000
0000
0000
0000
,
1000
0000
0000
0000
,
0001
0000
0000
0000
,
1000
0000
0000
0000
,
0001
0000
0000
0000
,
1000
0000
0000
0000
,
0100
0000
0000
0000
,
0001
0000
0000
0000
,
0100
0000
0000
0000
,
1000
0000
0000
0000
,
0010
0000
0000
0000
,
0001
0000
0000
0000
,
0010
0000
0000
0000
,
1001
0000
0000
0000
,
0000
0000
0000
0000
,
0000
0000
0000
0000
,
0000
0000
0000
0000
,
0010
0000
0000
0000
,
0100
0000
0000
0000
,
1001
0000
0000
0000
,
0000
0000
0000
0000
,
1000
0000
1000
0000
,
1000
0000
0000
0000
,
0001
0000
0001
0000
,
0001
0000
0000
0000
,
0100
0000
0100
0000
,
0100
0000
0000
0000
,
0010
0000
0010
0000
,
0010
0000
0000
0000
,
1000
0000
0000
0000
,
0001
0000
0000
0000
,
1000
0000
0000
0000
,
0001
0000
0000
0000
,
1000
0000
0000
0000
,
0100
0000
0000
0000
,
0010
0000
0000
0000
,
1001
0000
0000
0000
,
1000
0000
1000
0000
,
1000
0000
0000
0000
,
0001
0000
0001
0000
,
0001
0000
0000
0000
,
0100
0000
0100
0000
,
0100
0000
0000
0000
,
0010
0000
0010
0000
,
0010
0000
0000
0000
,
1001
0000
0000
0000
,
1001
0000
0000
0000
,
0100
0000
0000
0000
,
0010
0000
0000
0000
,
1001
0000
0000
0000
,
1001
0000
0000
0000
,
0100
0000
0000
0000
,
0010
0000
0000
0000
,
1001
0000
0000
0000
;

//---------------dance-double - Blank----------------
#NOTES:
     dance-double:
     Blank:
     Challenge:
     16:
     0.781800,0.928713,0.124595,0.258774,1.092603,571.000000,558.000000,13.000000,27.000000,0.000000,0.000000,0.781800,0.928713,0.124595,0.258774,1.092603,571.000000,558.000000,13.000000,27.000000,0.000000,0.000000:
00000000
00000000
00000000
00000000
,
00000000
00000000
00000000
00000000
,
00000000
00000000
00000000
00000000
,
00000000
00000000
00000000
00000000
,
02010000
00000000
00100000
00010000
00000000
00010000
00100000
03002000
,
00010000
00000000
00000000
00000000
00100000
00000000
00010000
00000000
00000000
00000000
00010000
00000000
01003000
00001000
00010000
00000000
,
00001200
00000000
00000010
00001000
00000000
00001000
00000010
00020300
,
00001000
00000000
00000000
00000000
00000010
00000000
00001000
00000000
00000000
00000000
00001000
00000000
00030100
00001000
00000010
00000100
,
00000002
00000000
00000010
00000100
00000000
00001000
00000013
00000200
,
00000010
00000000
00000000
00000000
00001000
00000000
00000010
00000000
00000000
00000000
00000010
00000000
00001300
00010000
00001000
00000000
,
00201000
00000000
00010000
00001000
00000000
00001000
00010000
02300000
,
10000000
00000000
00000000
00000000
00100000
00000000
10000000
00000000
00000000
00000000
10000000
00000000
03100000
00010000
00100000
00000000
,
01000000
10000000
01000000
10000000
00100000
01000000
00100000
01000000
00010000
01000000
00010000
01000000
00001000
00100000
00001000
00100000
,
00000100
00010000
00000100
00010000
00000010
00001000
00000010
00001000
00000001
00000100
00000001
00000100
00000010
00001000
00000010
00001000
,
00000001
00000100
00000010
00001000
00000001
00000010
00000100
00001000
00000010
00010000
00001000
01000000
00000100
00010000
00001000
00100000
,
00010000
01000000
00100000
10000000
00010000
00100000
01000000
10000000
00100000
01000000
00010000
00100000
00001000
00001000
00010000
00000100
,
00010200
00000000
00000000
00001000
00000000
00001000
00000300
00000000
02001000
00000000
00000000
00010000
00000000
00010000
03000000
00000000
,
00010020
00000000
00000000
00001000
00000000
00001000
00000030
00000000
00201000
00000000
00000000
00010000
00000000
00010000
00300000
00000000
,
02010000
00000000
00000000
00100000
00000000
00100000
03000000
00000000
01200000
00000000
00000000
10000000
00000000
10000000
00300000
00000000
,
20100000
00000000
00000000
01000000
00000000
01000000
30000000
00000000
12000000
00000000
00000000
00100000
00000000
00100000
03000000
00000000
,
00200000
00010000
00000000
00010000
00000000
00000000
00301000
00000000
00000020
00001000
00000000
00001000
00000000
00000000
00010030
00000000
,
02000000
00010000
00000000
00010000
00000000
00000000
03001000
00000000
00000200
00001000
00000000
00001000
00000000
00000000
00010300
00000000
,
00002000
00010000
00000000
01000000
00000000
00000000
00103000
00000000
00020000
00001000
00000000
00000100
00000000
00000000
00030010
00000000
,
00002000
00100000
00000000
01000000
00000000
00000000
00013000
00000000
00001000
01000000
00010000
00100000
01000000
10000000
00100000
01000000
,
00010000
01000000
00000000
01000000
00100000
00000000
01000000
00000000
00100000
10000000
00000000
10000000
01000000
00000000
10000000
00000000
,
00100000
01000000
00000000
01000000
00010000
00000000
01000000
00000000
00001000
00010000
00000000
00010000
00001000
00000000
00010000
00000000
,
00000100
00010000
00000000
00001000
00100000
00000000
00010000
00000000
01000000
00001000
00000000
00010000
00000010
00000000
00001000
00000000
,
00000100
00100000
00000000
00001000
01000000
00000000
00001000
00000000
01000000
00000010
00000000
00010000
00000100
00000000
00001000
00000000
,
00001000
00000100
00000000
00000100
00000010
00000000
00000100
00000000
00000010
00000001
00000000
00000001
00000100
00000000
00000001
00000000
,
00000010
00000100
00000000
00000100
00001000
00000000
00000100
00000000
00010000
00001000
00000000
00001000
00010000
00000000
00001000
00000000
,
01000000
00001000
00000000
00010000
00000010
00000000
00001000
00000000
00000100
00010000
00000000
00001000
00100000
00000000
00010000
00000000
,
01000000
00000010
00000000
00010000
00000100
00000000
00010000
00000000
00000100
00100000
00000000
00001000
01000000
00000000
00010000
00000000
,
20000000
00100000
00000000
00100000
00000000
00000000
01000000
00000000
00000000
00010000
00000000
00010000
00000000
00000000
30100000
00000000
,
10000000
00010000
00000000
00010000
01000000
00000000
00001000
00000000
00010000
00000100
00000000
00000100
00001000
00000000
00000001
00000000
,
00000002
00000010
00000000
00000010
00000000
00000000
00000100
00000000
00000000
00001000
00000000
00001000
00000000
00000000
00000013
00000000
,
00000001
00001000
00000000
00001000
00000100
00000000
00000010
00000000
00000001
00010000
00000000
00010000
00000100
00000000
00001000
00000000
,
00000001
00000100
00000001
00000100
00000010
00001000
00000010
00001000
00000100
00010000
00000100
00010000
00001000
00100000
00001000
00100000
,
00010000
10000000
00010000
10000000
00100000
01000000
00100000
01000000
00010000
10000000
00010000
10000000
01000000
00100000
01000000
00100000
,
00010000
01000000
00100000
10000000
00001000
01000000
00010000
00100000
00001000
00010000
00000100
00001000
00000010
00000100
00000001
00001000
,
00000002
00000000
00000000
00000000
00000000
00000000
00000000
00000000
00001003
00000100
00000010
00000001
00000100
00000010
00001000
00000100
,
00010000
00001000
00010000
00001000
00010000
00000000
00000100
00001000
00000010
00000100
00000001
00000010
00000100
00000000
00010000
00000000
,
00001000
00010000
00001000
00010000
00001000
00000000
01000000
00010000
00100000
01000000
10000000
00100000
01000000
00000000
00001000
00000000
,
00010000
00001000
00010000
00001000
00010000
00000000
00000010
00000100
00000001
00000010
00000100
00001000
00000010
00000000
00010000
00000000
,
00001000
00010000
00001000
00010000
00001000
00000000
00100000
01000000
10000000
00100000
01000000
00010000
00100000
00000000
00001000
00000000
,
00010000
00000100
00001000
00000100
00010000
00000000
00001000
00100000
00010000
00100000
00001000
00010000
00000100
00000000
00010000
00000000
,
00001000
01000000
00010000
01000000
00001000
00000000
00010000
00000010
00001000
00000010
00010000
00001000
01000000
00000000
00001000
00000000
,
00100000
00001000
00010000
00000100
00001000
00000000
00000010
00000100
00000001
00000010
00000100
00001000
00000010
00000000
00000100
00000000
,
00000010
00010000
00001000
01000000
00010000
00000000
00100000
01000000
10000000
00100000
01000000
00010000
00100000
00000000
01000000
00000000
,
10000000
01000000
00010000
01000000
10000000
00000000
00010000
01000000
00001000
00010000
00000100
00001000
00000100
00000000
00001000
00000000
,
00000001
00000100
00001000
00000100
00000001
00000000
00001000
00000100
00010000
00001000
01000000
00010000
01000000
00000000
00010000
00000000
,
10000000
00100000
00010000
00100000
10000000
00000000
00010000
00100000
00001000
00010000
00000010
00001000
00000010
00000000
00001000
00000000
,
00000001
00000010
00001000
00000010
00000001
00000000
00001000
00000010
00010000
00001000
00100000
00010000
00100000
00000000
00010000
00000000
,
10000000
00010000
00100000
10000000
00100000
00000000
00010000
00100000
00001000
00010000
00100000
00010000
00001000
00000000
00000010
00000000
,
00000001
00001000
00000010
00000001
00000010
00000000
00001000
00000010
00010000
00001000
00000010
00001000
00010000
00000000
00100000
00000000
,
10000000
00010000
01000000
00001000
00010000
00000000
00010100
00000000
00000001
00001000
00000100
00010000
00001000
00000000
01001000
00000000
,
10000000
00010000
00100000
00001000
00010000
00000000
00010000
00000010
00000100
00000001
00000010
00000100
00010000
00001000
01000000
00100000
,
20000000
00000000
00000000
00000000
,
30000000
00000000
00000000
00000000
;

//---------------dance-double - Blank----------------
#NOTES:
     dance-double:
     Blank:
     Hard:
     14:
     0.506595,0.679882,0.249190,0.268359,0.412122,370.000000,344.000000,26.000000,28.000000,0.000000,0.000000,0.506595,0.679882,0.249190,0.268359,0.412122,370.000000,344.000000,26.000000,28.000000,0.000000,0.000000:
00000000
00000000
00000000
00000000
,
00000000
00000000
00000000
00000000
,
00000000
00000000
00000000
00000000
,
00000000
00000000
00000000
00000000
,
01002000
00000000
00100000
00000000
00010000
00000000
01000000
00023000
,
00001000
00000100
00000010
00031000
,
00020100
00000000
00000010
00000000
00001000
00000000
00000100
00032000
,
00010000
01000000
00100000
00013000
,
02001000
00000000
00100000
00000000
00001000
00000000
00010000
03002000
,
01000000
00100000
01000000
00013000
,
00010200
00000000
00100000
00000000
00010000
00000000
00001000
00020300
,
00000100
00000010
00000100
00031000
,
00100000
00000100
00010000
00001000
00100000
00001000
00010000
00000100
,
00010000
00000100
00001000
00000010
00010000
00000100
00100000
00001000
,
01000000
00100000
10000000
01000000
00100000
00010000
01000000
00001000
,
00010000
00000000
00000100
00000000
00001000
00000000
00000100
00000000
00000010
00000000
00000001
00000000
00000100
00000010
00001000
00000200
,
00000020
00000000
00000000
00000330
,
00020200
00000000
00000000
00030300
,
00202000
00000000
00000000
00000000
,
00000000
00300000
20000000
30003000
,
02200000
00000000
00000000
03300000
,
02002000
00000000
00000000
03003000
,
00020020
00000000
00000000
00000000
,
00000000
00000000
00000000
00000000
00030030
00000000
00000000
00000000
00001000
00000100
00001000
00000100
00001000
00000100
00001000
00000100
,
00001000
00000000
00000100
00000000
00000010
00000000
00000100
00010000
00000000
00000000
00000001
00000000
00000100
00000000
00000010
00000000
,
00010000
00000000
00000100
00000000
00001000
00000000
00000010
00010000
00000000
00000000
00000010
00000000
00000100
00000000
00000001
00000000
,
00001000
00000000
00000010
00000000
00000100
00000000
00000010
00010000
00000000
00000000
00000001
00000000
00000010
00000000
00000100
00000000
,
00010000
00000000
00000010
00000000
00001000
00000000
00000100
00010000
00000000
00000000
00001000
00000000
01000000
00000000
00100000
00000000
,
10000000
00000000
01000000
00000000
00100000
00000000
01000000
10000000
00000000
00000000
00100000
00000000
01000000
00000000
00010000
00000000
,
00100000
00000000
00001000
00000000
00010000
00000000
00001000
01000000
00000000
00000000
00010000
00000000
00100000
00000000
01000000
00000000
,
10000000
00000000
00100000
00000000
01000000
00000000
00100000
10000000
00000000
00000000
01000000
00000000
00100000
00000000
00010000
00000000
,
01000000
00000000
00001000
00000000
00100000
00000000
00001000
00010000
00000000
00000000
00001000
00000000
00010000
00000000
00000100
00000000
,
00001200
00000000
00000000
00000000
00000010
00000000
00000000
00001000
00000000
00000000
00000010
00000000
00000000
00000000
00020300
00000000
,
00000000
00000000
00000000
00000000
00000100
00000000
00000000
00001000
00000000
00000000
00000100
00000000
00030000
00000000
00001000
00000000
,
02010000
00000000
00000000
00000000
00100000
00000000
00000000
00010000
00000000
00000000
00100000
00000000
00000000
00000000
03002000
00000000
,
00000000
00000000
00000000
00000000
01000000
00000000
00000000
00010000
00000000
00000000
01000000
00000000
00003000
00000000
00010000
00000000
,
00000100
00100000
00001000
00010000
00000100
00010000
00001000
00100000
,
00001000
00100000
00010000
01000000
00001000
00100000
00000100
00010000
,
00000010
00000100
00000001
00000010
00000100
00001000
00000010
00020000
,
00000000
00000000
00000000
00000000
00000000
00000000
00000000
00000000
00030001
00001000
00000001
00001000
00000001
00001000
00000001
00001000
,
00000001
00000100
00000000
00000100
00000010
00000000
00000000
00001000
00000000
00000000
00001010
00000000
00000000
00000000
00001001
00000000
,
00001000
00000100
00000000
00000100
00000010
00000000
00000000
00000100
00000000
00000000
00001100
00000000
00000000
00000000
00010100
00000000
,
00010000
00001000
00000000
00001000
00100000
00000000
00000000
00010000
00000000
00000000
01010000
00000000
00000000
00000000
01100000
00000000
,
00100000
10000000
00000000
10000000
01000000
00000000
00000000
00100000
00000000
00010000
10000000
00010000
00000000
00000000
10100000
00000000
,
10000000
00100000
00000000
00100000
01000000
00000000
00000000
00010000
00000000
00000000
01010000
00000000
00000000
00000000
10010000
00000000
,
00010000
00100000
00000000
00100000
01000000
00000000
00000000
00100000
00000000
00000000
00110000
00000000
00000000
00000000
00101000
00000000
,
00001000
00010000
00000000
00010000
00000100
00000000
00000000
00001000
00000000
00000000
00001010
00000000
00000000
00000000
00010010
00000000
,
00010000
00001000
00000000
00001000
01000000
00000000
00000000
00010000
00000000
00100000
00010000
00100000
00000000
00000000
00101000
00000000
,
00001000
00010000
00000000
00010000
00001000
00000000
00100000
00000000
00001000
00010000
00000000
00010000
00001000
00000000
01000000
00000000
,
00010000
10000000
00000000
10000000
00010000
00000000
00100000
00000000
00010000
10000000
00000000
10000000
00010000
00000000
01000000
00000000
,
00001000
00010000
00000000
00001000
00010000
00000000
00000100
00000000
00010000
00001000
00000000
00010000
00001000
00000000
00100000
00000000
,
00001000
00010000
00000000
00001000
00010000
00000000
00000100
00001000
00000000
00000100
00010000
00001000
00000000
00000000
00011000
00000000
,
00010000
00001000
00000000
00001000
00010000
00000000
00000100
00000000
00010000
00001000
00000000
00001000
00010000
00000000
00000010
00000000
,
00001000
00000001
00000000
00000001
00001000
00000000
00000100
00000000
00001000
00000001
00000000
00000001
00001000
00000000
00000010
00000000
,
00010000
00001000
00000000
00010000
00001000
00000000
00100000
00000000
00001000
00010000
00000000
00001000
00010000
00000000
00000100
00000000
,
00010000
00001000
00000000
00010000
00001000
00000000
00010000
00001000
00010000
00001000
00010000
00001000
00010000
00001000
00010000
00002000
,
00020000
00000000
00000000
00033000
;

//---------------dance-double - Blank----------------
#NOTES:
     dance-double:
     Blank:
     Easy:
     6:
     0.168409,0.245836,0.067090,0.258774,0.000000,123.000000,116.000000,7.000000,27.000000,0.000000,0.000000,0.168409,0.245836,0.067090,0.258774,0.000000,123.000000,116.000000,7.000000,27.000000,0.000000,0.000000:
00000000
00000000
00000000
00000000
,
00000000
00000000
00000000
00000000
,
00000000
00000000
00000000
00000000
,
00000000
00000000
00000000
00000000
,
00002000
00000000
00000000
00000000
00000000
00000000
00000000
00023000
,
00000000
00000000
00000000
00030000
,
00000200
00000000
00000000
00000000
00000000
00000000
00000000
00200300
,
00000000
00000000
00000000
00300000
,
00020000
00000000
00000000
00000000
00000000
00000000
00000000
20030000
,
00000000
00000000
00000000
30000000
,
00200000
00000000
00000000
00000000
00000000
00000000
00000000
02300000
,
00000000
00000000
00000000
03000000
,
00010000
01000000
00010000
00000000
,
00100000
00001000
00100000
00000000
,
00000010
00010000
00000010
00000000
,
00001000
00000100
00001000
00000000
,
00000002
00000000
00000000
00000000
,
00000203
00000000
00000000
00000000
,
00002300
00000000
00000000
00000000
,
00000000
00000000
00003200
00000000
,
00000302
00000000
00000000
00000000
,
00000023
00000000
00000000
00000000
,
00002030
00000000
00000000
00000000
,
00000000
00000000
00003020
00000000
,
00000031
00000000
00000100
00000010
,
00001000
00000000
00000100
00010000
,
00001000
00000000
00010000
00001000
,
01000000
00000000
01100000
00000000
,
10000000
00000000
01000000
00100000
,
00010000
00000000
01000000
00001000
,
00010000
00000000
00001000
00010000
,
00000100
00000000
00000110
00000000
,
00002002
00000000
00000000
00000000
00000000
00000000
00000000
00003003
,
00000100
00000000
00010000
00000000
,
00022000
00000000
00000000
00000000
00000000
00000000
00000000
00033000
,
00001000
00000000
01000000
00000000
,
20020000
00000000
00000000
00000000
00000000
00000000
00000000
30030000
,
01000000
00000000
00010000
00000000
,
02200000
00000000
00000000
00000000
00000000
00000000
00000000
03300000
,
00000000
00000000
02000000
00000000
,
13000000
00000000
00100000
01000000
,
00010000
00000000
00100000
00001000
,
00010000
00000000
00001000
00010000
,
00000010
00000000
00000010
00001000
,
00000001
00000000
00000010
00000100
,
00001000
00000000
00000010
00010000
,
00001000
00000000
00010000
00001000
,
00100000
00000000
00100000
00010000
,
10000000
00100000
00100000
00100000
,
01000000
00010000
00010000
00010000
,
00100000
00001000
00001000
00001000
,
00010000
00000010
00000010
00000010
,
00001000
00000001
00000010
00000100
,
00001000
00000001
00000100
00000010
,
00001000
00000000
00000010
00010000
,
00001000
00000000
00100000
00001000
,
00022000
00000000
00000000
00000000
,
00033000
00000000
00000000
00000000
;

//---------------dance-double - ----------------
#NOTES:
     dance-double:
     :
     Medium:
     11:
     0.350509,0.437041,0.258774,0.239606,0.000000,256.000000,229.000000,27.000000,25.000000,0.000000,0.000000,0.350509,0.437041,0.258774,0.239606,0.000000,256.000000,229.000000,27.000000,25.000000,0.000000,0.000000:
00000000
00000000
00000000
00000000
,
00000000
00000000
00000000
00000000
,
00000000
00000000
00000000
00000000
,
00000000
00000000
00000000
00000000
,
00200000
00000000
00010000
00000000
00000000
00000000
00010000
00302000
,
00000000
00010000
00000000
00013000
,
00000020
00000000
00001000
00000000
00000000
00000000
00001000
00020030
,
00000000
00001000
00000000
00031000
,
02000000
00000000
00010000
00000000
00000000
00000000
00010000
03002000
,
00000000
00010000
00000000
00013000
,
00000200
00000000
00001000
00000000
00000000
00000000
00001000
00020300
,
00000000
00001000
00000000
00031000
,
00100000
00010000
00100000
00010000
00100000
00010000
00100000
00001000
,
01000000
00001000
01000000
00001000
01000000
00001000
01000000
00000000
,
00000010
00001000
00000010
00001000
00000010
00001000
00000010
00010000
,
00000100
00010000
00000100
00010000
00000100
00010000
00000100
00000000
,
00020000
00000000
00000000
00000000
,
00002000
00000000
00000000
00030000
,
02000000
00000000
00000000
00000000
,
00000000
00003000
00200000
03000000
,
20000000
00000000
00000000
00300000
,
02000000
00000000
00000000
30000000
,
00200000
00000000
00000000
00000000
,
00000000
03300000
20020000
30030000
,
10000000
01000000
00100000
00000000
00010000
00000000
01000000
00000000
,
00010000
01000000
00001000
00000000
00100000
00000000
00001000
00000000
,
00010000
00000010
00001000
00000000
00000100
00000000
00001000
00000000
,
00000010
00000100
00000010
00000000
00001000
00000001
00001000
00000000
,
00000001
00000100
00000010
00000000
00001000
00000000
00000100
00000000
,
00001000
00000100
00010000
00000000
00001000
00000000
00100000
00000000
,
00001000
00100000
00010000
00000000
01000000
00000000
00100000
00000000
,
10000000
00010000
10000000
00000000
00100000
01000000
00100000
00000000
,
20000000
00000000
01000000
00000000
01000000
00000000
31000000
00200000
,
00010000
00010000
00010000
00310000
,
02000000
00000000
00010000
00000000
00010000
00000000
00010000
03002000
,
00000000
00100000
00100000
00103000
,
00100000
00001000
00100000
00001000
00100000
00001000
00100000
00001000
,
01000000
00010000
01000000
00010000
01000000
00010000
01000000
00000000
,
00000010
00010000
00000010
00010000
00000010
00010000
00000010
00000000
,
00020000
00000000
00032000
00000000
,
00103000
00010000
00100000
00000000
00101000
00000000
00011000
00000000
,
00000010
00001000
00000010
00000000
00010010
00000000
00011000
00000000
,
01000000
00010000
01000000
00000000
01001000
00000000
00011000
00000000
,
00000100
00001000
00000100
00000000
00000100
00010000
00001000
00000000
,
00001000
01000000
00001000
00000000
00101000
00000000
00011000
00000000
,
00010000
00000100
00010000
00000000
00010010
00000000
00011000
00000000
,
00001000
00100000
00001000
00000000
01001000
00000000
00011000
00000000
,
00000010
00010000
00001000
00000000
00001000
01000000
00010000
00000000
,
10000000
01000000
00100000
00000000
00110000
00000000
01010000
00000000
,
00010000
01000000
00001000
00000000
01001000
00000000
00011000
00000000
,
00010000
00000010
00001000
00000000
00001010
00000000
00001001
00000000
,
00000010
00000100
00000010
00000000
00001000
00000001
00001000
00000000
,
00000001
00000100
00000010
00000000
00001010
00000000
00001100
00000000
,
00001000
00000100
00010000
00000000
00011000
00000000
00101000
00000000
,
00001000
00100000
00010000
00000000
01010000
00000000
10010000
00000000
,
01100000
00000000
00000000
00000000
10000000
00010000
10000000
00010000
,
20020000
00000000
00000000
00000000
,
30030000
00000000
00000000
00000000
;
