#TITLE:Get Out;
#SUBTITLE:;
#ARTIST:smile.dk;
#TITLETRANSLIT:;
#SUBTITLETRANSLIT:;
#ARTISTTRANSLIT:;
#GENRE:;
#CREDIT:;
#MUSIC:Get Out.ogg;
#BANNER:Get Out-bn.png;
#BACKGROUND:Get Out-bg.png;
#CDTITLE:;
#SAMPLESTART:35.897;
#SAMPLELENGTH:12.000;
#SELECTABLE:YES;
#OFFSET:1.820;
#BPMS:0.000=132.000;
#STOPS:;
#BGCHANGES:;
#FGCHANGES:;

//--------------- dance-single - OrangeRight ----------------
#NOTES:
     dance-single:
     OrangeRight:
     Beginner:
     1:
     0,0,0,0,0:
0000
0000
0000
0000
,
0000
0000
0000
0000
,
0000
0000
0000
0000
,
0000
0000
0000
0000
,
0000
0000
0000
0000
,
1000
0000
0000
0000
,
0001
0000
0000
0000
,
1000
0000
0000
0000
,
0001
0000
0001
0000
,
1000
0000
0000
0000
,
0100
0000
0000
0000
,
1000
0000
0000
0000
,
0100
0000
0100
0000
,
1000
0000
0000
0000
,
0010
0000
0000
0000
,
0100
0000
0100
0000
,
0001
0000
0001
0000
,
1000
0000
0000
0000
,
0100
0000
0000
0000
,
0010
0000
0010
0000
,
0001
0000
1000
0000
,
1001
0000
0000
0000
,
0100
0000
0010
0000
,
1000
0000
0100
0000
,
1000
0000
0000
0000
,
1001
0000
0000
0000
,
0100
0000
0010
0000
,
0001
0000
0100
0000
,
0001
0000
0000
0000
,
1000
0000
1000
0000
,
0001
0000
0001
0000
,
0100
0000
0100
0000
,
0010
0000
0010
0000
,
1000
0000
0001
0000
,
1000
0000
0001
0000
,
1000
0000
0001
0000
,
0000
0000
0000
0000
,
0001
0000
1000
0000
,
0001
0000
1000
0000
,
0001
0000
1000
0000
,
0000
0000
0000
0000
,
1001
0000
0000
0000
,
0010
0000
1000
0000
,
0100
0000
0010
0000
,
0001
0000
0000
0000
,
1001
0000
0000
0000
,
0010
0000
0001
0000
,
0100
0000
0010
0000
,
1000
0000
0000
0000
,
1001
0000
0000
0000
,
1000
0000
0001
0000
,
1000
0001
1000
0001
,
1000
0000
0001
0000
,
1001
0000
0000
0000
,
0001
0000
1000
0000
,
0001
1000
0001
1000
,
0001
0000
1000
0000
;

//--------------- dance-single - OrangeRight ----------------
#NOTES:
     dance-single:
     OrangeRight:
     Easy:
     3:
     0,0,0,0,0:
0000
0000
0000
0000
,
0000
0000
0000
0000
,
0000
0000
0000
0000
,
0000
0000
0000
0000
,
0000
0000
0000
0000
,
1000
0000
0001
0000
,
0100
0001
0100
0000
,
0001
0000
1000
0000
,
0100
1000
0100
0010
,
0001
0000
1000
0000
,
0010
1000
0010
0000
,
1000
0000
0001
0000
,
0010
0100
1000
0001
,
1000
0100
1000
0100
,
0010
0001
0010
0000
,
0001
0010
0001
0010
,
0100
1000
0100
0000
,
1000
0001
1000
0001
,
0100
0010
1000
0000
,
0001
0001
0100
0100
,
0010
1000
0100
0010
,
2002
3003
0100
0010
,
1000
0100
1000
0000
,
0001
0001
0100
0100
,
0010
1000
0010
0100
,
2002
3003
0010
0100
,
0001
0010
0001
0000
,
1000
1000
0100
0100
,
0010
0001
0100
0010
,
1000
0100
1000
0000
,
0001
0100
0001
0000
,
1000
0001
0100
0000
,
0001
1000
0100
0000
,
1000
1000
0100
0010
,
0001
0001
0100
0010
,
1000
1000
0010
0100
,
0002
0003
2000
3000
,
0001
0001
0100
0010
,
1000
1000
0100
0010
,
0001
0001
0100
0010
,
1000
0100
0010
0001
,
2002
3003
0100
0010
,
1000
0100
0010
0000
,
0001
0010
0001
0100
,
0010
1000
0100
0010
,
2002
3003
0010
0100
,
0001
0010
0100
0000
,
1000
0001
0100
0010
,
1000
0100
0010
0001
,
1001
0100
0010
1000
,
0100
0010
0001
0100
,
0010
0010
1000
1000
,
0001
0100
0010
1000
,
1001
0100
0010
0001
,
0100
0010
1000
0100
,
0010
0010
0001
0001
,
1000
0002
0000
0003
;

//--------------- dance-single - OrangeRight ----------------
#NOTES:
     dance-single:
     OrangeRight:
     Medium:
     7:
     0,0,0,0,0:
0000
0000
0000
0000
,
0000
0000
0000
0000
,
0000
0000
0000
0000
,
0000
0000
0000
0000
,
0000
0000
0000
0000
,
1000
0100
1000
0100
,
0010
0001
0100
0010
,
1000
0010
1000
0010
,
0100
0001
0010
0100
,
1000
0001
1000
0001
,
0100
0010
1000
0100
,
0010
0001
0010
0001
,
0100
0010
1000
0001
,
1000
0000
1000
0000
1000
0100
0010
0001
,
0100
0000
0100
0000
0100
0010
1000
0100
,
0010
0000
0010
0000
0010
0001
0100
0010
,
1000
0000
0001
0000
1000
0001
0100
0010
,
1000
0000
0100
0000
1000
0100
0010
0001
,
0100
0000
0001
0000
0100
0010
1000
0001
,
0000
0101
0000
0101
0000
0100
0010
1000
,
0100
0010
0001
1000
0100
0010
0001
0000
,
2100
0000
3001
0000
1000
0001
0100
0010
,
0000
1000
0000
0010
0000
0100
0001
0010
,
0000
0100
1000
0010
0000
0100
0001
0010
,
0000
0100
0000
1000
0000
0001
0100
0000
,
2010
0000
3001
0000
1000
0001
0010
0100
,
0000
1000
0000
0100
0000
0010
0001
0100
,
0000
0010
1000
0100
0000
0010
0001
0100
,
0000
0010
0000
1000
0000
0001
0010
0100
,
1000
0000
1000
0000
1000
0001
1000
0001
,
1000
0000
1000
0000
1000
0001
1000
0001
,
0100
0000
0100
0000
0100
0010
0100
0010
,
0100
0000
0010
0000
0100
0010
1000
0001
,
1000
0000
1000
0000
1000
0000
0000
0000
0001
0000
0000
0001
0000
0000
0100
0000
,
0001
0000
0001
0000
0001
0000
0000
0000
1000
0000
0000
1000
0000
0000
0100
0000
,
1000
0000
1000
0000
1000
0000
0000
0000
0001
0000
0000
0001
0000
0000
0100
0000
,
0001
0100
1000
0100
,
0001
0001
0001
0000
0010
0100
0010
0100
,
1000
1000
1000
0000
0010
0100
0010
0100
,
0001
0001
0001
0000
0010
0100
0010
0100
,
1000
0100
0010
0001
1000
0100
0010
0000
,
0012
0000
1003
0000
0001
1000
0010
0100
,
0000
0001
0000
0100
0000
0010
1000
0100
,
0000
0010
0001
0100
0000
0010
1000
0100
,
0000
0010
0000
0001
0000
1000
0010
0000
,
0102
0000
1003
0000
0001
1000
0100
0010
,
0000
0001
0000
0010
0000
0100
1000
0010
,
0000
0100
0001
0010
0000
0100
1000
0010
,
0100
0001
1000
0010
0100
0001
1000
0000
,
2001
0000
0000
0001
0000
0000
3001
0000
0000
0000
0010
0000
0100
0000
0000
0000
,
1002
0000
0000
1000
0000
0000
1003
0000
0000
0000
0010
0000
0100
0000
0000
0000
,
0001
0100
0001
0000
1000
0100
1000
0000
,
0001
0010
0001
0010
0100
1000
0100
0000
,
1002
0000
0000
1000
0000
0000
1003
0000
0000
0000
0100
0000
0010
0000
0000
0000
,
2001
0000
0000
0001
0000
0000
3001
0000
0000
0000
0100
0000
0010
0000
0000
0000
,
1000
0000
0000
1000
0000
0000
1000
0000
0001
0000
1000
0000
0001
0000
1000
0000
,
0001
0000
0000
0001
0000
0000
0002
0000
0000
0000
0000
0000
0003
0000
0000
0000
;

//--------------- dance-single - OrangeRight ----------------
#NOTES:
     dance-single:
     OrangeRight:
     Hard:
     10:
     0,0,0,0,0:
0000
0000
0000
0000
,
0000
0000
0000
0000
,
0000
0000
0000
0000
,
0000
0000
0000
0000
,
0000
0000
0000
0000
,
1000
0000
0100
0000
0010
0001
0100
0010
,
1000
0000
0100
0000
0010
0000
0001
0100
,
0001
0000
0100
0000
0010
0000
1000
0001
,
1000
0000
0100
0000
0010
0000
0001
1000
,
0001
0000
0100
0000
0010
1000
0100
0010
,
0001
0000
0100
0000
0010
1000
0100
0010
,
0000
0001
0100
0010
0000
1000
0010
0100
,
0000
0001
0000
0010
0000
0110
0000
1001
,
0000
0000
0000
1000
0001
0000
0100
0000
0010
0000
1000
0000
0100
0000
0010
0000
,
0001
0000
0000
1000
0001
0000
0100
0000
0010
0000
1000
0000
0100
0000
0001
0000
,
0100
0000
0000
0100
1000
0000
0010
0000
0100
0000
0001
0000
1000
0000
0001
0000
,
0010
0000
0000
0010
0001
0000
0100
0000
0010
0000
1000
0000
0100
0000
1000
0000
,
0001
0000
0000
0001
1000
0000
0100
0000
0010
0000
0001
0000
0100
0000
0010
0000
,
1000
0000
0000
0001
1000
0000
0100
0000
0010
0000
0001
0000
0100
0000
0101
0000
,
0000
1100
0000
0101
0000
0001
0100
0010
,
1000
0100
0010
0001
1000
0100
0011
0000
,
2001
0000
0100
0000
3010
0100
0001
0011
,
0000
1001
0000
0101
0000
0100
0010
1000
,
0100
0001
0100
1000
0010
0100
0001
0011
,
0000
1010
0000
0011
0000
1000
0001
0100
,
0120
0000
1000
0000
0031
0010
1000
1100
,
0000
1001
0000
1010
0000
0100
0010
1000
,
0100
0001
0100
1000
0100
0010
0001
0101
,
0000
1100
0000
0101
0000
0001
1000
0001
,
1000
0000
0000
0001
0000
0000
1000
0000
0000
0100
0000
0000
0010
0000
0001
0000
,
1000
0000
0000
0001
0000
0000
1000
0000
0000
0010
0000
0000
0100
0000
0001
0000
,
0100
0000
0000
0010
0000
0000
0100
0000
0000
0001
0000
0000
1000
0000
0001
0000
,
1000
0000
0000
0001
0000
0000
1000
0000
0000
0100
0000
0000
0010
0000
0001
0000
,
1000
0000
1000
0000
1000
0000
0001
0000
0100
0000
0010
0100
0000
0010
0100
0000
,
0001
0000
0001
0000
0001
0000
1000
0000
0100
0000
0010
0100
0000
0010
0100
0000
,
1000
0000
1000
0000
1000
0000
0001
0000
0100
0000
0010
0100
0000
0010
0100
0000
,
0002
0203
2300
3200
,
0301
0000
0001
0000
0001
0000
1000
0000
0010
0000
0100
0010
0000
0100
0010
0000
,
1000
0000
1000
0000
1000
0000
0001
0000
0010
0000
0100
0010
0000
0100
0010
0000
,
0001
0000
0001
0000
0001
0000
1000
0000
0010
0000
0100
0010
0000
0100
0010
0000
,
1000
0010
0100
0001
1000
0010
0101
0000
,
1001
0000
0000
0001
0000
0000
1000
0000
0100
0000
0010
0000
0001
0000
0101
0000
,
0000
1001
0000
0011
0000
0010
0100
1000
,
0010
0001
0010
1000
0100
0010
0001
0101
,
0000
1100
0000
0101
0000
1000
0001
0010
,
0110
0000
0000
1000
0000
0000
0001
0000
0100
0000
0010
0000
1000
0000
1010
0000
,
0000
1001
0000
1100
0000
0010
0100
1000
,
0010
0001
0010
1000
0010
0100
0001
1000
,
0001
0100
0010
1000
0001
0100
1010
0000
,
1001
0000
0000
0100
0010
0000
0001
0000
0100
0000
0010
0000
1000
0000
1010
0000
,
0000
0101
0000
1010
0000
0010
1000
0100
,
1000
0000
0000
0010
1000
0000
0010
0000
0000
0100
0001
0000
0010
0000
0100
0000
,
1000
0000
0000
0001
0100
0000
0010
0000
1000
0000
0100
0000
1100
0000
0000
0000
,
1001
0000
0000
0100
0010
0000
1000
0000
0100
0000
0010
0000
0001
0000
0011
0000
,
0000
0110
0000
1010
0000
0010
0001
0100
,
0002
0000
0000
1000
0000
0000
1000
0000
0000
1000
0000
0000
0103
0000
0001
0000
,
2000
0000
0000
0001
0000
0000
0002
0000
0000
0000
0000
0000
3003
0000
0000
0000
;

//--------------- dance-single - OrangeRight ----------------
#NOTES:
     dance-single:
     OrangeRight:
     Challenge:
     14:
     0,0,0,0,0:
0000
0000
0000
0000
,
0000
0000
0000
0000
,
0000
0000
0000
0000
,
0000
0000
0000
0000
,
0000
0000
0000
0000
,
1000
0100
0010
0001
0100
1000
0100
0001
,
0100
0000
0010
0000
1000
0000
0000
0100
0000
0000
1000
0000
0001
0000
0101
0000
,
0000
0001
1000
1100
0000
1000
0001
0011
,
0000
0010
0100
1100
0000
0101
0000
0011
,
0001
0100
0010
1000
0100
0001
0100
1000
,
0100
0000
0010
0000
0001
0000
0000
0100
0000
0000
0001
0000
1000
0000
1100
0000
,
0000
1000
0001
0101
0000
0001
1000
1010
,
0000
1100
0000
0101
0000
1100
0000
1010
,
1100
0000
0000
0100
1000
0000
0010
0000
0100
0001
0100
0000
0010
0000
1000
0000
,
0001
0000
0000
0100
0001
0000
0010
0000
0100
1000
0100
0000
0010
0000
0001
0000
,
1000
0000
0000
0001
1000
0000
0010
0000
0100
0010
1000
0000
0001
0000
0100
0000
,
0001
0000
0000
1000
0001
0000
0010
0000
0100
0010
0001
0000
1000
0000
0100
0000
,
1000
0000
0000
0001
1000
0000
0100
0000
0010
0001
0010
0000
0100
0000
1000
0000
,
0001
0000
0000
0010
0001
0000
0100
0000
0010
1000
0010
0000
0100
0000
0101
0000
,
0000
0011
0000
1010
0000
1000
0100
0010
,
0001
0100
0010
1000
0001
0100
0010
1000
0001
0010
0100
1000
0001
1000
0001
1000
,
1001
0000
0000
0101
0000
0000
0110
0000
0000
0010
1000
0000
0100
0000
0010
0100
,
0020
0000
0031
0010
0002
0000
0103
0001
0200
0000
0310
0000
1000
0000
0100
1000
,
0100
0000
1000
0000
0001
0000
0100
0001
0100
0000
0010
0000
1000
0000
0001
1000
,
0002
0000
1003
0100
2000
0000
3001
0100
0002
0000
1003
0000
0001
1000
0001
1000
,
1001
0000
0000
1100
0000
0000
0110
0000
0000
0010
0001
0000
0100
0000
0010
0100
,
0020
0000
1030
0010
2000
0000
3100
1000
0200
0000
0310
0000
0001
0000
0100
0001
,
0100
0000
0001
0000
1000
0000
0100
1000
0100
0000
0010
0000
0001
0000
1000
0001
,
2000
0000
3001
0100
0002
0000
1003
0100
2000
0000
3001
0000
1000
0100
1000
0100
,
1100
0000
0000
0101
0000
0000
1100
0000
0000
1000
0001
0000
0100
0000
0010
0000
,
1010
0000
0000
0011
0000
0000
1010
0000
0000
0001
1000
0000
0010
0000
0100
0000
,
0101
0000
0000
1100
0000
0000
0101
0000
0000
0001
0010
0000
1000
0000
0010
0000
,
0001
0000
0001
0100
0000
0100
0010
0000
0010
1000
0000
1000
0001
0100
0010
0000
,
1000
0000
0100
0000
0010
0000
0100
0000
1000
0000
0001
1000
0000
1000
0100
0010
,
0001
0000
0100
0000
0010
0000
0100
0000
0001
0000
1000
0001
0000
0001
0100
0010
,
1000
0000
0100
0000
0010
0000
0100
0000
1000
0000
0001
1000
0000
1000
0001
1000
,
0002
0203
2300
3200
,
0301
0000
0100
0000
1000
0000
0100
0000
0001
0000
1000
0001
0000
0001
0100
0010
,
1000
0000
0100
0000
0001
0000
0100
0000
1000
0000
0001
1000
0000
1000
0100
0010
,
0001
0000
0100
0000
1000
0000
0100
0000
0001
0000
1000
0001
0000
0001
0100
0010
,
1000
0100
0010
0001
1000
0100
0010
0001
1000
0010
0100
0001
1000
0001
1000
0001
,
1001
0000
0000
0011
0000
0000
0110
0000
0000
0100
1000
0000
0010
0000
0100
0010
,
2000
0000
3001
0100
0020
0000
1030
0001
0200
0000
0310
0000
1000
0000
0010
1000
,
0001
0000
0010
0000
0001
0000
1000
0001
0010
0000
0100
0000
1000
0000
0001
1000
,
0002
0000
1003
0010
2000
0000
3001
0010
0002
0000
1003
0000
0001
1000
0001
1000
,
1001
0000
0000
1010
0000
0000
0110
0000
0000
0100
0001
0000
0010
0000
0100
0010
,
0002
0000
1003
0100
0020
0000
0031
1000
0200
0000
0310
0000
0001
0000
0010
0001
,
1000
0000
0010
0000
1000
0000
0010
1000
0001
0000
0100
0000
0001
0000
1000
0001
,
1000
0100
0010
0001
1000
0010
0100
0001
0010
0100
1000
0001
0100
0010
1000
0001
,
1001
0000
1000
0100
0000
0100
0010
0000
0010
0001
0000
0001
0100
0010
0100
0000
,
0001
0000
0001
0100
0000
0100
0010
0000
0010
1000
0000
1000
0100
0010
0100
0000
,
1000
0000
1000
0010
0000
0010
0100
0000
0100
0001
0000
0001
0010
0100
0010
0000
,
0001
0000
0001
0010
0000
0010
0100
0000
0100
1000
0000
1000
0010
0100
0001
0000
,
1000
0000
1000
0001
0000
0001
0100
0000
0100
0010
0000
0010
1000
0001
1000
0000
,
0001
0000
0001
0010
0000
0010
0100
0000
0100
1000
0000
1000
0001
0100
0010
0000
,
1010
0000
0000
0101
0000
0000
0011
0000
0000
1100
0000
0000
1001
0000
0110
0000
,
2000
0000
0000
0100
0000
0000
0002
0000
0000
0000
0000
0000
3003
0000
0000
0000
;
