#VERSION:0.81;
#TITLE:City Express;
#SUBTITLE:;
#ARTIST:Yoshino Aoki;
#TITLETRANSLIT:;
#SUBTITLETRANSLIT:;
#ARTISTTRANSLIT:;
#GENRE:;
#ORIGIN:;
#CREDIT:;
#BANNER:City Express-bn.png;
#BACKGROUND:City Express-bg.png;
#PREVIEWVID:;
#JACKET:City Express-jacket.png;
#CDIMAGE:;
#DISCIMAGE:;
#LYRICSPATH:;
#CDTITLE:;
#MUSIC:City Express.mp3;
#OFFSET:-0.072000;
#SAMPLESTART:75.800003;
#SAMPLELENGTH:12.000000;
#SELECTABLE:YES;
#BPMS:0.000=141.000;
#STOPS:;
#DELAYS:;
#WARPS:;
#TIMESIGNATURES:0.000=4=4;
#TICKCOUNTS:0.000=4;
#COMBOS:0.000=1;
#SPEEDS:0.000=1.000=0.000=0;
#SCROLLS:0.000=1.000;
#FAKES:;
#LABELS:0.000=Song Start;
#BGCHANGES:;
#KEYSOUNDS:;
#ATTACKS:
;

//---------------dance-single - ----------------
#NOTEDATA:;
#CHARTNAME:;
#STEPSTYPE:dance-single;
#DESCRIPTION:;
#CHARTSTYLE:;
#DIFFICULTY:Challenge;
#METER:15;
#RADARVALUES:0.832908,0.749767,0.356532,0.262156,0.812684,497.000000,34.000000,25.000000,0.000000,0.000000,0.000000,0.000000,0.000000,0.832908,0.749767,0.356532,0.262156,0.812684,497.000000,34.000000,25.000000,0.000000,0.000000,0.000000,0.000000,0.000000;
#CREDIT:;
#NOTES:
0000
0000
0000
0000
,
0000
0000
0000
0000
,
0000
0000
0000
0000
,
0000
0000
0000
0000
,
1000
0000
0001
1000
0000
0001
1000
0000
0001
0100
0010
1000
0010
0100
0001
1000
,
0001
0000
1000
0001
0000
0001
1000
0001
0000
0100
0001
0100
0010
1000
0010
0100
,
0001
0000
1000
0001
0000
1000
0001
0000
1000
0010
0100
0001
0100
0010
1000
0001
,
1000
0000
0001
1000
0000
0001
0100
0010
1000
0000
1100
0000
0110
0000
0011
0000
,
1000
0000
1000
0100
0000
1000
0100
0000
0010
0001
0100
0010
1000
0100
0010
0001
,
1000
0000
0001
0100
0000
0010
1000
0010
0000
0100
0001
0010
0100
1000
0100
0010
,
0001
0000
0001
0100
0000
0001
0100
0000
0010
1000
0100
0010
0001
0100
0010
1000
,
0100
0000
0010
0001
0000
1000
0100
1000
0001
0000
0101
0000
0110
0000
1010
0000
,
1000
0000
0001
1000
0000
0000
0120
0000
0000
0000
0130
0000
0001
0000
0021
0000
,
0000
0130
1000
1200
0000
0310
0001
0100
,
0001
0000
1000
0001
0000
0000
0120
0000
0000
0000
0130
0000
1000
0000
1020
0000
,
0000
0130
0001
0201
0000
0310
1000
0100
,
1000
0000
0100
1000
0000
0000
1020
0000
0000
0000
0130
0000
1000
0000
1200
0000
,
0000
0310
0001
0201
0000
0310
0001
0100
,
0001
0000
0100
0001
0000
0000
0021
0000
0000
0000
0130
0000
0001
0000
0201
0000
,
0000
0310
1000
1200
0000
0310
1000
0100
,
1000
0000
0001
1000
0001
0000
0100
0000
0010
0000
1000
0000
0010
0000
0001
0000
,
0010
1000
0100
0001
0100
1000
0001
0100
,
0001
0000
1000
0001
1000
0000
0100
0000
0010
0000
0001
0000
0010
0000
1000
0000
,
0010
0001
0100
1000
0100
0001
1000
0100
,
1000
0000
0100
1000
0100
0000
0010
0000
0001
0000
0100
0001
0100
0000
0010
0000
,
1000
0000
0010
1000
0010
0000
0100
0000
0000
0000
1001
0000
0000
0000
0000
0000
,
1000
0000
0001
0100
0001
0000
1000
0000
0001
0000
0100
0010
1000
0000
0001
0000
,
1000
0001
0100
1000
0100
0001
1000
0010
,
1000
0000
0100
0000
0010
0000
0001
0000
0100
0001
0100
0000
0001
0100
0000
0001
,
1000
0000
0100
0000
0010
0000
0001
0000
0100
0001
0100
0000
0001
0000
1001
0000
,
1000
0000
0010
0000
0100
0000
0001
0000
0010
0001
0010
0000
0001
0010
0000
0100
,
1000
0000
0010
0000
0100
0000
0001
0000
0010
0001
0010
0000
0001
0000
1001
0000
,
1000
0000
0100
0000
0010
0000
0001
0000
0100
0001
0100
0000
0010
0001
0000
1000
,
0001
0000
0100
0000
0010
0000
1000
0000
0100
1000
0100
0000
1000
0000
1000
0000
,
2000
0100
3002
0100
2003
0010
3002
0010
,
2003
0100
3020
0100
2030
0010
0100
0002
,
0000
0000
0000
0000
0000
0000
3003
0000
1000
0000
0001
1000
0000
0001
1000
0000
,
0001
0010
0100
1000
0100
0010
0001
1000
0001
0000
1000
0001
0000
0001
1000
0001
,
0000
0010
0001
0010
0100
1000
0100
0010
0001
0000
1000
0001
0000
1000
0001
0000
,
1000
0100
0010
0001
0010
0100
1000
0001
1000
0000
0001
1000
0000
0001
0010
0100
,
1000
0000
1010
0000
0110
0000
0101
0000
1000
0000
1000
0010
0000
1000
0010
0000
,
0100
0001
0010
0100
1000
0010
0100
0001
1000
0000
0001
0010
0000
0100
1000
0100
,
0000
0010
0001
0100
0010
1000
0010
0100
0001
0000
0001
0010
0000
0001
0010
0000
,
0100
1000
0010
0100
0001
0010
0100
1000
0010
0000
0100
0001
0000
1000
0010
1000
,
0001
0000
0011
0000
0110
0000
1100
0000
1000
0000
1000
0100
0000
0010
0100
0000
,
1000
0010
0100
0001
0010
0100
1000
0001
1000
0000
0010
1000
0000
0001
0010
0001
,
0000
0100
0001
1000
0001
0010
0001
0100
0001
0000
0001
0100
0000
0010
0100
0000
,
0001
0010
0100
1000
0010
0100
0001
1000
0001
0000
0010
0001
0000
1000
0010
1000
,
0010
0000
0110
0000
1100
0000
1001
0000
1000
0000
1000
0100
0000
0010
0001
0000
,
0010
0001
0100
0010
0100
0001
0010
0100
1000
0000
0001
0100
0000
0010
1000
0001
,
0000
0100
0010
1000
0100
0010
0100
1000
0001
0000
0001
0100
0000
0010
1000
0000
,
0010
1000
0100
0010
0001
1000
0010
0100
0001
0000
0010
0001
0000
1000
0100
1000
,
0001
0101
0110
1010
1002
0000
1000
0010
,
2003
0000
0010
0000
3002
1000
0100
2000
,
0003
0020
0000
0000
0000
0000
0000
0000
,
3030
0000
0000
0000
;

//---------------dance-single - ----------------
#NOTEDATA:;
#CHARTNAME:;
#STEPSTYPE:dance-single;
#DESCRIPTION:;
#CHARTSTYLE:;
#DIFFICULTY:Hard;
#METER:12;
#RADARVALUES:0.546783,0.624325,0.125835,0.440422,0.157294,311.000000,12.000000,42.000000,0.000000,0.000000,0.000000,0.000000,0.000000,0.546783,0.624325,0.125835,0.440422,0.157294,311.000000,12.000000,42.000000,0.000000,0.000000,0.000000,0.000000,0.000000;
#CREDIT:;
#NOTES:
0000
0000
0000
0000
,
0000
0000
0000
0000
,
0000
0000
0000
0000
,
0000
0000
0000
0000
,
1000
0000
0100
1000
0000
0100
1000
0000
0001
0000
0100
0000
0010
0000
1000
0000
,
0001
0000
0100
0001
0000
0100
0001
0000
1000
0000
0100
0000
0010
0000
0001
0000
,
1000
0000
0010
1000
0000
0010
1000
0000
0001
0000
0010
0000
0100
0000
1000
0000
,
0001
0000
0010
0001
0000
0010
0001
0000
2000
0000
3020
0000
0230
0000
0302
0000
,
1003
0000
0001
1000
0000
0001
1000
0000
0010
0000
0100
0000
0001
0000
1000
0000
,
0001
0000
1000
0001
0000
1000
0001
0000
0010
0000
0100
0000
1000
0000
0001
0000
,
1000
0000
0001
1000
0000
0001
1000
0000
0100
0000
0010
0000
0001
0000
1000
0000
,
0001
0000
1000
0001
0000
1000
0001
0000
0200
0000
0320
0000
2030
0000
3002
0000
,
2003
0000
3100
0020
0000
0031
0000
1002
,
0000
0103
0000
2001
0000
3100
1000
0000
,
0002
0000
0103
0020
0000
1030
0000
1002
,
0000
0010
0000
0100
0000
1003
0010
0100
,
0002
0000
0013
0200
0000
1300
0000
2001
,
0000
3010
0000
1002
0000
0013
0100
1000
,
0002
0000
1003
0100
0000
0110
0000
2000
,
0001
0010
0100
3100
,
1000
0010
0100
0002
0000
0000
1003
0000
,
0001
0010
0100
2000
0000
0000
3001
0000
,
2000
0000
3100
0020
0000
0031
0100
0002
,
0010
0100
1000
1003
,
1000
0100
0010
0002
0000
0103
0010
2000
,
0000
3100
0010
0001
0000
0101
0000
0000
,
0001
0000
0100
0010
0000
0100
0001
2000
,
0100
0010
0001
3001
,
0012
0100
1000
0013
,
2010
0001
0100
3010
,
1200
0010
0001
0310
,
0021
0000
0100
0000
1000
0000
0130
0100
,
2000
0000
0001
0000
0100
0100
0100
0000
,
3002
0000
1000
0000
0100
0100
0100
0000
,
0023
0000
0100
0000
0001
0001
0001
0000
,
0031
0000
0010
0200
0000
2000
0000
0000
,
0000
0000
3300
0000
1000
0000
0100
1000
,
0001
0000
0100
0001
0010
0100
1000
0001
,
0010
0001
0100
0000
0001
0000
0100
0001
,
1000
0100
0010
0001
1000
0010
0100
0002
,
0000
1000
1003
0000
0001
0000
0010
0001
,
1000
0000
0010
1000
0100
0010
0001
1000
,
0010
1000
0100
0000
1000
0000
0010
1000
,
0001
0010
0100
1000
0001
0100
0010
2000
,
0000
0000
0001
0000
3001
0000
0000
0000
1000
0000
0100
1000
0000
0100
1000
0000
,
0100
0000
0010
0000
0001
0000
1000
0000
0001
0000
0100
0001
0000
0100
0001
0000
,
0100
0010
1000
0001
1000
0100
0001
0100
,
0010
0100
1000
0001
0100
0010
0100
1000
,
0100
0000
0010
0000
1000
0000
0100
0000
0010
0000
0001
0010
0000
0001
0010
0000
,
0100
0000
1000
0000
0010
0000
0100
0000
0010
0000
1000
0010
0000
1000
0010
0000
,
0100
0000
0001
0000
0010
0000
0100
0000
1000
0000
0100
0010
0000
0001
1000
0000
,
0010
0000
0100
0000
0001
0000
1000
0000
0001
0000
0100
0010
0000
1000
0001
0000
,
0100
0010
0100
0010
0100
0000
0000
0000
2002
0000
0000
0000
0000
0000
0000
0000
,
0000
0000
0000
0000
0000
0000
0000
3000
,
0000
0003
0000
0000
0000
0000
0000
0000
;

//---------------dance-single - ----------------
#NOTEDATA:;
#CHARTNAME:;
#STEPSTYPE:dance-single;
#DESCRIPTION:;
#CHARTSTYLE:;
#DIFFICULTY:Beginner;
#METER:2;
#RADARVALUES:0.154298,0.170270,0.020972,0.104862,0.000000,91.000000,2.000000,10.000000,0.000000,0.000000,0.000000,0.000000,0.000000,0.154298,0.170270,0.020972,0.104862,0.000000,91.000000,2.000000,10.000000,0.000000,0.000000,0.000000,0.000000,0.000000;
#CREDIT:;
#NOTES:
// measure 0
0000
0000
0000
0000
,  // measure 1
0000
0000
0000
0000
,  // measure 2
0000
0000
0000
0000
,  // measure 3
0000
0000
0000
0000
,  // measure 4
0010
0000
0100
0000
,  // measure 5
0001
0000
0001
0000
,  // measure 6
0010
0000
0100
0000
,  // measure 7
1000
0000
1000
0000
,  // measure 8
0010
0000
0100
0000
,  // measure 9
0001
0000
1000
0000
,  // measure 10
0100
0000
0010
0000
,  // measure 11
0001
0000
1000
0000
,  // measure 12
1000
0000
1000
0000
,  // measure 13
0100
0000
0000
0000
,  // measure 14
0001
0000
0001
0000
,  // measure 15
0100
0000
0000
0000
,  // measure 16
1000
0000
1000
0000
,  // measure 17
0010
0000
0000
0000
,  // measure 18
0001
0000
0001
0000
,  // measure 19
0010
0000
0000
0000
,  // measure 20
1000
1000
1000
0000
,  // measure 21
0100
0000
0010
0000
,  // measure 22
0001
0001
0001
0000
,  // measure 23
0100
0000
0010
0000
,  // measure 24
1000
0000
0100
0000
,  // measure 25
0010
0000
0001
0000
,  // measure 26
1000
0000
0001
0000
,  // measure 27
1001
0000
0000
0000
,  // measure 28
2000
0000
0000
3000
,  // measure 29
0002
0000
0000
0003
,  // measure 30
2000
0000
0000
3000
,  // measure 31
0002
0000
0000
0003
,  // measure 32
0200
0000
0000
0300
,  // measure 33
0020
0000
0000
0030
,  // measure 34
0200
0000
0000
0300
,  // measure 35
0020
0000
0000
0000
,  // measure 36
0000
0030
0010
0000
,  // measure 37
0100
0000
0001
0000
,  // measure 38
0001
0000
0010
0000
,  // measure 39
0100
0000
1000
0000
,  // measure 40
1000
0000
0010
0000
,  // measure 41
0100
0000
0001
0000
,  // measure 42
1000
0000
0100
0000
,  // measure 43
0010
0000
0001
0000
,  // measure 44
1000
0000
0010
0010
,  // measure 45
0010
0000
0100
0000
,  // measure 46
1000
0000
0010
0010
,  // measure 47
0010
0000
0100
0000
,  // measure 48
0001
0000
1000
1000
,  // measure 49
1000
0000
0001
0000
,  // measure 50
0100
0000
0010
0010
,  // measure 51
0010
0000
1000
0001
,  // measure 52
1000
0000
2002
0000
,  // measure 53
0000
0000
0000
0000
0000
0000
0000
0003
,  // measure 54
0000
3000
0000
0000
0000
0000
0000
0000
;

//---------------dance-single - ----------------
#NOTEDATA:;
#CHARTNAME:;
#STEPSTYPE:dance-single;
#DESCRIPTION:;
#CHARTSTYLE:;
#DIFFICULTY:Medium;
#METER:8;
#RADARVALUES:0.381999,0.368919,0.157294,0.104862,0.041945,230.000000,15.000000,10.000000,0.000000,0.000000,0.000000,0.000000,0.000000,0.381999,0.368919,0.157294,0.104862,0.041945,230.000000,15.000000,10.000000,0.000000,0.000000,0.000000,0.000000,0.000000;
#CREDIT:;
#NOTES:
0000
0000
0000
0000
,
0000
0000
0000
0000
,
0000
0000
0000
0000
,
0000
0000
0000
0000
,
1000
0000
0100
0000
0010
0100
1000
0000
,
0001
0000
0100
0000
0010
0100
0001
0000
,
1000
0000
0010
0000
0100
0010
1000
0000
,
0001
0000
0010
0000
0100
1000
0100
1000
,
0001
0000
0010
0000
0100
0010
0001
0000
,
1000
0000
0010
0000
0100
0010
1000
0000
,
0001
0000
0100
0000
0010
0100
0001
0000
,
1000
0000
0100
0000
0010
0001
0010
0001
,
1000
0000
0010
0100
0000
0001
0000
0101
,
0000
0001
1000
0010
0000
0010
0100
0000
,
0001
0000
0010
0100
0000
1000
0000
1100
,
0000
0010
0000
0101
0000
1000
0001
1000
,
0001
0000
0010
0100
0000
1000
0000
1100
,
0000
1000
0001
0010
0000
0010
0100
0010
,
0001
0000
0100
0010
0000
1010
0000
0101
,
0000
0010
0000
1100
0000
0001
1000
0001
,
1000
0100
0010
0001
1000
0000
0001
0100
,
0000
0100
0010
1000
0000
1000
0001
1000
,
0001
0000
0100
0010
0000
1000
0010
0100
,
0000
1001
0000
0110
0000
0001
1000
0001
,
1000
0000
0001
0100
0000
0100
0010
1000
,
0000
1000
0100
0010
0000
1001
0000
0000
,
1000
0000
1000
0100
0000
0010
0001
0100
,
0000
0001
0000
1100
0000
0000
0000
0000
,
2002
0000
0000
3003
,
0020
0000
0000
0000
0000
0000
0030
0100
,
0200
0000
0000
0300
,
0002
0000
0000
0000
0000
0000
0003
1000
,
2000
0000
0000
3000
,
0200
0000
0000
0000
0000
0000
0300
0010
,
0020
0000
0000
0030
,
1000
0000
0001
0000
1000
0001
1000
0001
,
0000
0000
0000
0000
1000
0000
0100
0010
,
0001
0000
0001
0000
0100
0010
1000
0000
,
0001
0000
1000
0000
0001
0000
0100
0010
,
1000
0000
1000
0000
0100
0010
0001
0000
,
1000
0000
0001
0000
1000
0000
0010
0100
,
0001
0000
0001
0000
0010
0100
1000
0000
,
0001
0000
1000
0000
0001
0000
0010
0100
,
1000
0000
1000
0000
0010
0100
0001
1000
,
0000
0000
0001
0000
1000
0000
0000
0000
1000
0000
0000
1000
0000
0000
1000
0000
,
0100
0000
0010
0000
0001
0000
0000
0000
0001
0000
0000
0001
0000
0000
0001
0000
,
0100
0000
0010
0000
1000
0000
0000
0000
1000
0000
0000
1000
0000
0000
1000
0000
,
0010
0000
0100
0000
0001
0000
0000
0000
0001
0000
0000
0001
0000
0000
0001
0000
,
0010
0000
0100
0000
0010
0000
0100
0000
1000
0000
0000
0001
0000
0000
0100
0000
,
0010
0000
0000
0000
1010
0000
0000
0000
1000
0000
0000
0001
0000
0000
0010
0000
,
0100
0000
0000
0000
1100
0000
0000
0000
1000
0000
0000
0100
0000
0000
0010
0000
,
0001
0000
1000
0000
0001
0000
0000
0000
0001
0000
0000
0100
0000
0000
0010
0000
,
1000
0001
1000
0000
2002
0000
0000
0000
,
0000
0000
0000
0000
0000
0000
0000
3000
,
0000
0003
0000
0000
0000
0000
0000
0000
;

//---------------dance-single - ----------------
#NOTEDATA:;
#CHARTNAME:;
#STEPSTYPE:dance-single;
#DESCRIPTION:;
#CHARTSTYLE:;
#DIFFICULTY:Easy;
#METER:5;
#RADARVALUES:0.280133,0.255406,0.020972,0.146807,0.000000,171.000000,2.000000,14.000000,0.000000,0.000000,0.000000,0.000000,0.000000,0.280133,0.255406,0.020972,0.146807,0.000000,171.000000,2.000000,14.000000,0.000000,0.000000,0.000000,0.000000,0.000000;
#CREDIT:;
#NOTES:
0000
0000
0000
0000
,
0000
0000
0000
0000
,
0000
0000
0000
0000
,
0000
0000
0000
0000
,
1000
1000
0100
0000
,
0010
0010
0001
0000
,
0001
0001
0100
0000
,
0100
0100
0010
1000
,
0001
0001
0100
0000
,
0010
0010
1000
0000
,
1000
1000
0100
0000
,
0100
0100
0010
0001
,
1000
0100
0001
0100
,
2000
3000
2000
3000
,
0001
0100
1000
0100
,
0002
0003
0002
0003
,
1000
0010
0001
0010
,
2000
3000
2000
3000
,
0001
0010
1000
0010
,
0002
0003
0002
0003
,
1000
0010
0100
0001
,
0100
1000
0100
0001
,
1000
0100
0010
0001
,
0010
1000
0010
0000
,
0001
0100
0010
0100
,
1000
0100
0010
1000
,
1000
0100
0001
0100
,
0020
0030
0002
0003
,
1000
0100
1000
0001
,
1000
0010
1000
0001
,
0001
0100
0001
1000
,
0001
0010
0001
1000
,
1000
0010
1000
0001
,
1000
0100
1000
0001
,
0001
1000
0010
0100
,
0001
1000
0100
0010
,
2002
3003
1000
1000
,
0100
0000
0010
0010
,
0001
0000
0001
0001
,
0100
0000
0100
0100
,
0010
1000
0001
0001
,
0100
0000
0010
0010
,
1000
0000
1000
1000
,
0100
0000
0100
0100
,
0010
0001
1000
0010
,
0001
0010
0100
0001
,
0100
1000
0100
0010
,
1000
0010
0100
0001
,
1000
1000
0001
0100
,
1000
0100
0010
1000
,
0010
0001
0010
0100
,
0001
0100
0010
1000
,
0001
1000
2002
0000
,
0000
0000
0000
0000
0000
0000
0000
3000
,
0000
0003
0000
0000
0000
0000
0000
0000
;
