#VERSION:0.81;
#TITLE:ALL RIGHT NIPPON;
#SUBTITLE:;
#ARTIST:Jimmy Bravo;
#TITLETRANSLIT:;
#SUBTITLETRANSLIT:;
#ARTISTTRANSLIT:;
#GENRE:;
#ORIGIN:;
#CREDIT:;
#BANNER:allrightnippon.png;
#BACKGROUND:allrightnippon-bg.png;
#PREVIEWVID:;
#JACKET:allrightnippon-jacket.png;
#CDIMAGE:;
#DISCIMAGE:;
#LYRICSPATH:;
#CDTITLE:;
#MUSIC:allrightnippon.mp3;
#OFFSET:-3.100000;
#SAMPLESTART:61.580002;
#SAMPLELENGTH:12.000000;
#SELECTABLE:YES;
#BPMS:0.000=160.000;
#STOPS:;
#DELAYS:;
#WARPS:;
#TIMESIGNATURES:0.000=4=4;
#TICKCOUNTS:0.000=4;
#COMBOS:0.000=1;
#SPEEDS:0.000=1.000=0.000=0;
#SCROLLS:0.000=1.000;
#FAKES:;
#LABELS:0.000=Song Start;
#BGCHANGES:;
#KEYSOUNDS:;
#ATTACKS:
;

//---------------dance-single - ----------------
#NOTEDATA:;
#CHARTNAME:;
#STEPSTYPE:dance-single;
#DESCRIPTION:;
#CHARTSTYLE:;
#DIFFICULTY:Challenge;
#METER:16;
#RADARVALUES:0.974465,0.983618,1.000000,0.215614,0.784052,558.000000,116.000000,22.000000,0.000000,0.000000,0.000000,0.000000,0.000000,0.974465,0.983618,1.000000,0.215614,0.784052,558.000000,116.000000,22.000000,0.000000,0.000000,0.000000,0.000000,0.000000;
#CREDIT:;
#NOTES:
0000
0000
0000
0000
,
0000
0000
0000
0000
,
0000
0000
1001
0110
0000
0000
0000
1100
,
0000
0011
0000
0000
0000
0100
0010
1001
,
0000
0000
0000
0010
0000
0000
0000
0000
,
1001
0000
0000
0100
0000
0000
0000
0000
,
1000
0100
0010
0001
1000
0100
0010
0100
1000
0001
0100
0010
1000
0010
0100
0001
,
0010
0100
1000
0100
0010
0001
0100
0010
1000
0001
2000
0000
0001
0000
3000
0000
,
0001
1000
0001
0100
0010
1000
0010
0100
0010
1000
0010
0100
0001
0010
0100
1000
,
0100
0010
0001
0100
0010
1000
0010
0100
0001
0010
0100
1000
0010
0000
0110
0000
,
2001
0000
0000
0000
3100
0000
0100
0010
0002
0000
0000
0000
0103
0000
0000
0000
,
1000
0000
0001
0100
0000
0100
0010
0000
1000
0010
0100
0010
1000
0000
0002
0000
,
0000
0000
1003
0100
0010
0100
1000
0001
0100
0010
0100
0001
1000
0100
0010
0001
,
0011
0000
1100
0000
1001
0110
0000
0000
,
1000
0001
0000
1001
0000
1100
0000
1001
0000
0010
0100
0000
0001
0100
0010
1000
,
0001
0010
0100
0010
0001
0100
0010
0100
0002
0000
1000
0000
0003
0000
1000
0000
,
0001
1000
0000
1001
0000
0101
0000
1001
0000
0010
0100
0000
1000
0100
0010
0001
,
1000
0010
0100
0001
1000
0001
0100
0010
2000
0000
0001
0000
3000
0000
0001
0000
,
1000
0001
0000
0011
0000
1001
0000
1100
0000
1000
0001
0000
1000
0001
0100
0010
,
1000
0100
0010
0100
1000
0001
0100
0010
0200
0000
0001
0000
0300
0000
0001
0000
,
0101
0000
0000
0000
0110
0000
0000
0000
1100
0000
0110
0000
0011
0000
0001
0100
,
0010
1000
0100
0010
0001
0100
0010
1000
0100
0010
0001
1000
0020
0000
0000
0000
,
0130
0000
0001
0100
0000
0010
1000
0000
0100
0000
0010
0000
0001
0000
1000
0000
,
0100
0000
1000
0100
0000
0010
0001
0000
0100
0000
0010
0000
1000
0000
0001
0000
,
1000
0100
0001
0100
1000
0010
0100
0001
,
1000
0100
0010
0001
1000
0010
0100
0001
1000
0010
1000
0200
0000
0000
1000
0000
,
0310
0000
0001
0010
0000
0100
1000
0000
0010
0000
0100
0000
0001
0000
1000
0000
,
0010
0000
1000
0010
0000
0100
0001
0000
0010
0000
0100
0000
1000
0000
0001
0000
,
1000
0100
1000
0001
0100
0001
1000
0010
,
1000
0100
0010
0100
0010
0001
0100
0001
0101
0000
1010
0000
0000
0000
0110
0000
,
1001
1000
0100
1000
0010
1000
0001
1000
,
1001
0001
0100
0001
0010
0001
1000
0001
,
1001
1000
0100
1000
0010
1000
0001
1000
,
1001
0000
0001
0000
0101
0000
0100
0000
0110
0000
1000
0010
0100
0001
1000
0001
,
1001
1000
0010
1000
0001
0100
0001
1000
,
1001
0001
0010
0001
1000
0100
1000
0001
,
1000
0001
0000
1001
0000
0000
0110
0000
0102
0000
1000
0000
0010
0000
1003
0000
,
0001
1000
0000
1001
0000
0000
0110
0000
1000
0100
0010
0001
1000
0010
1010
0000
,
0000
0101
0000
2002
0000
0000
3003
0000
,
2001
0000
0010
0000
3100
0000
1010
0000
0000
0000
1000
0010
1010
0000
0000
0000
,
1002
0000
0010
0000
0103
0000
0011
0000
1000
0000
0100
0000
0010
0001
0100
0010
,
1000
0100
0001
0100
1000
0001
0100
0001
,
1100
0000
0000
0101
0000
0000
1100
0000
1001
0000
0110
0000
1000
0001
1000
0001
,
2001
0000
0100
0000
3010
0000
1100
0000
0000
0000
1000
0100
1100
0000
0000
0000
,
1002
0000
0100
0000
0013
0000
0101
0000
1000
0000
0010
0000
0100
0001
0010
0100
,
1000
0010
0001
0010
1000
0001
0010
0001
,
1010
0000
0000
0011
0000
0000
1010
0000
1001
0000
0110
0000
1001
0000
0000
0000
,
2001
0000
0100
0000
3010
0000
1001
0000
0000
0000
0100
0010
0110
0000
0000
0000
,
1002
0000
0100
0000
0013
0000
1001
0000
0100
0000
0010
0000
1000
0100
0010
0001
,
0100
0001
0010
0001
0100
0010
1000
0100
,
1100
0000
0000
1001
0000
0000
0011
0000
0110
0000
1001
0000
0100
0010
1000
0001
,
2001
0000
0100
0000
3010
0000
1001
0000
0000
0000
0100
0010
0110
0000
0000
0000
,
1001
0000
0000
0110
0000
0000
1001
0000
0100
0000
0010
0000
0001
0100
0010
1000
,
0100
1000
0010
0100
0001
0010
0000
0001
,
1001
0101
1010
0011
1100
1001
0110
0000
,
1000
0100
0000
1100
0000
1001
0000
0011
0000
0010
0100
0000
1000
0100
0010
0001
,
1000
0010
0100
0001
1000
0100
0010
0001
2000
0000
0001
0000
3000
0000
0001
0000
,
0001
0100
0000
0101
0000
1001
0000
1010
0000
0010
0100
0000
0001
0100
0010
1000
,
0001
0010
0100
0010
0001
0100
0010
1000
0002
0000
1000
0000
0003
0000
1000
0000
,
1000
0001
0000
0101
0000
1010
0000
0101
0000
1000
0100
0000
0010
0001
0100
0001
,
0010
0100
1000
0100
0010
0001
1000
0001
0020
0000
0100
0000
0030
0000
0100
0000
,
0100
1000
0010
0100
0001
1000
0001
1000
,
1001
1100
0011
1010
0101
1001
0110
0000
,
1001
0000
1001
0000
0110
1001
0000
0000
,
1001
0101
1010
0011
1100
1001
0110
0000
;

//---------------dance-single - ----------------
#NOTEDATA:;
#CHARTNAME:;
#STEPSTYPE:dance-single;
#DESCRIPTION:;
#CHARTSTYLE:;
#DIFFICULTY:Medium;
#METER:8;
#RADARVALUES:0.350023,0.412485,0.294020,0.029402,0.000000,217.000000,30.000000,3.000000,0.000000,0.000000,0.000000,0.000000,0.000000,0.350023,0.412485,0.294020,0.029402,0.000000,217.000000,30.000000,3.000000,0.000000,0.000000,0.000000,0.000000,0.000000;
#CREDIT:;
#NOTES:
0000
0000
0000
0000
,
0000
0000
0000
0000
,
0000
0000
0000
0000
,
0000
0000
0000
0000
0000
0000
0000
1001
,
0000
0000
0000
0010
0000
0000
0000
0000
,
1001
0000
0000
0100
0000
0000
0000
0000
,
1000
0100
0010
0001
,
1000
0001
2000
3000
,
0001
0100
0010
1000
,
0001
1000
0001
0100
,
0002
0003
2000
3000
,
1000
0100
1000
0010
,
0100
0001
0010
0001
,
1001
1001
1001
0000
,
1001
0100
0010
1001
,
1000
0001
0100
0000
,
1001
0100
0010
1001
,
0001
1000
0010
0000
,
1001
0100
0010
1001
,
1000
0100
0010
0000
,
1001
1000
0001
1000
,
1001
0000
0100
0000
0010
0010
0010
0000
,
1000
0000
0000
1000
0000
0100
0010
0000
,
0001
0000
0000
0001
0000
0100
0010
0000
,
1000
0001
0100
0001
,
0010
0100
1000
0100
,
1000
0000
0000
1000
0000
0010
0100
0000
,
0001
0000
0000
0001
0000
0010
0100
0000
,
1000
0001
0100
0010
,
0001
1000
0000
0000
1000
0001
0000
0000
,
1000
0100
0001
0100
,
1000
0100
0010
0001
,
1000
0001
0100
0010
,
1000
0001
1000
0001
,
1000
0010
0001
0010
,
1000
0010
0100
0001
,
1000
0001
0010
0100
,
1000
0000
0100
0000
0010
0000
0000
1100
,
0000
0101
0000
1001
0000
0000
0000
0000
,
1001
0000
0000
0100
0000
0000
0000
0000
,
1001
0000
0000
0010
0000
0000
0000
0000
,
1000
0100
0001
0100
,
1000
0010
0001
0000
,
1001
0000
0000
0100
0000
0000
0000
0000
,
1001
0000
0000
0010
0000
0000
0000
0000
,
1000
0001
0100
0010
,
1000
0000
0010
0000
0100
0100
0100
0000
,
1001
0000
0000
0100
0000
0000
0000
0000
,
1001
0000
0000
0010
0000
0000
0000
0000
,
1000
0010
0001
0010
,
1000
0100
0001
0000
,
1001
0000
0000
0100
0000
0000
0000
0000
,
1001
0000
0000
0010
0000
0000
0000
0000
,
1000
0001
0100
0010
,
1000
0001
1000
0001
1000
0001
1000
0000
,
1001
0100
0010
1001
,
1000
0001
0100
0000
,
1001
0100
0010
1001
,
0001
1000
0010
0000
,
1001
0100
0010
1001
,
1000
0100
0010
0000
,
1000
0001
0100
0010
,
1000
0001
1000
0001
1000
0001
1000
0000
,
0000
0000
0000
0000
,
1000
0001
1000
0001
1000
0001
1000
0000
;

//---------------dance-single - ----------------
#NOTEDATA:;
#CHARTNAME:;
#STEPSTYPE:dance-single;
#DESCRIPTION:;
#CHARTSTYLE:;
#DIFFICULTY:Hard;
#METER:12;
#RADARVALUES:0.680445,0.634592,0.617441,0.480232,0.240116,374.000000,63.000000,49.000000,0.000000,0.000000,0.000000,0.000000,0.000000,0.680445,0.634592,0.617441,0.480232,0.240116,374.000000,63.000000,49.000000,0.000000,0.000000,0.000000,0.000000,0.000000;
#CREDIT:;
#NOTES:
0000
0000
0000
0000
,
0000
0000
0000
0000
,
0000
0000
1001
0110
0000
0000
0000
1100
,
0000
0011
0000
0000
0000
0100
0010
2002
,
0000
0000
3003
0220
0000
0000
0330
0000
,
2200
0000
3300
0022
0000
0000
0033
0000
,
1000
0100
0010
0100
1000
0010
0100
0001
,
0010
0000
0100
0000
0010
0000
0001
0000
0100
0020
0100
0000
1000
0000
0030
0000
,
0001
0100
0010
1000
0010
1000
0100
0010
,
0001
0000
0100
0000
0010
0000
1000
0000
0001
0100
0010
1000
0200
0000
0000
0000
,
2300
0000
0000
0000
3100
0000
0010
0001
0020
0000
0000
0000
0130
0000
1000
0000
,
0001
0000
1000
0001
0000
1000
0001
0000
1000
0000
0001
0000
0100
0000
0020
0000
,
0000
1030
0100
0010
0001
1000
0010
0100
,
1001
0000
0110
0000
1100
0011
0000
0000
,
1000
0001
0000
0100
0000
0001
0000
0010
0000
0001
0100
0000
0002
0000
0000
0000
,
1003
0100
0010
0100
1000
0100
0010
0000
,
0001
1000
0000
0100
0000
1000
0000
0010
0000
1000
0100
0000
2000
0000
0000
0000
,
3001
0100
0010
0100
0001
0100
0010
0000
,
1000
0001
0000
0100
0000
0010
0000
1000
0000
0001
0010
0000
0200
0000
0000
0000
,
1300
0100
0010
0001
1000
0001
0000
1001
,
0110
0000
1001
0000
1001
1001
0110
0000
,
1100
0000
0000
1100
0000
0000
1001
0000
0010
0000
0100
0000
1001
0000
0000
0000
,
1000
0000
0100
1000
0000
1000
0100
0000
0010
0000
0001
0000
0100
0000
0000
0000
,
0001
0000
0100
0001
0000
0001
0100
0000
0010
0000
1000
0000
0100
0000
0000
0000
,
1000
0100
0010
0001
1000
0010
0000
0100
,
0001
0010
0100
0010
0001
0100
0010
1000
,
0001
0000
0010
0001
0000
0001
0010
0000
0100
0000
1000
0000
0010
0000
0000
0000
,
1000
0000
0010
1000
0000
1000
0010
0000
0100
0000
0001
0000
0010
0000
0000
0000
,
0001
0100
0010
1000
0001
0010
0000
0100
,
1001
0110
0000
0000
1100
0011
0000
0000
,
1001
0000
1000
0100
1000
0001
1000
0000
,
1001
0000
0001
0100
0001
1000
0001
0000
,
1001
0000
1000
0010
1000
0001
1000
0000
,
1001
0000
1100
0000
1000
0100
0010
0000
,
1001
0000
1000
0010
1000
0001
0100
0000
,
1001
0000
0001
0010
0001
1000
0100
0000
,
1001
0000
1000
0100
0010
0001
0010
0000
,
1001
0000
0001
0100
0010
1000
0010
1010
,
0000
0110
0000
1010
0000
0000
0000
0000
,
2002
0000
3003
0220
0000
0000
0330
0000
,
2200
0000
3300
0022
0000
0000
0033
0000
,
1000
0001
0100
0010
1000
0100
0010
0100
,
1000
0000
0000
0001
0000
0000
0100
0000
0010
0000
0100
0000
0001
0000
0000
0000
,
2002
0000
3003
0220
0000
0000
0330
0000
,
2200
0000
3300
0022
0000
0000
0033
0000
,
1001
0000
0110
0000
1000
0100
1000
0000
,
0001
0000
0000
0100
0000
0000
0010
0000
0100
0000
0001
0000
0101
0000
0000
0000
,
2002
0000
3003
0220
0000
0000
0330
0000
,
2200
0000
3300
0022
0000
0000
0033
0000
,
1000
0001
0100
0010
1000
0100
0010
0001
,
1000
0000
0000
0001
0000
0000
0010
0000
0100
0000
1000
0000
1100
0000
0000
0000
,
2002
0000
3003
0220
0000
0000
0330
0000
,
1100
0000
0000
0011
0000
0000
0220
0000
0000
0000
0000
0000
0330
0000
0000
0000
,
1000
0001
0100
0010
1000
0001
0000
0001
,
1000
0100
0001
0100
1000
0010
0001
0000
,
1000
0001
0000
0100
0000
0001
0000
0010
0000
0001
0100
0000
0002
0000
0000
0000
,
1003
0100
0010
0100
1000
0100
0010
0000
,
0001
1000
0000
0100
0000
1000
0000
0010
0000
1000
0100
0000
2000
0000
0000
0000
,
3001
0100
0010
0100
0001
0100
0010
0000
,
1000
0001
0000
0100
0000
0010
0000
1000
0000
0001
0010
0000
0200
0000
0000
0000
,
1300
0100
0010
0001
1000
0001
0100
0000
,
1000
0001
0100
0010
1000
0001
0000
0001
,
1000
0100
0001
0100
1000
0010
0001
0000
,
1001
0000
0110
0000
1100
0011
0000
0000
,
0001
0100
1000
0100
0001
0010
1000
0000
;

//---------------dance-single - ----------------
#NOTEDATA:;
#CHARTNAME:;
#STEPSTYPE:dance-single;
#DESCRIPTION:;
#CHARTSTYLE:;
#DIFFICULTY:Easy;
#METER:4;
#RADARVALUES:0.253417,0.285567,0.235216,0.019601,0.000000,155.000000,24.000000,2.000000,0.000000,0.000000,0.000000,0.000000,0.000000,0.253417,0.285567,0.235216,0.019601,0.000000,155.000000,24.000000,2.000000,0.000000,0.000000,0.000000,0.000000,0.000000;
#CREDIT:;
#NOTES:
0000
0000
0000
0000
,
0000
0000
0000
0000
,
0000
0000
0000
0000
0000
0000
0000
1001
,
0000
1001
0000
0000
0000
0000
0000
1001
,
0000
0000
0000
0010
0000
0000
0000
0000
,
1001
0000
0000
0100
0000
0000
0000
0000
,
1000
0000
0100
0000
,
0010
0001
0100
0000
,
0001
0000
0100
0000
,
0010
1000
0100
0010
,
0002
0003
2000
3000
,
0100
0000
0010
0000
,
0001
0100
0010
1000
,
0100
0100
0100
0000
,
1001
0000
1001
0000
,
1000
1000
1000
0000
,
1001
0000
1001
0000
,
0001
0001
0001
0000
,
1001
0000
1001
0000
,
1000
0001
1000
0000
,
1001
0000
1001
0000
,
1000
0100
0010
0001
,
1000
0000
1000
0000
,
0001
0000
0001
0000
,
1000
0000
0100
0000
,
0010
0001
0100
0000
,
0001
0000
0001
0000
,
1000
0000
1000
0000
,
0001
0000
0100
0000
,
1001
0000
1001
0000
,
1000
0000
0001
0000
,
0100
0000
0100
0000
,
0001
0000
1000
0000
,
0010
0010
0010
0000
,
1000
0000
0001
0000
,
0010
0000
0010
0000
,
0001
0000
1000
0000
,
0010
0000
0000
0000
0010
0000
0000
1000
,
0000
1000
0000
1000
0000
0000
0000
0000
,
1000
0000
0000
0001
0000
0000
0000
0000
,
0001
0000
0000
1000
0000
0000
0000
0000
,
1000
0000
0100
0000
,
0001
0100
0001
0000
,
0001
0000
0000
1000
0000
0000
0000
0000
,
1000
0000
0000
0001
0000
0000
0000
0000
,
1000
0001
1000
0001
,
0100
0010
1000
0001
,
1000
0000
0000
0100
0000
0000
0000
0000
,
0010
0000
0000
0001
0000
0000
0000
0000
,
0001
0000
0010
0000
,
1000
0010
1000
0000
,
0001
0000
0000
0100
0000
0000
0000
0000
,
0010
0000
0000
1001
0000
0000
0000
0000
,
1000
0001
1000
0001
,
1000
0100
0010
1001
,
1001
0000
1001
0000
,
1000
0100
1000
0000
,
1001
0000
1001
0000
,
0001
0100
0001
0000
,
1001
0000
1001
0000
,
1000
0010
1000
0000
,
1000
0001
1000
0001
,
1000
0100
0010
1001
,
0000
0000
0000
0000
,
0001
0100
0010
1001
;

//---------------dance-single - ----------------
#NOTEDATA:;
#CHARTNAME:;
#STEPSTYPE:dance-single;
#DESCRIPTION:;
#CHARTSTYLE:;
#DIFFICULTY:Beginner;
#METER:2;
#RADARVALUES:0.151210,0.158648,0.107807,0.000000,0.000000,97.000000,11.000000,0.000000,0.000000,0.000000,0.000000,0.000000,0.000000,0.151210,0.158648,0.107807,0.000000,0.000000,97.000000,11.000000,0.000000,0.000000,0.000000,0.000000,0.000000,0.000000;
#CREDIT:;
#NOTES:
// measure 0
0000
0000
0000
0000
,  // measure 1
0000
0000
0000
0000
,  // measure 2
0000
0000
0000
0000
,  // measure 3
0000
0000
0000
0000
,  // measure 4
0000
0000
0000
0000
,  // measure 5
0000
0000
0000
0000
,  // measure 6
1000
0000
1000
0000
,  // measure 7
0001
0000
0000
0000
,  // measure 8
0001
0000
0001
0000
,  // measure 9
1000
0000
0000
0000
,  // measure 10
1000
0000
1000
0000
,  // measure 11
0001
0000
0000
0000
,  // measure 12
0001
0000
0001
0000
,  // measure 13
1000
0000
0000
0000
,  // measure 14
1000
0000
1000
0000
,  // measure 15
0100
0000
0100
0000
,  // measure 16
0001
0000
0001
0000
,  // measure 17
0100
0000
0100
0000
,  // measure 18
1000
0000
1000
0000
,  // measure 19
0100
0000
0100
0000
,  // measure 20
0001
0000
0001
0000
,  // measure 21
0100
0000
0010
0000
,  // measure 22
1000
0000
0000
0000
,  // measure 23
0001
0000
0000
0000
,  // measure 24
0100
0000
0000
0000
,  // measure 25
0010
0000
0010
0000
,  // measure 26
1000
0000
0000
0000
,  // measure 27
0001
0000
0000
0000
,  // measure 28
0010
0000
0010
0000
,  // measure 29
0100
0000
1001
0000
,  // measure 30
1000
0000
0001
0000
,  // measure 31
1000
0000
0001
0000
,  // measure 32
0100
0000
0100
0000
,  // measure 33
0001
0000
1000
0000
,  // measure 34
0001
0000
1000
0000
,  // measure 35
0001
0000
1000
0000
,  // measure 36
0100
0000
0100
0000
,  // measure 37
0010
0000
0010
0000
,  // measure 38
0000
0000
0000
0000
,  // measure 39
1001
0000
0000
0000
,  // measure 40
1001
0000
0000
0000
,  // measure 41
1000
0000
1000
0000
,  // measure 42
0001
0000
0001
0000
,  // measure 43
1001
0000
0000
0000
,  // measure 44
1001
0000
0000
0000
,  // measure 45
1000
0000
0100
0000
,  // measure 46
0010
0000
0001
0000
,  // measure 47
1001
0000
0000
0000
,  // measure 48
1001
0000
0000
0000
,  // measure 49
1000
0000
1000
0000
,  // measure 50
0001
0000
0001
0000
,  // measure 51
1001
0000
0000
0000
,  // measure 52
1001
0000
0000
0000
,  // measure 53
1000
0000
0010
0000
,  // measure 54
0100
0000
0001
0000
,  // measure 55
1000
0000
1000
0000
,  // measure 56
0100
0000
0100
0000
,  // measure 57
0001
0000
0001
0000
,  // measure 58
0010
0000
0010
0000
,  // measure 59
1000
0000
1000
0000
,  // measure 60
0100
0000
0100
0000
,  // measure 61
0001
0000
1000
0000
,  // measure 62
0010
0000
0000
1001
,  // measure 63
0000
0000
0000
0000
,  // measure 64
0100
0000
0000
1001
;
