#TITLE:1;
#SUBTITLE:;
#ARTIST:Joy Zipper;
#TITLETRANSLIT:;
#SUBTITLETRANSLIT:;
#ARTISTTRANSLIT:;
#GENRE:;
#CREDIT:;
#MUSIC:1.ogg;
#BANNER:1-bn.png;
#BACKGROUND:1-bg.png;
#CDTITLE:;
#SAMPLESTART:49.412;
#SAMPLELENGTH:13.109;
#SELECTABLE:YES;
#OFFSET:0.000;
#BPMS:0.000=119.000
,211.000=100.000
;
#STOPS:;
#BGCHANGES:;
#FGCHANGES:;

//--------------- dance-single - OrangeRight ----------------
#NOTES:
     dance-single:
     OrangeRight:
     Beginner:
     1:
     0,0,0,0,0:
0000
0000
0000
0000
,
0000
0000
0000
0000
,
0000
0000
0000
0000
,
0000
0000
0000
0000
,
0000
0000
0000
0000
,
1000
0000
0000
0000
,
0001
0000
0000
0000
,
1000
0000
1000
0000
,
1000
0000
0000
0000
,
0001
0000
0000
0000
,
1000
0000
0000
0000
,
0001
0000
0001
0000
,
0001
0000
0000
0000
,
1000
0000
0000
0000
,
1000
0000
0000
0000
,
0001
0000
0000
0000
,
0001
0000
0000
0000
,
1000
0000
0000
0000
,
0001
0000
0001
0000
,
0001
0000
0000
0000
,
1000
0000
1000
0000
,
1000
0000
0000
0000
,
0001
0000
0001
0000
,
0001
0000
0000
0000
,
1000
0000
0000
0000
,
0100
0000
0000
0000
,
0010
0000
0000
0000
,
0100
0000
0000
0000
,
0010
0000
0000
0000
,
0100
0000
0000
0000
,
1000
0000
0000
0000
,
0001
0000
0000
0000
,
0001
0000
0000
0000
,
1000
0000
1000
0000
,
0001
0000
0001
0000
,
1000
0000
0001
0000
,
1000
0000
0000
0000
,
0001
0000
0001
0000
,
1000
0000
1000
0000
,
0001
0000
1000
0000
,
0001
0000
0000
0000
,
0100
0000
0000
0000
,
0010
0000
0000
0000
,
0100
0000
0000
0000
,
0010
0000
0000
0000
,
0100
0000
0000
0000
,
0001
0000
0000
0000
,
1000
0000
0000
0000
,
0100
0000
0000
0000
,
0010
0000
0010
0000
,
0100
0000
0100
0000
,
1000
0000
0001
0000
,
1000
0000
0000
0000
,
1001
0000
0000
0000
;

//--------------- dance-single - OrangeRight ----------------
#NOTES:
     dance-single:
     OrangeRight:
     Easy:
     3:
     0,0,0,0,0:
0000
0000
0000
0000
,
0000
0000
0000
0000
,
0000
0000
0000
0000
,
1000
1000
0001
0001
,
1000
0001
1000
0001
,
1000
0000
1001
0000
,
0001
0100
0001
0000
,
0001
0000
1001
0000
,
1000
0100
1000
0000
,
1000
0000
1001
0000
,
1000
0100
0010
0000
,
0001
0000
1001
0000
,
0001
0100
0010
0000
,
2000
0000
3000
0000
,
0100
0000
0010
0000
,
0001
0001
1000
1000
,
0001
1000
0001
1000
,
0001
0000
1001
0000
,
1000
0010
1000
0000
,
1000
0000
1001
0000
,
0001
0010
0001
0000
,
1000
0010
0100
0000
,
0001
0010
0100
0000
,
1000
0100
0010
0000
,
0001
0100
0010
0000
,
1000
1000
1000
1000
,
1000
0000
1000
1000
0000
0000
0000
0000
,
0001
0001
0001
0001
,
0001
0000
0001
0001
0000
0000
0000
0000
,
2000
0000
3002
0000
,
0203
0000
0320
0000
,
1030
1000
0001
0001
,
1000
0001
1000
0001
,
2000
0000
3200
0000
,
0320
0000
0032
0000
,
0203
0000
0320
0000
,
2030
0000
3002
0000
,
2003
0000
3020
0000
,
0230
0000
0302
0000
,
2003
0000
3002
0000
,
2000
0000
0000
3003
,
1000
1000
1000
1000
,
1000
0000
1000
1000
0000
0000
0000
0000
,
0001
0001
0001
0001
,
0001
0000
0001
0001
0000
0000
0000
0000
,
2000
0000
3002
0000
,
0203
0000
0320
0000
,
2030
0000
3020
0000
,
0230
0000
0302
0000
,
1003
1000
0100
0100
,
0010
0000
0001
1000
0000
0000
1001
0000
,
1000
0001
1000
0001
,
1000
0001
1000
0001
1000
0001
1000
0000
,
1001
0000
0000
0000
;

//--------------- dance-single - OrangeRight ----------------
#NOTES:
     dance-single:
     OrangeRight:
     Medium:
     6:
     0,0,0,0,0:
0000
0000
0000
0000
,
0000
0000
0000
0000
,
0000
0000
0000
0000
,
1000
0001
0100
0010
,
1000
0001
1000
0001
1000
0001
1000
0000
,
1000
0000
1000
0000
0100
1000
0100
0000
,
1000
0000
1000
0000
0001
1000
0001
0000
,
1000
0010
0100
0001
,
0001
0010
0100
1000
,
0001
0000
0001
0000
0100
0001
0100
0000
,
0001
0000
0001
0000
1000
0001
1000
0000
,
0001
0000
0001
0000
0010
0001
0010
0000
,
0001
0000
0100
0000
0010
1000
0001
0000
,
2001
0001
0001
3001
,
1002
1000
1000
1003
,
0100
0010
1000
0001
,
0100
0010
0100
0010
0100
0010
0100
0000
,
0001
0000
0001
0000
0100
0001
0100
0000
,
0001
0000
0001
0000
1000
0001
1000
0000
,
0001
0100
0010
1000
,
1000
0100
0010
0001
,
1000
0000
0100
1000
0100
1000
0100
0000
,
0010
0000
0001
0010
0001
0010
0001
0000
,
1000
0000
0001
0000
0100
0010
0000
1001
,
0000
0000
0000
0000
1000
0001
0000
1001
,
0000
1000
0100
0100
,
0010
0000
0001
0100
0010
0000
1000
0000
,
0001
0001
0100
0100
,
0010
0000
1000
0100
0010
0000
0001
0000
,
2000
0001
3002
1000
,
1003
0100
0010
0001
0000
0000
1001
0000
,
1000
0001
0100
0010
,
1000
0001
1000
0001
1000
0001
1000
0000
,
2000
3001
0002
1003
,
2000
3010
0200
0301
,
0002
1003
2000
3001
,
0002
0103
0020
1030
,
2000
3100
0002
0103
,
2000
3010
0002
0013
,
2000
3100
0020
0031
,
0002
0000
0103
0000
0010
1000
0010
0000
,
1000
0100
0010
0001
,
0100
0000
0100
0010
1000
0000
0001
0000
,
0001
0100
0010
1000
,
0100
0000
0100
0010
0001
0000
1000
0000
,
2000
3100
0020
0031
,
1000
0100
0010
0001
0000
0000
1001
0000
,
0002
0103
0020
1030
,
0001
0100
0010
1000
0000
0000
1001
0000
,
1000
1001
1001
1001
,
1001
0000
0100
0010
0100
0000
1001
0000
,
1000
0001
1000
0001
1000
0001
1000
0001
,
0100
0010
0100
0010
0100
0010
0100
0010
,
1001
0000
0000
0000
;

//--------------- dance-single - OrangeRight ----------------
#NOTES:
     dance-single:
     OrangeRight:
     Hard:
     10:
     0,0,0,0,0:
0000
0000
0000
0000
,
0000
0000
0000
0000
,
0000
0000
0000
0000
,
1000
0001
1000
0001
1000
0001
1000
0001
,
0100
0010
0100
0010
0100
0010
0100
0010
,
1000
0000
0100
0010
0001
0000
0100
0000
,
0101
0000
0100
0010
1000
0000
0100
0000
,
1100
0000
0001
1000
0001
0010
0100
0100
,
1000
0000
0010
0010
0100
0000
0110
0000
,
0001
0000
0100
0010
1000
0000
0100
0000
,
1100
0000
0100
0010
0001
0000
0100
0000
,
0101
0000
0100
0010
1000
0100
0010
0001
,
0100
0000
0001
0100
0010
1000
0100
1000
,
0010
1010
0100
0101
,
0010
0011
1000
1100
,
1000
0001
1000
0001
0100
0010
0100
0010
,
1000
0100
0010
0001
0010
0100
1000
0001
,
1000
0000
0001
0100
0001
0000
0001
1000
,
0001
0000
0001
0010
0100
1000
0001
1000
,
0001
0000
1000
0100
1000
0000
1000
0001
,
1000
0000
1000
0010
0100
0001
1000
0001
,
1000
0000
0100
0010
0001
0010
0100
0000
,
1001
0000
0001
0100
0010
1000
0010
0100
,
0001
0000
1001
0000
1000
0010
0000
0100
,
0000
0001
1000
0000
1000
0001
0000
1001
,
0000
1001
1001
0110
,
0110
0000
1001
0110
0000
0000
0001
1000
,
0001
1001
1001
0110
,
0110
0000
1001
0110
0000
0000
1000
0001
,
0102
1003
2100
3001
,
1000
0001
0100
0010
1000
0001
1001
0000
,
1000
0001
1000
0001
0100
0010
0100
0010
,
1000
0010
0100
0001
0010
0100
1000
0001
,
2000
0100
3002
0100
,
2003
0000
0000
0000
0010
0000
0000
0000
3001
0000
0000
0100
0000
0000
0010
0000
,
2000
0010
3002
0010
,
2003
0100
3002
0100
,
2003
0010
3020
0100
,
0230
0000
0000
0000
0001
0000
0000
0000
0301
0000
0000
1000
0000
0000
0010
0000
,
0200
0001
0320
1000
,
2030
0000
0100
0000
3001
0010
0100
1000
,
0001
1001
1001
0110
,
0110
0000
1001
0110
0000
0000
1000
0001
,
1000
1001
1001
0110
,
0110
0000
1001
0110
0000
0000
1000
0100
,
2100
3001
0102
1003
,
1000
0010
0100
0001
0010
0100
1100
0000
,
2010
3100
0012
0103
,
0001
0100
0010
1000
0100
0010
0011
0000
,
0010
0011
0101
1001
,
0011
0000
0101
1001
0000
0000
0110
0000
,
0100
0010
1000
0001
0100
0010
1000
0001
,
1001
1001
1001
1001
0110
0110
0110
0110
,
2002
0000
0000
0000
,
3003
0000
0000
0000
;

//--------------- dance-single - OrangeRight ----------------
#NOTES:
     dance-single:
     OrangeRight:
     Challenge:
     12:
     0,0,0,0,0:
0000
0000
0000
0000
,
0000
0000
0000
0000
,
0000
0000
0000
0000
,
1000
0001
0100
0010
1000
0001
0100
0010
,
0110
0000
0110
0000
0110
0000
0110
0000
1001
0000
1001
0000
1001
0000
1000
0001
,
2000
0000
3100
0010
0001
0010
1000
0010
,
0002
0000
0103
1000
0100
0010
0100
0001
,
1000
0000
1001
0000
0100
0010
1000
0010
,
0002
0000
0013
2000
0000
3100
0001
0100
,
2000
0000
3010
0100
0001
0100
1000
0100
,
0002
0000
0013
1000
0010
0100
0000
0010
,
0001
0000
0100
1000
0100
0001
0000
1001
,
0000
0000
0000
0000
0100
0000
0010
0000
1000
0010
0100
0010
1000
0000
0001
0100
,
0001
0000
1001
0100
1000
0000
1001
0100
,
0001
0000
1001
0100
1000
0100
1001
0000
,
1000
0001
0010
0100
1000
0001
0100
0010
,
0110
0110
0110
0110
1001
1001
1001
1001
,
2001
0000
3100
1000
0001
0100
1000
0100
,
0002
0000
0000
0000
1003
0000
0100
0000
0001
0000
0100
1000
0000
0001
0000
0000
,
1001
0000
0110
0010
1000
0100
0000
0101
,
0000
0100
1000
0001
0101
0110
0000
1010
,
0000
0000
0010
1000
0100
0001
0100
1000
,
0010
0000
0000
0000
0010
0000
0001
0000
0100
0000
1000
0000
0100
0001
0000
0010
,
0000
0000
0011
0000
0101
1001
0000
1010
,
0000
0000
0100
0000
1001
0000
0000
0000
1000
0000
0001
0000
1000
0001
0100
0010
,
1000
1001
1010
1100
,
1001
0000
1010
1100
0000
1000
0100
0010
,
0011
1001
0101
0011
,
1001
0000
0101
0011
0000
0001
0100
0010
,
1020
0100
1030
0000
0201
0010
0301
0000
,
0011
0100
1001
0000
1010
0100
1001
0000
,
0100
0010
1000
0001
0010
0100
1000
0001
,
1001
0000
1001
0000
1001
0000
1001
0000
0110
0000
0110
0000
0110
0000
0100
0010
,
2000
0000
0100
0001
3002
0000
1000
0000
,
2003
0000
0000
0000
0010
0000
0001
0000
3001
0000
1000
0010
0000
0010
0100
0000
,
0002
0000
0100
1000
2003
0000
0001
0000
,
3002
0000
0010
1000
2003
0000
0001
0000
,
3002
0000
0100
1000
2003
0000
0001
0000
,
3002
0000
0000
0000
0010
0000
1000
0000
1003
0000
0001
0010
0000
0010
0100
0000
,
2000
0000
0100
0001
3002
0000
1000
0000
,
2003
0000
0000
0000
0010
0000
0001
0000
3001
0100
0010
1000
0001
0000
1000
0001
,
0100
0110
1100
0110
,
0101
0000
0101
1100
0000
1000
0100
0001
,
0011
0110
1010
0110
,
0011
0000
0011
1010
0000
1000
0010
0001
,
0102
1000
0103
0000
2010
0001
3010
0000
,
1010
0100
1001
0000
0110
1001
0110
0000
,
2010
0001
3010
0000
0102
1000
0103
0000
,
0101
0010
1001
0000
0110
1001
0110
0000
,
1000
1010
0011
0101
,
1100
0000
1010
0011
0000
0010
0001
0100
,
0101
0101
0101
0101
1010
1010
1010
1010
,
1001
0110
0101
0011
1010
1100
1001
0110
,
2002
0000
0000
0000
,
3003
0000
0000
0000
;
