#VERSION:0.83;
#TITLE:YEAR OF SUMMER;
#SUBTITLE:(RADIO EDIT);
#ARTIST:Wildstylez Feat. Niels Geusebroek;
#TITLETRANSLIT:;
#SUBTITLETRANSLIT:;
#ARTISTTRANSLIT:;
#GENRE:;
#ORIGIN:;
#CREDIT:;
#BANNER:;
#BACKGROUND:;
#PREVIEWVID:;
#JACKET:jacket.png;
#CDIMAGE:;
#DISCIMAGE:;
#LYRICSPATH:;
#CDTITLE:;
#MUSIC:YEAR OF SUMMER (RADIO EDIT).ogg;
#OFFSET:-0.121409;
#SAMPLESTART:116.418999;
#SAMPLELENGTH:14.000000;
#SELECTABLE:YES;
#DISPLAYBPM:150.000000;
#BPMS:0.000=149.960;
#STOPS:;
#DELAYS:;
#WARPS:;
#TIMESIGNATURES:0.000=4=4;
#TICKCOUNTS:0.000=4;
#COMBOS:0.000=1;
#SPEEDS:0.000=1.000=0.000=0;
#SCROLLS:0.000=1.000;
#FAKES:;
#LABELS:0.000=Song Start;
#LASTSECONDHINT:144.160004;
#BGCHANGES:;
#KEYSOUNDS:;
#ATTACKS:
;

//---------------dance-single - ----------------
#NOTEDATA:;
#CHARTNAME:;
#STEPSTYPE:dance-single;
#DESCRIPTION:;
#CHARTSTYLE:;
#DIFFICULTY:Hard;
#METER:12;
#RADARVALUES:0.500098,0.634627,0.407847,0.135949,0.581182,515.000000,455.000000,60.000000,20.000000,0.000000,0.000000,0.000000,0.000000,0.000000,0.500098,0.634627,0.407847,0.135949,0.581182,515.000000,455.000000,60.000000,20.000000,0.000000,0.000000,0.000000,0.000000,0.000000;
#CREDIT:OpenITG3;
#DISPLAYBPM:150.000000;
#NOTES:
// measure 0
0000
0000
0000
0000
,  // measure 1
2000
0000
0000
0000
,  // measure 2
0000
0000
0200
0300
,  // measure 3
0002
0000
0000
0003
,  // measure 4
0020
0000
0000
3030
,  // measure 5
0002
0000
0000
0000
,  // measure 6
0000
0000
0020
0030
,  // measure 7
2000
0000
0000
3000
,  // measure 8
0200
0000
0000
0303
,  // measure 9
0020
0000
0000
0000
,  // measure 10
0000
0000
2000
3000
,  // measure 11
0002
0000
0000
0003
,  // measure 12
0200
0000
0000
0330
,  // measure 13
0200
0000
0000
0000
,  // measure 14
0000
0000
0002
0003
,  // measure 15
2000
0000
0000
3000
,  // measure 16
0020
0000
0000
0330
,  // measure 17
0001
0100
0001
0100
,  // measure 18
0001
0100
0001
0100
,  // measure 19
1000
0010
1000
0010
,  // measure 20
1000
0010
1000
0010
,  // measure 21
0001
0100
0001
0100
,  // measure 22
0001
0100
0001
0100
,  // measure 23
0010
1000
0010
1000
,  // measure 24
0010
1000
0010
1000
,  // measure 25
1001
0000
0000
0100
0000
0000
0100
0000
0000
0100
0000
0010
,  // measure 26
0100
0000
0000
0100
0000
0000
0100
0000
0000
0100
0000
0010
,  // measure 27
0100
0000
0000
0100
0000
0000
0100
0000
0001
1000
0000
0010
,  // measure 28
0100
0000
0001
1000
0000
0001
0000
0000
1001
0000
0000
0001
,  // measure 29
1000
0000
0000
1000
0000
0000
1000
0000
0000
1000
0000
1000
,  // measure 30
0001
0000
0000
0001
0000
0000
0001
0000
0000
0001
0000
0100
,  // measure 31
0010
0000
0000
0010
0000
0000
0010
0000
0100
0001
0000
0010
,  // measure 32
1000
0000
0010
0001
0000
1000
0000
0000
1001
0000
0000
0100
,  // measure 33
0001
0000
0000
0101
0000
0000
0101
0000
0000
0101
0000
0001
,  // measure 34
1000
0000
0000
1001
0000
0000
1001
0000
0000
1001
0000
1000
,  // measure 35
0010
0000
0000
1010
0000
0000
1010
0000
1000
0100
0000
0010
,  // measure 36
0001
0000
0100
0010
0000
0100
0000
0000
0110
0000
0000
1000
,  // measure 37
0001
0000
0000
1001
0000
0000
0101
0000
0000
1001
0000
0010
,  // measure 38
1000
0000
0000
1001
0000
0000
1100
0000
0000
1001
0000
0010
,  // measure 39
0100
0000
0000
0110
0000
0000
1001
0000
1000
0010
0000
0001
,  // measure 40
0100
0000
0010
1000
0000
0110
0000
0000
1000
0001
0000
0000
,  // measure 41
1001
0000
0001
0100
0000
0010
1000
0000
0010
1000
0000
1000
,  // measure 42
0100
0000
0010
0001
0000
0101
0000
0000
0100
0001
0000
0100
,  // measure 43
0001
0000
0001
0010
0000
0010
0100
0000
0010
0100
0000
1000
,  // measure 44
0100
0000
1000
0100
0000
0110
0000
0000
0001
0010
0000
0100
,  // measure 45
1000
0000
1000
0100
0000
0100
0010
0000
0010
0001
0000
0001
,  // measure 46
0010
0000
0010
0100
0000
0110
0000
0000
1000
0001
0000
0100
,  // measure 47
0010
0000
0001
1000
0000
0010
0100
0000
0001
0100
0000
1001
,  // measure 48
0000
0000
1000
0010
0000
0001
0100
0001
1000
0100
1000
0010
,  // measure 49
0100
0000
0000
0011
0000
0000
1001
0000
0000
1100
0000
1000
,  // measure 50
0010
0000
0000
1100
0000
0000
1001
0000
0000
0011
0000
0001
,  // measure 51
0100
0000
0000
0110
0000
0000
0101
0000
0000
1100
0000
0001
,  // measure 52
0010
1100
0110
0011
,  // measure 53
1000
0000
1000
0100
0000
0100
0010
0000
0010
0001
0000
0001
,  // measure 54
0100
0000
0100
1000
0000
1000
0100
0000
0100
0010
0000
0010
,  // measure 55
0100
0000
0100
0001
0000
0001
0010
0000
0010
0100
0000
0110
,  // measure 56
0000
0000
1000
0001
0000
0101
0000
0000
1000
0001
1000
0001
,  // measure 57
0200
0010
1000
0310
,  // measure 58
2000
0001
0100
3001
,  // measure 59
0020
1000
0100
1030
,  // measure 60
0002
0010
0100
1003
,  // measure 61
1001
0001
0100
0001
,  // measure 62
1001
1000
0100
1000
,  // measure 63
1001
0010
0001
0010
,  // measure 64
1001
0010
1000
0010
,  // measure 65
0101
0000
0000
0001
0000
0000
0100
0000
0000
1000
0000
1000
,  // measure 66
0100
0000
0000
0010
0000
0000
0001
0000
0000
0011
0000
0001
,  // measure 67
1000
0000
0000
1000
0000
0000
1100
0000
0010
1000
0000
0010
,  // measure 68
0100
0000
0000
1001
0000
0000
0100
0000
0000
0010
0000
1000
,  // measure 69
0010
0000
0001
0100
0000
0001
0100
0000
0010
1000
0000
0010
,  // measure 70
1000
0000
0100
0001
0000
0100
0001
0000
0010
1000
0000
0010
,  // measure 71
0100
0010
0100
0010
1000
0010
1000
0010
0001
0010
0001
0010
,  // measure 72
0100
0010
0100
1001
,  // measure 73
1010
0000
1000
0010
0000
1000
0010
0000
0100
0001
0000
0100
,  // measure 74
0001
0000
0010
0001
0000
0011
0000
0000
0001
0010
0000
0100
,  // measure 75
1000
0000
1000
0010
0000
0100
0001
0000
0100
0001
0000
1000
,  // measure 76
0010
0000
0001
0100
0000
0101
0000
0000
1000
0001
0000
0100
,  // measure 77
0010
0000
0001
1000
0000
0010
0100
0000
1000
0010
0000
0100
,  // measure 78
0010
0000
0100
0001
0000
1001
0000
0000
0100
0010
0000
0001
,  // measure 79
0100
0000
0010
1000
0000
0100
1000
0000
0100
0010
0000
0001
,  // measure 80
0100
0000
0010
1000
0000
0001
0010
0100
1000
0010
0100
1000
,  // measure 81
0100
0000
0000
0110
0000
0000
1001
0000
0000
0110
0000
1000
,  // measure 82
0100
0000
0001
0100
0000
1001
0000
0000
0100
0010
0000
1000
,  // measure 83
0100
0000
0000
0011
0000
0000
0110
0000
0001
1000
0000
0100
,  // measure 84
0010
0000
1000
0100
0000
0101
0000
0000
0001
0010
0000
0100
,  // measure 85
0010
0000
1000
0001
0000
1000
0010
0000
1000
0100
0000
0001
,  // measure 86
0100
0000
0001
0010
0000
0001
1000
0000
0010
0100
0000
0001
,  // measure 87
0010
0001
0010
0100
0010
0100
1000
0100
1000
0100
0010
0001
,  // measure 88
0100
0000
0001
0100
0000
0010
0000
0000
1000
0000
0000
0100
;
