#VERSION:0.83;
#TITLE:Warriors;
#SUBTITLE:Worlds 2014 - League of Legends;
#ARTIST:Imagine Dragons;
#TITLETRANSLIT:;
#SUBTITLETRANSLIT:;
#ARTISTTRANSLIT:;
#GENRE:;
#ORIGIN:;
#TAGS:;
#CREDIT:Kryptogun;
#BANNER:Warriors-bn.png;
#BACKGROUND:Warriors-bg.png;
#PREVIEWVID:;
#JACKET:jacket.png;
#CDIMAGE:;
#DISCIMAGE:;
#LYRICSPATH:;
#CDTITLE:./OpenITG3.png;
#MUSIC:Warriors.mp3;
#OFFSET:-0.181441;
#SAMPLESTART:34.014999;
#SAMPLELENGTH:12.000000;
#SELECTABLE:YES;
#DISPLAYBPM:156.000000;
#BPMS:0.000000=156.059998
;
#STOPS:;
#DELAYS:;
#WARPS:;
#TIMESIGNATURES:0.000000=4=4
;
#TICKCOUNTS:0.000000=4
;
#COMBOS:0.000000=1
;
#SPEEDS:0.000000=1.000000=0.000000=0
;
#SCROLLS:0.000000=1.000000
;
#FAKES:;
#LABELS:0.000000=Song Start
;
#BGCHANGES:-0.181441=Warriors.mp4=1.000=0=0=1=====,
99999=-nosongbg-=1.000=0=0=0 // don't automatically add -songbackground-
;
#KEYSOUNDS:;
#ATTACKS:
;

//---------------dance-single - ----------------
#NOTEDATA:;
#CHARTNAME:;
#CHARTHASH:2736028883;
#STEPSTYPE:dance-single;
#BANNER:;
#DESCRIPTION:;
#CHARTSTYLE:;
#DIFFICULTY:Challenge;
#METER:17;
#METERF:17.000000;
#LASTSECONDHINT:168.578201;
#RADARVALUES:0.741583,0.803766,0.182040,0.505015,1.444577,884.000000,853.000000,31.000000,86.000000,0.000000,0.000000,0.000000,0.000000,0.000000,0.741583,0.803766,0.182040,0.505015,1.444577,884.000000,853.000000,31.000000,86.000000,0.000000,0.000000,0.000000,0.000000,0.000000;
#CREDIT:;
#DISPLAYBPM:156.000000;
#NOTES:
// measure 0
0000
0000
0000
0000
,  // measure 1
0000
0000
0000
0000
,  // measure 2
0000
0000
0000
0000
,  // measure 3
0000
0000
0000
0000
,  // measure 4
0000
0000
0000
0000
,  // measure 5
0000
0000
0000
0000
,  // measure 6
2000
0000
0000
0000
0000
0000
3200
0000
0000
0000
0000
0000
0302
0000
0000
0003
0000
0000
0002
0000
0000
0003
0100
0000
,  // measure 7
2000
0000
0000
0000
0000
0000
3002
0000
0000
0000
0000
0000
0203
0000
0000
0300
0000
0000
0020
0000
0000
0030
0100
0000
,  // measure 8
0020
0000
0000
0030
0000
0000
1001
0000
0000
0000
0100
0000
2000
0000
0000
3000
0000
0000
1001
0000
0000
0000
0100
0000
,  // measure 9
0020
0000
0000
1030
0000
0000
0101
0000
0000
0001
0000
0010
,  // measure 10
0200
0000
0000
0310
0000
1000
0002
0000
0000
0103
0000
0001
,  // measure 11
2000
0000
0000
3010
0000
0001
0200
0000
0000
0310
0000
0001
,  // measure 12
0100
0000
0010
0100
0000
1000
0100
0000
0010
0001
0000
0001
,  // measure 13
2000
0000
0000
3020
0000
0030
0001
0000
0010
1000
0000
0100
,  // measure 14
0020
0000
0000
0100
0000
0000
0130
0000
1000
0010
0000
1000
,  // measure 15
0200
0000
0000
0001
0000
0000
0301
0000
0010
0100
0000
1001
,  // measure 16
0000
0000
0100
0010
0000
1000
0100
0000
0010
0001
0000
0100
,  // measure 17
0010
0000
0002
2000
0000
0003
3100
0000
0010
0001
0000
0012
,  // measure 18
0000
0003
0100
1000
0000
2100
0000
3000
0100
0010
0000
2001
,  // measure 19
0000
3000
0001
0100
0000
0012
0000
0003
0100
0001
0000
1002
,  // measure 20
0000
0003
1000
0010
0000
0100
0010
0000
0001
1000
0000
0100
,  // measure 21
0010
0000
1000
0100
0010
0001
0200
0000
0000
0310
0000
0000
,  // measure 22
2001
0000
0000
0000
0000
0000
3200
0000
0000
0000
0000
0000
0320
0000
0000
0030
0001
0000
0010
0000
0100
0000
1000
0000
,  // measure 23
0100
0010
0001
0100
0000
0000
0010
1000
0001
0100
0000
0000
,  // measure 24
1000
0001
0010
0100
0000
0000
0001
1000
0010
0100
0000
0000
,  // measure 25
0001
0100
0001
1000
0010
1000
0100
0010
0001
0200
0000
0310
,  // measure 26
0010
1000
0001
0100
0001
0010
0100
1000
0100
1000
0010
0100
,  // measure 27
0001
0010
0100
1000
0100
0000
0001
0010
0100
1000
0001
0000
,  // measure 28
1000
0100
0010
0001
1000
0000
0100
0010
0100
0001
1000
0000
,  // measure 29
1001
0000
1000
2000
0000
0010
3020
0000
0100
0230
0000
0300
,  // measure 30
1002
0000
0000
1003
0001
0100
0010
1000
0100
0010
0001
0100
,  // measure 31
0010
0000
0000
0001
0100
0010
1000
0100
0001
0100
1000
0001
,  // measure 32
0010
0100
0010
0100
1000
0000
1000
0100
0010
0100
0001
0000
,  // measure 33
1000
0100
0010
0100
1000
0001
0010
0100
0010
0001
0000
1000
,  // measure 34
1000
0000
0001
0000
0100
0000
0010
0000
0100
0000
1000
0000
0100
0000
0001
0000
0010
0000
0002
0000
0000
0003
0000
0000
,  // measure 35
1000
0000
0010
0000
0100
0000
0010
0000
1000
0000
0001
0000
0100
0000
1000
0000
0100
0000
0002
0000
0000
0003
0000
0000
,  // measure 36
0100
0001
0100
0001
0000
0000
0010
1000
0010
1000
0000
0000
,  // measure 37
0001
1000
0100
0001
0100
1000
0002
0000
0203
0000
0320
0030
,  // measure 38
2002
0000
0000
3003
0000
0000
0101
0000
0100
0010
0000
0000
,  // measure 39
2200
0000
0000
3300
0000
0000
0110
0000
0001
0010
0000
0010
,  // measure 40
1000
0000
1000
0100
0000
0000
0120
0000
0000
1030
0000
2000
,  // measure 41
0002
0000
0000
3003
0000
0000
0200
0000
0300
0001
0010
0100
,  // measure 42
1000
0000
0000
0100
0000
0000
1002
0000
0000
1003
0100
0010
,  // measure 43
0001
0000
0001
0000
0100
0000
1020
0000
1030
0100
0000
0000
,  // measure 44
0100
0001
0100
1000
0000
0000
0010
1000
0010
0001
0000
0200
,  // measure 45
0020
0000
0300
0130
0000
0000
1010
0000
0000
0010
0001
0010
,  // measure 46
0200
0000
1000
1300
0000
0000
1100
0000
0000
1000
0010
0100
,  // measure 47
0002
0000
0010
0013
0000
0000
0011
0000
0000
0100
0001
1000
,  // measure 48
0100
0000
0100
1000
0000
0100
0010
0000
0001
0100
0000
0100
,  // measure 49
0002
0000
0000
2003
0000
3100
0010
0000
0000
1001
0000
0001
,  // measure 50
0010
0100
1000
0100
0000
0010
0001
0010
0100
1000
0000
1000
,  // measure 51
0100
0010
0100
1000
0000
0001
0100
0010
0100
0001
0000
1000
,  // measure 52
0010
0000
0100
0010
0000
0001
0200
0000
0300
0020
0000
0030
,  // measure 53
2000
0000
0002
3003
,  // measure 54
0001
0100
0001
1000
0010
0100
0001
0100
1000
0100
0000
0010
,  // measure 55
0001
0010
0100
0010
0000
0000
1000
0001
0100
0001
0000
0000
,  // measure 56
0010
0100
1000
0100
0000
0000
1000
0010
0100
0001
0000
0000
,  // measure 57
0100
0010
0100
1000
0100
0010
0001
0010
1000
0200
0000
0310
,  // measure 58
0100
1000
0001
0010
0100
0010
0001
0100
0010
1000
0100
0000
,  // measure 59
0001
0010
0100
0010
0100
0000
0010
0100
1000
0100
1000
0000
,  // measure 60
1000
0100
1000
0001
0100
0001
0010
0100
0010
0001
1000
0010
,  // measure 61
0100
0000
1000
0100
0000
0010
0200
0000
0302
0000
0203
0000
,  // measure 62
1300
0100
1000
0010
0100
0010
0001
0010
0001
0010
0100
0010
,  // measure 63
1000
0001
1000
0100
0010
0100
0001
0100
0001
0100
1000
0100
,  // measure 64
0001
0100
1000
0100
0001
0100
1000
0010
0001
0010
1000
0100
,  // measure 65
0010
0001
0010
0100
1000
0010
0100
0001
0100
0010
1000
0100
,  // measure 66
0010
0000
0001
0100
0000
0100
1000
0000
1000
0010
0000
0010
,  // measure 67
0001
0000
1000
0100
0010
0100
1000
0000
0000
0001
0100
0010
,  // measure 68
0001
0000
0000
0001
0010
0100
0001
1000
0100
0010
1000
0010
,  // measure 69
0001
0000
0001
1000
0000
0100
0010
0001
0010
0100
1000
0100
,  // measure 70
2001
0000
0000
0200
0000
0300
0020
0000
0030
3002
0000
0003
,  // measure 71
1000
0000
0010
0001
0010
1000
0100
0000
0100
0010
0000
0000
,  // measure 72
1002
0000
0000
0020
0000
0030
0100
0000
0103
0001
0000
0010
,  // measure 73
2000
0000
0000
0200
0000
0300
3020
0000
0031
1000
0100
1000
,  // measure 74
0002
0000
0000
0020
0000
0030
0100
0000
0100
0000
1000
0000
,  // measure 75
1003
0000
1000
0010
0100
0001
0100
0000
0100
0001
0000
0001
,  // measure 76
2000
0000
0000
3020
0000
0000
0130
0000
0011
0000
0100
0000
,  // measure 77
1010
0000
1000
0100
0000
0100
0010
0000
0010
0200
0000
0000
,  // measure 78
1300
0100
1000
0001
0100
0001
1000
0001
1000
0001
0100
1000
,  // measure 79
0100
0001
0010
0001
0100
0010
0100
1000
0100
0010
0000
0001
,  // measure 80
0100
0000
0000
0010
0000
1000
0100
0000
0010
0000
0101
0000
,  // measure 81
1000
0000
1000
1000
0100
0010
0100
0001
0000
0001
0000
0000
,  // measure 82
0100
1000
0100
1000
0100
1000
0001
0010
0001
0010
0001
0010
,  // measure 83
0001
0100
0001
0100
0001
0100
0010
0100
0010
0100
0010
0100
,  // measure 84
1000
0100
1000
0100
1000
0100
0001
1000
0001
1000
0001
1000
,  // measure 85
0001
0010
0001
0010
0100
1000
0100
1000
0001
1000
0001
0100
,  // measure 86
0020
0000
0000
0000
,  // measure 87
0000
0000
0000
0000
,  // measure 88
0000
0000
0000
0030
,  // measure 89
0001
0001
1000
0100
0100
0010
0001
0001
0100
1000
1000
0100
,  // measure 90
0010
0100
1000
0001
0010
0100
1000
0100
0010
0100
0010
0000
,  // measure 91
0001
0100
0010
0100
0010
1000
0010
0100
0001
0010
1000
0000
,  // measure 92
0001
0100
0001
1000
0000
0000
1000
0010
0100
0001
0000
0000
,  // measure 93
0010
0100
1000
0001
0100
0001
1000
0010
0100
0001
1000
0010
,  // measure 94
0100
0001
0100
0010
1000
0010
0100
0001
1000
0010
1000
0001
,  // measure 95
0010
0001
0100
0010
0100
1000
0100
0010
0001
0100
0001
0010
,  // measure 96
1000
0100
1000
0001
0010
0100
0010
0001
1000
0001
0100
0010
,  // measure 97
1000
0100
1000
0001
0100
0001
0010
0000
0100
1000
0000
0100
,  // measure 98
0010
0001
0100
0001
1000
0010
0100
0010
1000
0100
0010
0001
,  // measure 99
0100
0010
0100
1000
0100
0010
0100
0000
1000
0001
0010
0100
,  // measure 100
0020
0000
0000
0130
1000
0100
0002
0000
0000
0103
0010
0001
,  // measure 101
1000
0000
1000
0100
0010
0001
0100
0000
0011
0000
0100
0000
,  // measure 102
1001
0000
0000
0100
0001
0100
0010
1000
0010
0100
0001
0100
,  // measure 103
0001
0010
0100
0010
0100
1000
0100
0010
0100
0010
0001
0100
,  // measure 104
0001
0000
0001
0100
0000
0100
0010
1000
0010
0100
0000
0000
,  // measure 105
0010
0001
0010
0100
0010
0100
1000
0100
0010
0002
0000
0000
,  // measure 106
0103
0010
1000
0200
0000
0000
0310
0001
0100
0002
0000
0000
,  // measure 107
1003
0010
0100
0010
1000
0001
0010
0100
1000
0100
0010
0100
,  // measure 108
2002
0000
0000
0000
,  // measure 109
0000
0000
3003
0000
;
