#TITLE:Ticking Away;
#SUBTITLE:VALORANT Champions 2023;
#ARTIST:Grabbitz and bbno$;
#TITLETRANSLIT:;
#SUBTITLETRANSLIT:;
#ARTISTTRANSLIT:;
#GENRE:Techno Pop;
#CREDIT:Kryptogun;
#BANNER:Ticking Away-bn.png;
#BACKGROUND:Ticking Away-bg.jpg;
#LYRICSPATH:;
#CDTITLE:;
#MUSIC:Ticking Away.mp3;
#OFFSET:0.780000;
#SAMPLESTART:47.220001;
#SAMPLELENGTH:12.000000;
#SELECTABLE:YES;
#DISPLAYBPM:95.000000;
#BPMS:0.000000=95.000000
,75.000000=190.000000
,77.000000=95.000000
,176.000000=190.000000
,178.000000=95.000000
,209.000000=190.000000
,211.000000=47.500000
,223.000000=95.000000
,242.000000=190.000000
,244.000000=95.000000
,275.000000=190.000000
,277.000000=95.000000
,293.000000=47.500000
,302.500000=95.000000
;
#STOPS:
;
#BGCHANGES:;
#KEYSOUNDS:;
#ATTACKS:;

//---------------dance-single - ----------------
#NOTES:
     dance-single:
     :
     Challenge:
     15:
     0.565638,0.833821,0.318521,0.313621,0.762001,808.000000,743.000000,65.000000,64.000000,0.000000,0.000000,0.565638,0.833821,0.318521,0.313621,0.762001,808.000000,743.000000,65.000000,64.000000,0.000000,0.000000:
// measure 0
0000
0000
0000
0000
,  // measure 1
0000
0000
0000
0000
,  // measure 2
0000
0000
0000
0000
,  // measure 3
0000
0000
0000
0000
,  // measure 4
0000
0000
0000
0000
,  // measure 5
0000
0000
0000
0000
,  // measure 6
0000
0000
0000
0000
,  // measure 7
1000
0010
0100
0001
0000
0001
0100
1000
0000
1000
0100
0010
0000
0010
0001
0010
,  // measure 8
1000
0100
0010
0100
0000
0001
0100
1000
0000
1000
0001
0100
0000
0100
0001
0010
,  // measure 9
0100
1000
0100
0010
0000
0010
0001
0010
0000
0001
0100
0010
0000
1000
0001
0010
,  // measure 10
0001
1000
0100
1000
0000
0100
0001
1000
0000
0100
0010
0100
0010
0001
0100
1000
,  // measure 11
0100
0001
0100
0010
0000
0010
0100
1000
0000
1000
0001
0010
0000
0010
0100
0001
,  // measure 12
0100
0010
0100
1000
0000
1000
0010
0100
0000
0100
0001
0010
0000
0010
0100
0010
,  // measure 13
0001
0010
0100
1000
0000
0010
1000
0100
0000
0100
1000
0010
0000
0100
0001
0100
,  // measure 14
0010
0100
1000
0100
0000
0001
0100
0010
0000
0001
1000
0100
0001
0100
0010
1000
,  // measure 15
0100
0100
2000
0000
0001
3001
0020
0000
0100
0130
0010
0001
0000
0011
0000
1000
,  // measure 16
0100
0100
0020
0000
0001
0031
0200
0000
1000
1300
0100
0001
0000
1001
0000
0010
,  // measure 17
0100
1000
0001
0100
0010
0100
0001
1000
0100
0010
0001
0100
0010
1000
0001
0100
,  // measure 18
0002
2003
3020
0130
,  // measure 19
0000
0000
0000
0000
0001
0100
0001
0010
0100
1000
0100
0000
0011
0000
0001
0000
,  // measure 20
1001
0000
2010
0000
0000
3001
0010
0100
0010
0001
1000
0100
0002
0000
0203
0000
,  // measure 21
0320
0000
0031
0000
1000
0100
1000
0000
0010
0100
0010
0000
0001
0100
0001
0001
,  // measure 22
1000
0010
0100
0100
0010
1000
0200
0000
0310
0100
0001
0000
0001
0100
0010
0100
,  // measure 23
0010
0000
1000
0000
0001
1000
0100
1000
0001
0100
0010
0000
1100
0000
1000
0000
,  // measure 24
0011
0000
0120
0000
0000
0130
0001
0010
1000
0010
0100
1000
0002
0000
2003
0000
,  // measure 25
3020
0000
0130
0000
0001
1000
0001
0000
0100
1000
0100
0000
1001
0000
0100
0000
,  // measure 26
0011
0000
0001
0000
1000
0100
1000
0010
0100
0010
0001
0010
1000
0001
0100
0001
,  // measure 27
1010
0040
0000
0000
,  // measure 28
0130
2002
0000
3003
,  // measure 29
1001
0000
0000
0000
0100
0002
0000
2003
0000
3010
0100
0001
0000
0011
0000
0102
,  // measure 30
0000
0013
1000
0100
0000
1100
0000
2001
0000
3001
0100
0001
0000
0110
0000
0021
,  // measure 31
0000
0031
0100
0010
0000
1100
0000
2001
0000
3100
0010
0100
0000
1000
0001
0010
,  // measure 32
1001
0000
0000
0000
0210
0000
0000
0000
0301
0010
0100
0010
0001
0000
1000
0100
,  // measure 33
0010
0100
1000
0000
0120
0000
0000
0000
0130
0001
0010
0001
0100
0000
0010
1000
,  // measure 34
0100
1000
0010
0000
1001
0000
1000
0100
0010
0000
0100
0000
0001
0100
0010
0000
,  // measure 35
1000
0010
0202
0300
2000
3000
0200
0003
,  // measure 36
0310
0000
1002
0003
0200
0300
0010
0001
,  // measure 37
1000
0100
0020
0030
0200
0300
0001
1000
,  // measure 38
0001
0100
0020
0030
1000
0100
1000
0001
,  // measure 39
0100
0020
0030
0010
1000
0100
0010
0001
,  // measure 40
0110
0000
0000
0000
1001
0001
1000
0001
0010
0100
1000
0000
1100
0000
0100
0000
,  // measure 41
0110
0000
0012
0000
0000
0013
0001
0010
0100
1000
0100
0010
0001
0000
0101
0000
,  // measure 42
1001
0000
0020
0000
1030
0100
1000
0010
0000
0100
0001
0010
0000
0010
0100
1000
,  // measure 43
0000
1000
0100
0010
0001
0001
1000
0010
0100
0100
0010
0001
1000
0100
0001
0010
,  // measure 44
1001
0000
0000
0000
0000
0000
0000
0000
1001
1000
0001
0100
0010
1000
0100
0010
,  // measure 45
0002
0000
0203
0000
2300
0000
3020
0000
0130
0001
0100
0001
1000
0000
1100
0000
,  // measure 46
0010
0100
0010
0000
0011
0000
0100
0000
0010
0001
0010
0100
1000
0100
0010
0000
,  // measure 47
0002
2003
3020
0130
0011
0010
0110
0100
,  // measure 48
1100
0000
1010
0000
1001
0000
0100
0000
0011
0010
0100
0010
1000
0010
0100
0000
,  // measure 49
2000
0000
3020
0000
0230
0000
0302
0000
0013
0100
0010
0001
1000
0000
1010
0000
,  // measure 50
0100
0010
0100
0000
0011
0000
0001
0000
1000
0100
0010
0100
1000
0100
0010
0000
,  // measure 51
0011
0000
0100
0000
0110
0000
0001
0000
1000
0001
0100
0100
0010
1000
0001
0001
,  // measure 52
0100
0100
0010
1000
1001
0000
0000
0000
0000
0000
0000
0000
0010
0000
0000
1000
,  // measure 53
0000
0000
0010
0000
0001
0000
0000
0100
0000
0000
0010
0000
1000
0000
0010
0000
,  // measure 54
0001
0100
0000
0010
1000
0000
0100
0000
0010
0000
0100
0010
0001
0000
0100
0000
,  // measure 55
0010
0000
1000
0100
1000
0000
0010
0100
0010
0000
0100
0000
0001
0100
0001
0100
,  // measure 56
0001
0100
0001
0100
0001
0100
0001
0100
0001
0100
0001
0100
0010
1000
0010
1000
,  // measure 57
0010
1000
0010
1000
0010
1000
0010
1000
0010
1000
0010
1000
0001
0100
0001
0100
,  // measure 58
0010
1000
0010
1000
0100
0010
0100
0010
0001
1000
0001
1000
0001
0100
0001
1000
,  // measure 59
0100
0000
1000
0000
0010
0000
0100
0000
1000
0000
0100
0000
0010
0000
0001
0000
0010
0000
1000
0000
0001
0000
0100
0000
0010
1000
0001
0100
0001
0010
0100
1000
,  // measure 60
0100
0010
0100
1000
0001
0100
0010
1000
0001
0100
0001
0010
0100
0010
0001
1000
0010
0000
0000
0000
0000
0000
0000
0000
0000
0000
0000
0000
0000
0000
0000
0000
,  // measure 61
1000
0010
0100
0001
0100
0010
1000
0000
1001
0000
0001
0000
0011
0000
2001
0000
,  // measure 62
0000
3100
0010
0001
0100
0001
0010
0100
1100
0000
1000
0000
0101
0000
0001
0000
,  // measure 63
0001
0010
0100
1000
0000
1000
0100
0001
0000
0001
0100
1000
0000
1000
0010
0100
,  // measure 64
0010
0001
0001
0100
0010
1000
1000
0100
0010
0100
0100
0010
0002
0000
0203
0000
,  // measure 65
0301
0100
0010
1000
0100
0010
0001
0000
0101
0000
0001
0000
0011
0000
0210
0000
,  // measure 66
0000
0310
1000
0001
0100
0001
0010
0100
1000
0000
1100
0000
0010
0000
0110
0000
,  // measure 67
0001
0100
0001
1000
0000
1000
0001
0010
0000
0010
0001
1000
0000
0100
1000
0010
,  // measure 68
0100
0100
0010
0100
0001
0001
0010
0100
1000
1000
0100
0010
1001
0000
0000
0000
,  // measure 69
0000
0000
0000
0000
0100
0010
0001
1000
0100
0010
0001
0010
0100
0000
1100
0000
,  // measure 70
1000
0000
0011
0000
0001
0100
0010
1000
0100
0010
1000
0000
0010
0100
0001
0000
,  // measure 71
0110
0000
0100
0000
1000
0010
0100
0010
1000
0001
0100
0000
1000
0100
0010
0000
,  // measure 72
0100
1000
0100
0000
0011
0000
0001
0000
1001
0000
1000
0000
2000
0000
3020
0000
,  // measure 73
0230
0000
0302
0000
2003
0000
3000
0020
0000
0000
0030
0000
0200
0000
0300
0002
,  // measure 74
0000
0003
0010
0000
0200
0000
0300
2000
0000
3000
0100
0000
1000
0000
0010
0000
,  // measure 75
0001
0200
0000
0000
0000
0300
0000
0000
;
