#VERSION:0.83;
#TITLE:Through The Night;
#SUBTITLE:;
#ARTIST:KELTEK;
#TITLETRANSLIT:;
#SUBTITLETRANSLIT:;
#ARTISTTRANSLIT:;
#GENRE:;
#ORIGIN:;
#CREDIT:;
#BANNER:;
#BACKGROUND:;
#PREVIEWVID:;
#JACKET:;
#CDIMAGE:;
#DISCIMAGE:;
#LYRICSPATH:;
#CDTITLE:;
#MUSIC:Through The Night.ogg;
#OFFSET:-0.012239;
#SAMPLESTART:25.615999;
#SAMPLELENGTH:14.000000;
#SELECTABLE:YES;
#DISPLAYBPM:150.000000;
#BPMS:0.000=149.977,
128.000=74.989,
144.000=149.977,
208.000=149.997;
#STOPS:;
#DELAYS:;
#WARPS:;
#TIMESIGNATURES:0.000=4=4;
#TICKCOUNTS:0.000=4;
#COMBOS:0.000=1;
#SPEEDS:0.000=1.000=0.000=0;
#SCROLLS:0.000=1.000;
#FAKES:;
#LABELS:0.000=Song Start;
#LASTSECONDHINT:118.427002;
#BGCHANGES:;
#KEYSOUNDS:;
#ATTACKS:
;

//---------------dance-single - ----------------
#NOTEDATA:;
#CHARTNAME:;
#STEPSTYPE:dance-single;
#DESCRIPTION:;
#CHARTSTYLE:;
#DIFFICULTY:Hard;
#METER:13;
#RADARVALUES:0.502860,0.611931,0.223625,0.124236,0.662592,425.000000,398.000000,27.000000,15.000000,0.000000,0.000000,0.000000,0.000000,0.000000,0.502860,0.611931,0.223625,0.124236,0.662592,425.000000,398.000000,27.000000,15.000000,0.000000,0.000000,0.000000,0.000000,0.000000;
#CREDIT:;
#DISPLAYBPM:150.000000;
#NOTES:
// measure 0
0000
0000
0000
0000
,  // measure 1
0000
0000
0000
0000
,  // measure 2
0000
0000
0000
0000
,  // measure 3
0000
0000
0000
0000
,  // measure 4
1000
0000
0100
0010
0000
0000
0001
0000
0000
0010
0000
0000
,  // measure 5
0100
0000
1000
0001
0000
0000
0100
0000
0000
0100
0000
0000
,  // measure 6
0010
0000
0010
0001
0000
0000
1000
0000
0000
0010
0000
0000
,  // measure 7
0001
0000
1000
0100
0000
0000
0010
0000
0000
1001
0000
0000
,  // measure 8
0110
0000
0001
1000
0000
0000
1000
0000
0000
0100
0000
0000
,  // measure 9
0010
0000
0000
0001
0000
0001
1000
0000
1000
0100
0000
0000
,  // measure 10
0010
0000
0000
1000
0000
0000
0100
0000
0010
0001
0000
0000
,  // measure 11
1000
0000
0001
0100
0000
0010
1000
0000
0000
0100
0000
0000
,  // measure 12
1000
0001
1000
0100
0000
0000
0001
1000
0001
0100
0000
0000
,  // measure 13
0010
1000
0001
0100
0000
0000
0100
0001
1000
0010
0000
0000
,  // measure 14
1000
0100
0010
0001
0010
0100
1000
0100
0010
0001
0010
0100
,  // measure 15
1000
0000
0000
0010
,  // measure 16
0100
0000
1000
0200
0000
0000
0001
0000
0000
0010
0000
0000
,  // measure 17
1300
0000
0001
0010
0000
0100
1000
0001
0100
0010
0000
0000
,  // measure 18
0001
0000
0100
0020
0000
0000
1000
0000
0000
0100
0000
0000
,  // measure 19
0031
0000
0010
1000
0000
1000
0100
0010
0100
1000
0000
0000
,  // measure 20
0001
0000
0100
2000
0000
0000
0010
0000
0000
3100
0000
0000
,  // measure 21
1000
0000
1000
0002
0000
0000
0010
0000
0000
0103
0000
0000
,  // measure 22
1000
0000
0100
0001
0000
0010
1000
0000
0100
0010
0000
0001
,  // measure 23
0100
0000
0010
0000
0000
0100
0001
0000
0000
0100
0000
0010
,  // measure 24
0100
0000
1000
0010
0000
0000
1001
0000
0000
0110
0000
0000
,  // measure 25
0001
0000
1000
0010
0000
0001
1000
0001
0100
0010
0000
0000
,  // measure 26
0001
0000
0010
0100
0000
0000
1010
0000
0000
0101
0000
0000
,  // measure 27
1000
0000
0001
0010
0000
0001
0100
0010
0100
1000
0000
0000
,  // measure 28
0001
0000
0001
0010
0000
0010
0100
0000
0100
1000
0000
0000
,  // measure 29
1000
0000
1000
0100
0000
0100
0010
0000
0010
0001
0000
0000
,  // measure 30
1000
0100
0010
0001
0000
0000
0001
0010
0100
1000
0100
0010
,  // measure 31
0001
0000
0000
0000
,  // measure 32
0000
0200
0320
0032
1003
0000
0000
0000
,  // measure 33
0000
2000
3200
2300
3010
0000
0000
0000
,  // measure 34
0000
0002
0023
0230
1300
0000
0000
0000
,  // measure 35
1000
0010
0100
0000
,  // measure 36
0000
0010
0001
0100
,  // measure 37
1000
0000
0000
0100
0000
0010
0001
0000
0000
0000
0000
0000
,  // measure 38
0001
0000
0000
0100
0000
0010
1000
0000
0000
0000
0000
1000
,  // measure 39
0100
0000
0000
0010
0000
0100
1000
0000
0000
0010
0000
0000
,  // measure 40
0000
0000
0000
0001
0000
0000
0010
0000
0000
0001
0000
1000
,  // measure 41
0100
0000
0000
0010
0000
0010
0001
0000
0000
0100
0000
0000
,  // measure 42
1000
0000
0000
0010
0000
0100
0010
0000
0000
1000
0000
0000
,  // measure 43
0001
0000
0010
0100
0000
0100
1000
0000
0010
0100
0000
0000
,  // measure 44
1001
0000
0000
1000
0000
0010
0100
0000
0010
0001
0000
0000
,  // measure 45
0001
0000
0020
0000
0000
0130
1000
0100
0010
0001
0000
0000
,  // measure 46
0100
1001
0011
1010
,  // measure 47
1000
0000
0020
0000
0000
0130
0001
1000
0100
0010
0000
0000
,  // measure 48
0010
0000
0001
0100
0000
0010
1000
0000
1000
0100
0000
0100
,  // measure 49
1000
0000
1000
0010
0000
0010
0100
0000
0100
0001
0000
0001
,  // measure 50
0010
0100
1000
0100
0010
0001
0010
0100
1000
0001
0010
0100
,  // measure 51
1000
0000
0000
0100
,  // measure 52
1100
0000
0000
1001
0000
0000
0011
0000
0000
0101
0000
1000
,  // measure 53
0100
0010
0001
0010
0000
0100
1000
0001
0010
0100
0000
0000
,  // measure 54
0011
0000
0000
0101
0000
0000
1001
0000
0000
1100
0000
1000
,  // measure 55
0001
0100
0001
1000
0000
0001
0100
0010
1000
0100
0000
0000
,  // measure 56
1000
0000
1000
0100
0000
0100
0010
0000
0010
0001
0000
0001
,  // measure 57
0100
0000
0100
0001
0000
0001
1000
0000
1000
0010
0000
0000
,  // measure 58
1000
0100
0010
0100
0000
0100
0010
0100
0001
0100
0000
0010
,  // measure 59
1000
0100
1000
0001
0000
0001
0100
0000
0000
0010
0000
0000
,  // measure 60
1001
0000
0000
0011
0000
0000
0101
0000
0000
0011
0000
1000
,  // measure 61
0100
1000
0001
0100
0000
0010
0001
0010
0100
1000
0000
0000
,  // measure 62
0110
0000
0000
1100
0000
0000
0011
0000
0000
0101
0000
1000
,  // measure 63
0100
1000
0001
0010
0000
1000
0001
0100
0001
1000
0000
0000
,  // measure 64
1000
0000
0001
0100
0000
0100
0010
0000
0010
1000
0000
1000
,  // measure 65
0100
0000
0010
0001
0000
0100
0001
0000
0010
0001
0000
1000
,  // measure 66
0100
0010
0001
0100
0010
1000
0100
0010
0001
0100
0010
1000
,  // measure 67
0100
0000
1001
0000
0000
0000
0000
0000
0000
0000
0000
0000
;
