#TITLE:The path we take;
#SUBTITLE:;
#ARTIST:MYST;
#TITLETRANSLIT:;
#SUBTITLETRANSLIT:;
#ARTISTTRANSLIT:;
#GENRE:Hardstyle;
#CREDIT:;
#BANNER:;
#BACKGROUND:;
#LYRICSPATH:;
#CDTITLE:;
#MUSIC:The path we take.ogg;
#OFFSET:-0.025613;
#SAMPLESTART:37.187000;
#SAMPLELENGTH:14.000000;
#LASTBEATHINT:379.926819;
#SELECTABLE:YES;
#DISPLAYBPM:155.000000;
#BPMS:0.000000=155.000000
,88.000000=310.000000
,96.000000=155.000000
,156.000000=310.000000
,160.000000=155.000000
,166.000000=77.500000
,170.000000=155.000000
,226.000000=310.000000
,234.000000=155.000000
,294.000000=310.000000
,298.000000=155.000000
,360.000000=310.000000
,364.000000=155.000000
;
#STOPS:
;
#BGCHANGES:;
#KEYSOUNDS:;
#ATTACKS:;

//---------------dance-single - ----------------
#NOTES:
     dance-single:
     :
     Hard:
     15:
     0.666454,1.050182,0.454133,0.048166,0.760328,678.000000,612.000000,66.000000,7.000000,0.000000,0.000000,0.666454,1.050182,0.454133,0.048166,0.760328,678.000000,612.000000,66.000000,7.000000,0.000000,0.000000:
// measure 0
0000
0000
0000
0000
,  // measure 1
0000
0000
0000
0000
,  // measure 2
0000
0000
0000
0000
,  // measure 3
0000
0000
0000
0000
,  // measure 4
0000
0000
0000
0000
,  // measure 5
0000
0000
0000
0000
,  // measure 6
0000
0000
0000
0000
,  // measure 7
1000
0000
0000
1000
0000
0000
0001
0000
0000
0001
0000
0000
0100
0000
0010
0000
,  // measure 8
1001
1000
0100
0001
,  // measure 9
1001
0001
0100
1000
,  // measure 10
1001
1000
0010
0001
,  // measure 11
0110
0001
0010
1000
,  // measure 12
0010
0000
0000
0010
0000
0000
0010
0000
0100
0000
0000
0100
0000
0000
0100
0000
,  // measure 13
0001
0000
0000
0001
0000
0000
0001
0000
1000
0000
0000
1000
0000
0000
1000
0000
,  // measure 14
0010
0000
0000
0010
0000
0000
1000
0000
0001
0000
0000
0010
0000
0000
0001
0000
,  // measure 15
1000
0000
0000
0100
0000
0000
0010
0000
0002
0000
0000
0000
0103
0000
0000
0000
,  // measure 16
1000
0000
0000
0001
0000
0000
1000
0000
0000
0100
0000
0010
0001
0000
1000
0000
,  // measure 17
0001
0000
0000
1000
0000
0000
0001
0000
0000
0010
0000
0100
1000
0000
0001
0000
,  // measure 18
1000
0000
0000
0010
0000
0000
0100
0000
0000
0001
0000
0010
0100
0000
0010
0000
,  // measure 19
0001
0000
0000
0100
0000
0000
0010
0000
0000
1000
0000
0100
0010
0000
0100
0000
,  // measure 20
1000
0010
0001
0010
0100
0010
1000
0010
,  // measure 21
0100
0000
0001
0000
0100
0000
0010
0000
0100
0000
1000
0000
0100
0000
0010
4000
,  // measure 22
0004
0000
0000
0000
,  // measure 23
0000
0000
0000
0000
,  // measure 24
3003
0000
0000
0000
0000
0000
0100
0100
,  // measure 25
1001
0000
0100
0001
0000
0100
0001
0000
1001
0000
0100
1000
0000
0100
1000
0000
,  // measure 26
0011
0000
0100
0001
0000
0100
0001
0000
1010
0000
0100
1000
0000
0100
1000
0000
,  // measure 27
0101
0000
1000
0001
0000
1000
0001
0000
1100
0000
0001
1000
0000
0001
1000
0000
,  // measure 28
0110
0000
1000
0010
0000
1000
0010
0000
1000
0001
1000
0001
0100
0000
0100
0000
,  // measure 29
1001
0000
0001
0010
0000
0010
0100
0000
0110
0000
0010
0100
0000
0100
1000
0000
,  // measure 30
1100
0000
1000
0010
0000
0010
1000
0000
1010
0000
1000
0010
0000
0010
0001
0000
,  // measure 31
0011
0000
0001
0100
0000
0100
1000
0000
1100
0000
1000
0010
0000
0010
0100
0000
,  // measure 32
0110
0000
0000
0110
0000
0000
1001
0000
0000
0110
0000
0000
1001
0000
0100
0000
,  // measure 33
0001
0100
0000
0000
0010
1000
0000
0000
1000
0100
0000
0000
0100
0001
0000
0000
,  // measure 34
0001
0010
0000
0000
0010
1000
0000
0000
1000
0100
0000
0000
0100
0001
0000
0000
,  // measure 35
1000
0010
0000
0000
0100
0001
0000
0000
0010
0100
0000
0000
0001
1000
0000
0000
,  // measure 36
1001
0000
0000
0000
1100
0000
0000
0000
1000
0000
0001
0000
1000
0001
1000
0001
,  // measure 37
0100
0000
0000
0100
0000
0000
0100
0000
0010
0000
0000
0010
0000
0000
0010
0000
,  // measure 38
1000
0000
0000
1000
0000
0000
1000
0000
0001
0000
0000
0001
0000
0000
0001
0000
,  // measure 39
2002
0000
0000
3003
,  // measure 40
0001
0100
0010
1000
0100
0010
0001
1000
0001
0000
0000
0101
0000
0000
0011
0000
,  // measure 41
0000
1001
0000
0000
1000
0000
0100
0000
0010
0000
0000
0000
0000
0000
0000
0000
,  // measure 42
0000
0000
1001
0000
,  // measure 43
0000
0100
1001
0000
,  // measure 44
0000
0000
0010
0100
1001
0000
0000
0000
,  // measure 45
0000
0000
0000
1000
0010
0000
0100
0000
1001
0000
0000
0000
0000
0000
0000
0000
,  // measure 46
1000
0001
0000
0010
0100
0000
0100
0000
1001
0000
0000
0000
0000
0000
0000
0000
,  // measure 47
0000
1001
1001
0000
,  // measure 48
0000
0110
1001
0000
,  // measure 49
0000
2000
3002
0023
,  // measure 50
2030
0000
0000
0000
3100
0000
0000
0000
1001
0000
0000
1100
0000
0000
0010
0000
,  // measure 51
0000
0001
0000
0100
0001
0000
1000
0000
0101
0000
0000
1001
0000
0000
0010
0000
,  // measure 52
0000
1000
0000
0010
0100
0000
0001
0000
1010
0000
0000
0101
0000
0000
1000
0000
,  // measure 53
0000
0010
0000
0100
0001
0000
1000
0000
0011
0000
0000
0110
0000
0000
1000
0000
,  // measure 54
0000
0001
0000
0001
1000
0000
0010
0000
1000
0000
0001
0000
0100
0000
0001
0000
,  // measure 55
1000
0010
0100
0010
0001
0010
1000
0100
,  // measure 56
0001
0000
0100
0000
0010
0000
0100
1000
0001
0000
1000
0000
0001
0000
1000
0000
,  // measure 57
0001
1000
0001
1000
0001
1000
0001
1000
,  // measure 58
0001
1000
0001
1000
0100
0000
0000
0000
,  // measure 59
0000
0000
0000
0000
0000
0000
0000
0000
0011
0000
0000
0010
0000
0000
0010
0000
,  // measure 60
1100
0000
0000
0001
1000
0000
0100
0000
0011
0000
0000
0001
0000
0000
0001
0000
,  // measure 61
1100
0000
0000
1000
0100
0000
0001
0000
0101
0000
0000
0100
0000
0000
0100
0000
,  // measure 62
1010
0000
0000
0001
0010
0000
1000
0000
0101
0000
0000
0100
0000
0000
0001
0000
,  // measure 63
1010
0000
0000
1100
0000
0000
1010
0000
1001
0000
0000
0100
0000
0000
0100
0000
,  // measure 64
0001
1000
0000
1000
0001
0000
0001
0000
1001
0000
0000
0010
0000
0000
0010
0000
,  // measure 65
1000
0001
0000
0001
1000
0000
1000
0000
0001
0100
0001
1000
0100
1000
0001
0010
,  // measure 66
0100
1000
0100
0010
0001
0100
0010
1000
0000
0000
0000
0000
0000
0000
0000
0000
,  // measure 67
0100
0010
0000
0100
0010
0000
0010
0000
1000
0001
0000
0000
0001
0100
0000
0000
,  // measure 68
0010
1000
0000
0000
1000
0010
0000
0000
0100
0001
0000
0000
0010
1000
0000
0000
,  // measure 69
0010
0100
0000
0000
0010
0001
0000
0000
1000
0001
0000
0000
0100
0010
0000
0000
,  // measure 70
0001
0100
0000
0000
0010
1000
0000
0000
1000
0100
0000
0000
0010
0100
0000
0000
,  // measure 71
0001
0100
0010
1000
0100
0000
0100
0000
0010
0001
0010
0001
0100
0001
0100
0001
,  // measure 72
0010
0001
0010
0001
0100
0001
0100
0001
1000
0001
1000
0001
0100
0001
0100
0001
,  // measure 73
0010
0001
0010
0001
1000
0001
1000
0001
0100
0000
0000
0000
0000
0000
0000
0000
,  // measure 74
0000
0000
0000
0000
0000
0000
0000
0000
1000
0100
0010
0001
0010
0100
1000
0100
,  // measure 75
0010
0000
0000
1001
0000
0000
1100
0000
0000
1001
0000
0000
0101
0000
0011
0000
,  // measure 76
0100
0010
0000
0000
1000
0100
0000
0000
0001
0010
0000
0100
1000
0000
0100
0000
,  // measure 77
0001
0100
0000
0000
0010
1000
0000
0000
0100
0001
0000
0001
0100
0000
0010
0000
,  // measure 78
1000
0010
0000
0000
0001
0010
0000
0000
1000
0100
0000
0100
1000
0000
0100
0000
,  // measure 79
0001
0000
0000
0000
0100
0010
0000
0000
1000
0001
0100
0001
0010
0000
0010
0000
,  // measure 80
0001
0100
0000
0000
0010
1000
0000
0000
1000
0100
0000
0100
0010
0000
0001
0000
,  // measure 81
0100
0001
0000
0000
1000
0001
0000
0000
0100
0010
0000
0010
0001
0000
0001
0000
,  // measure 82
1000
0100
0000
0000
1000
0100
0000
0000
0001
0010
0000
0010
0001
0000
1000
0010
,  // measure 83
0100
0000
0000
0001
0000
0000
0100
0000
0000
1000
0000
0000
0010
0000
0010
0000
,  // measure 84
1000
0100
0000
0000
0001
0100
0000
0000
0001
0010
0000
0000
1000
0010
0000
0000
,  // measure 85
0100
0001
0000
0000
0100
1000
0000
0000
0010
0001
0000
0000
0010
1000
0000
0000
,  // measure 86
0001
0100
0000
0000
0100
0010
0000
0000
0010
1000
0000
0000
1000
0100
0000
0000
,  // measure 87
0001
0100
0000
0000
0001
1000
0000
0000
1000
0001
0000
0000
0100
0000
0100
0000
,  // measure 88
0010
1000
0010
1000
0100
1000
0100
1000
0001
1000
0001
1000
0100
1000
0100
1000
,  // measure 89
0001
0100
0001
0100
0001
0010
0001
0010
0001
1000
0001
1000
0001
0100
0001
0100
,  // measure 90
0001
0000
0000
0000
,  // measure 91
0001
0100
0010
1000
0010
0100
0001
1000
0100
0000
0000
1001
0000
0000
0101
0000
,  // measure 92
0000
1001
0000
0000
0110
0000
1000
0000
0001
0000
0000
0000
0000
0000
0000
0000
;
