#TITLE:The Girl;
#SUBTITLE:feat. Cozi Zuehlsdorff;
#ARTIST:Hellberg;
#TITLETRANSLIT:;
#SUBTITLETRANSLIT:;
#ARTISTTRANSLIT:;
#GENRE:;
#CREDIT:;
#BANNER:;
#BACKGROUND:;
#LYRICSPATH:;
#CDTITLE:;
#MUSIC:The Girl.ogg;
#OFFSET:-0.092292;
#SAMPLESTART:68.628998;
#SAMPLELENGTH:14.000000;
#LASTBEATHINT:227.970047;
#SELECTABLE:YES;
#DISPLAYBPM:125.000000;
#BPMS:0.000000=63.025375
,40.000000=31.512186
,48.000000=126.050751
,112.000000=63.025375
,128.000000=126.050751
,224.000000=63.025394
;
#STOPS:
;
#BGCHANGES:;
#KEYSOUNDS:;
#ATTACKS:;

//---------------dance-single - ----------------
#NOTES:
     dance-single:
     :
     Hard:
     11:
     0.446667,0.485333,0.293333,0.173333,0.273333,469.000000,425.000000,44.000000,26.000000,0.000000,0.000000,0.446667,0.485333,0.293333,0.173333,0.273333,469.000000,425.000000,44.000000,26.000000,0.000000,0.000000:
// measure 0
0000
0000
0000
0000
,  // measure 1
0000
0000
0000
0000
,  // measure 2
2000
0000
0100
0010
3002
0000
0100
0010
,  // measure 3
2003
0000
3001
0000
0010
1000
0001
0100
,  // measure 4
0002
0000
1003
0010
0200
0000
0301
0010
,  // measure 5
0200
0000
1300
0000
0010
0100
0001
1000
,  // measure 6
0010
0000
1000
0100
0001
1000
0100
1000
,  // measure 7
0010
0010
0020
0000
1030
1000
2000
0000
3100
0100
0200
0000
0301
0001
0001
0000
,  // measure 8
0100
0000
1000
0010
0100
0001
0010
0000
,  // measure 9
1000
0001
1000
0000
0010
1000
0001
0000
1000
0001
0100
0000
0000
0000
0000
0000
,  // measure 10
0020
0000
2030
0000
3002
0000
0103
0010
,  // measure 11
2000
0000
3002
0000
0203
0000
0310
0100
,  // measure 12
1001
0000
0000
0000
0100
0000
0000
0000
1000
0000
0000
0000
0010
0000
0000
1000
,  // measure 13
0100
0000
0000
0000
0010
0000
0000
0001
0100
0000
0000
0000
0010
0000
0000
0000
,  // measure 14
0101
0000
0000
0000
0010
0000
0000
0000
1000
0000
0000
0000
0100
0000
0000
0010
,  // measure 15
0001
0000
0000
0000
0100
0000
0000
0010
1000
0000
0000
0000
0110
0000
0000
0000
,  // measure 16
1000
0100
0010
0001
0010
0100
1000
0010
,  // measure 17
0001
0010
0100
1000
0100
0001
0100
0010
,  // measure 18
0001
0010
1000
0001
0010
0001
0100
0010
,  // measure 19
1000
0100
1000
0001
0010
0100
1000
0001
,  // measure 20
1001
0000
1000
0000
1100
0000
0100
0000
0110
0000
0010
0000
0011
0000
0001
0010
,  // measure 21
0000
0010
0100
0000
0100
1000
0000
1000
0100
0000
0010
0100
0000
0000
0001
0000
,  // measure 22
0011
0000
0010
0000
0110
0000
0100
0000
1100
0000
1000
0000
1001
0000
1000
0100
,  // measure 23
0000
0100
0010
0000
0010
0001
0000
0001
1000
0000
1000
0001
0000
0010
0100
0000
,  // measure 24
0110
0000
0100
0000
0101
0000
0100
0000
1100
0000
0100
0000
0101
0000
0001
0100
,  // measure 25
0000
1000
0100
0000
0001
0100
0000
0010
0001
0000
0010
0100
0000
0000
1001
0000
,  // measure 26
0110
0000
0010
0000
1010
0000
0010
0000
0011
0000
0010
0000
1010
0000
1000
0010
,  // measure 27
0000
0001
0010
0000
1000
0010
0000
0001
0010
0000
0010
0200
0000
0000
0301
0000
,  // measure 28
0020
0000
0000
0000
1000
1000
1030
0000
0002
0000
0000
0000
0010
0010
0013
0000
,  // measure 29
2000
0000
0000
0000
0001
0001
3001
0000
0200
0000
0000
0000
0320
0000
0000
0000
,  // measure 30
0032
0000
0000
0000
1000
1000
1003
0000
0200
0000
0000
0000
0010
0010
0310
0000
,  // measure 31
2000
0000
0000
0000
0001
0001
3001
0000
0020
0000
0000
0000
2030
0000
0000
0000
,  // measure 32
3001
0000
0000
0000
0100
0000
0000
0010
1000
0000
0000
0000
0100
0000
0000
0010
,  // measure 33
0001
0000
0000
0000
0100
0000
0000
0010
1000
0000
0000
0000
0100
0000
0000
0010
,  // measure 34
0001
0000
0000
0000
0100
0000
0000
0010
1000
0000
0000
0000
0100
0000
0000
0010
,  // measure 35
0001
0000
0000
0000
0100
0000
0000
0010
1000
0000
0000
0000
0100
0000
0010
0001
,  // measure 36
1000
0001
0100
0001
1000
0001
0100
0001
,  // measure 37
1000
0001
1000
0100
1000
0001
1000
0100
,  // measure 38
1000
0001
0010
0100
1000
0100
0010
0001
,  // measure 39
0100
0010
1000
0001
0100
0010
1000
0001
,  // measure 40
1100
0000
1000
0000
1001
0000
0001
0000
0101
0000
0001
0000
0011
0000
1000
0100
,  // measure 41
0000
1000
0001
0000
0100
0001
0000
0010
0001
0000
0001
0100
0000
0000
1000
0000
,  // measure 42
0011
0000
0001
0000
0110
0000
0100
0000
1100
0000
1000
0000
1010
0000
0001
0010
,  // measure 43
0000
0100
0010
0000
1000
0100
0000
1000
0010
0000
0010
0100
0000
0000
0010
0000
,  // measure 44
1001
0000
0100
0000
0110
0000
0100
0000
1001
0000
0010
0000
0110
0000
0010
0001
,  // measure 45
0000
0010
0100
0000
0010
1000
0000
1000
0100
0000
0010
0100
0000
0000
0001
0000
,  // measure 46
0011
0100
1100
0010
1010
0100
0101
1000
,  // measure 47
0001
0100
0001
0100
0001
0000
0010
0000
1000
0100
1000
0100
1000
0000
0010
0000
,  // measure 48
1100
0000
1000
0000
1010
0000
1000
0000
1001
0000
1000
0000
1100
0000
0001
0010
,  // measure 49
0000
0001
1000
0000
0001
0100
0000
0001
0010
0000
0001
0100
0000
0000
0010
0000
,  // measure 50
0011
0000
0001
0000
0101
0000
0001
0000
1001
0000
0001
0000
0011
0000
1000
0100
,  // measure 51
0000
1000
0010
0000
1000
0001
0000
1000
0100
0000
0010
0100
0000
0000
0001
0000
,  // measure 52
1000
0010
0100
0001
0010
0100
1000
0001
,  // measure 53
0100
0001
0010
0001
1000
0100
1000
0010
,  // measure 54
0001
0010
0100
0000
0010
0100
1000
0000
1000
0100
0010
0000
0100
0010
0001
1000
,  // measure 55
0000
0000
0100
0000
0010
0100
0000
0000
0001
0000
0010
0100
0000
0000
1000
0000
,  // measure 56
0010
0000
0000
0000
;
