#TITLE:The Cyber Grind -ULTRAKILL-;
#SUBTITLE:;
#ARTIST:Meganeko;
#TITLETRANSLIT:;
#SUBTITLETRANSLIT:;
#ARTISTTRANSLIT:;
#GENRE:;
#CREDIT:;
#BANNER:;
#BACKGROUND:;
#LYRICSPATH:;
#CDTITLE:;
#MUSIC:The Cyber Grind -ULTRAKILL-.mp3;
#OFFSET:1.107159;
#SAMPLESTART:101.197998;
#SAMPLELENGTH:14.000000;
#LASTBEATHINT:477.956055;
#SELECTABLE:YES;
#DISPLAYBPM:190.000000;
#BPMS:0.000000=190.020004
,60.000000=95.010002
,62.000000=190.020004
,95.000000=380.040009
,96.000000=190.020004
,191.000000=380.040009
,192.000000=190.020004
,222.000000=380.040009
,223.000000=190.020004
,253.000000=380.040009
,254.000000=190.020004
,317.000000=380.040009
,319.000000=190.020004
,439.000000=380.040009
,455.000000=95.010002
;
#STOPS:62.000000=0.079000,
63.250000=0.079000,
64.500000=0.158000,
93.000000=0.118000,
93.375000=0.118000,
94.250000=0.118000,
94.625000=0.118000,
191.000000=0.158000,
220.000000=0.118000,
220.375000=0.118000,
221.250000=0.118000,
221.625000=0.118000,
251.000000=0.118000,
251.375000=0.118000,
252.250000=0.118000,
252.625000=0.118000
;
#BGCHANGES:;
#KEYSOUNDS:;
#ATTACKS:;

//---------------dance-single - ----------------
#NOTES:
     dance-single:
     :
     Challenge:
     18:
     0.877260,1.070958,0.627254,0.238357,0.903246,979.000000,879.000000,100.000000,38.000000,100.000000,0.000000,0.877260,1.070958,0.627254,0.238357,0.903246,979.000000,879.000000,100.000000,38.000000,100.000000,0.000000:
// measure 0
0000
0000
0000
0000
,  // measure 1
0000
0000
0000
0000
,  // measure 2
0000
0000
0000
0000
,  // measure 3
0000
0000
0000
0000
,  // measure 4
0000
0000
0000
0000
,  // measure 5
0000
0000
0000
0000
,  // measure 6
0000
0000
0000
0000
,  // measure 7
0000
0000
0000
0000
,  // measure 8
0000
0000
0000
0000
,  // measure 9
1000
0100
0010
0100
0001
0100
0010
0100
,  // measure 10
1000
0100
0010
0100
0001
0100
0010
0100
,  // measure 11
1000
0010
0100
0010
0001
0010
0100
0010
,  // measure 12
1000
0010
0100
0010
0001
0010
0100
0010
,  // measure 13
4000
0000
0000
0000
0000
0000
0000
3000
0040
0000
0000
0000
0000
0000
0000
0030
,  // measure 14
0400
0000
0000
0000
0000
0000
0000
0300
0004
0000
0000
0000
0000
0000
0000
0003
,  // measure 15
0100
0000
0000
0000
0000
0000
0000
0000
0001
0100
0010
0100
0010
1000
0100
0010
,  // measure 16
0100
0010
0001
0000
1001
0000
0000
1000
0100
0000
0010
0001
0000
0100
0001
0000
,  // measure 17
1000
0000
0010
0000
0101
0000
0000
0001
1000
0000
0100
0010
0000
0100
1000
0000
,  // measure 18
0010
0000
0001
0100
0001
0000
0000
0100
1000
0000
0100
0010
0000
0001
0100
0000
,  // measure 19
1000
0000
0010
0000
1100
0000
0000
0010
0100
0000
1000
0100
0000
0001
1000
0000
,  // measure 20
0001
0000
1000
0010
0100
0000
0000
1000
0100
0000
0100
0010
0000
0010
0001
0000
,  // measure 21
0100
0000
0010
0000
0110
0000
0000
0001
0100
0000
0010
0100
0000
0010
1000
0000
,  // measure 22
0010
0000
1000
0001
0100
0000
0000
0001
1000
0000
1000
0001
0000
0100
0001
0000
,  // measure 23
1001
0000
0000
0000
0000
0000
0000
0000
0011
0000
0000
0011
0000
0000
0101
0000
0000
0000
1001
0000
0000
1001
0000
0000
1010
0000
0000
0000
0000
0000
0000
0000
,  // measure 24
1100
0000
0000
0001
0100
0000
0001
1000
0000
1000
0001
0000
1000
0000
0100
0000
,  // measure 25
1100
0000
0000
1000
0001
0000
0100
0001
0000
0010
0001
0000
1001
0000
0001
0100
,  // measure 26
0001
0000
0000
0100
1000
0000
1000
0010
0000
0010
0100
0000
0001
0000
0100
0000
,  // measure 27
1010
0000
0000
0100
0001
0000
0010
1000
0000
1000
0100
0000
1001
0000
0000
0000
,  // measure 28
1001
0000
0000
0100
0001
0000
0001
0100
0000
0010
1000
0000
1000
0000
0010
0000
,  // measure 29
1000
0000
0010
0100
0010
0100
0010
0100
0000
0001
1000
0000
0001
0100
0001
0000
,  // measure 30
1001
0000
0000
0000
0011
0000
1001
0000
0000
0000
1100
0000
1001
0000
0001
0010
,  // measure 31
0100
0100
0010
0100
0000
0100
0110
0000
,  // measure 32
2000
0000
0000
3200
0000
0000
0320
0000
0000
0032
0000
0000
0103
0000
0001
0010
,  // measure 33
0200
0000
0000
2300
0000
0000
3020
0000
0000
0230
0000
0000
0301
0000
1000
0000
,  // measure 34
0200
0000
0000
0320
0000
0000
0230
0000
0000
2300
0000
0000
3100
0000
0001
1000
,  // measure 35
0200
0000
0000
0320
0000
0000
2030
0000
0000
3020
0000
0000
0031
0000
0100
0000
,  // measure 36
2000
0000
0000
3200
0000
0000
2300
0000
0000
3020
0000
0000
0130
0000
0010
1000
,  // measure 37
0002
0000
0000
0203
0000
0000
0302
0000
0000
0023
0000
0000
0130
0000
0001
0000
,  // measure 38
2000
0000
0000
3200
0000
0000
2300
0000
0000
3020
0000
0000
0130
0000
0001
1000
,  // measure 39
0002
0000
0000
0203
0000
0000
0302
0000
0000
0013
0000
0000
1000
0100
0010
0100
,  // measure 40
0010
0000
0000
1000
0100
0000
0010
0001
0000
0001
0100
0000
1000
0000
0001
1000
,  // measure 41
0100
0000
0000
0010
1000
0000
0010
0100
0000
0010
0001
0000
0100
0010
0100
0010
,  // measure 42
0100
0000
0000
0010
1000
0000
1000
0100
0000
0100
0001
0000
1000
0000
0010
1000
,  // measure 43
0010
0000
0000
0100
0010
0000
0001
0100
0000
0001
1000
0000
0001
0010
0001
0010
,  // measure 44
0001
0000
0000
1000
0000
0000
0100
0000
0000
0010
0000
0000
0001
0000
1000
0000
,  // measure 45
0100
0000
0000
0010
0000
0000
0100
0000
0000
1000
0000
0000
0010
0000
1000
0000
,  // measure 46
0001
0000
0000
1100
0000
0000
1001
0000
0000
0101
0000
0000
1000
0100
1000
0100
,  // measure 47
1000
0001
0100
0001
0010
0001
0100
0001
1000
0000
0000
0000
0010
0000
0000
0000
,  // measure 48
1100
0000
0000
0100
0010
0000
1100
0000
1100
0000
0000
0100
0010
0000
1100
0000
,  // measure 49
1100
0000
0000
0100
0001
0000
0100
0000
0000
0100
0001
0000
0100
0000
0000
0000
,  // measure 50
0011
0000
0000
0100
0001
0000
0011
0000
0011
0000
0000
0100
0001
0000
0011
0000
,  // measure 51
0100
0000
0000
0100
0000
0000
0100
0000
1000
0000
0000
1000
0000
0000
1000
0000
,  // measure 52
0101
0000
0000
0001
0010
0000
0101
0000
0101
0000
0000
0001
0010
0000
1001
0000
,  // measure 53
1100
0000
0000
0100
1000
0000
0100
0000
0000
0100
1000
0000
0100
0000
0000
0000
,  // measure 54
1010
0000
1000
0100
1000
0100
1000
0000
0010
0100
0010
0100
0010
0000
0000
0000
,  // measure 55
0011
0000
0000
0011
0000
0000
0011
0000
0000
0000
1001
0000
0000
1001
0000
0000
1010
0000
0000
0000
0000
0000
0000
0000
1100
0000
0000
0000
0000
0000
0100
0000
,  // measure 56
0010
0000
1100
0000
0101
0000
0000
0100
0010
0000
0101
0000
1100
0000
0000
1000
,  // measure 57
0010
0000
1100
0000
0000
1000
0010
0000
0101
0000
0000
0000
0011
0000
0000
0010
,  // measure 58
0100
0000
0011
0000
1010
0000
0000
0010
0100
0000
1010
0000
0100
0000
0000
0100
,  // measure 59
0000
0000
0100
0000
0001
0000
0000
0001
0000
0000
0001
0000
1001
0000
0000
0100
,  // measure 60
0010
0000
1001
0000
1001
0000
0000
0010
0100
0000
1001
0000
0110
0000
0000
1000
,  // measure 61
0001
0000
0101
0000
0000
0010
1000
0000
1100
0000
0000
0000
0001
0010
0001
0010
,  // measure 62
0100
0000
0000
0000
0010
0000
0100
0000
0010
0000
0100
0000
1000
0000
0000
0000
1000
0000
0100
0000
1000
0000
0100
0000
0010
0000
0000
0011
0000
0000
0011
0000
,  // measure 63
0000
0000
1001
0000
0000
1001
0000
0000
1010
0000
0000
0000
0000
0000
0000
0000
1000
0000
0000
0000
0100
0000
0000
0000
0010
0000
0000
0000
0100
0000
0000
0000
,  // measure 64
1000
0100
0010
0100
0001
0100
0010
0100
,  // measure 65
1000
0100
0010
0001
0100
1000
0100
0001
,  // measure 66
0100
1000
0010
0001
0010
1000
0010
0001
,  // measure 67
0010
1000
0100
0001
0100
1000
0001
0100
,  // measure 68
0001
1000
0001
0100
0001
0010
0001
1000
,  // measure 69
0001
0100
0001
1000
0100
1000
0010
1000
,  // measure 70
0100
1000
0001
1000
0010
1000
0100
1000
,  // measure 71
0001
1000
0010
0100
1001
0000
1100
0000
,  // measure 72
1001
0011
1001
1100
,  // measure 73
1001
0011
1001
0101
,  // measure 74
1001
1010
1001
0101
,  // measure 75
1001
1010
1001
0110
,  // measure 76
1000
0100
0010
0001
0100
0010
1000
0100
,  // measure 77
0010
0000
0001
0000
0110
0000
0000
0000
1001
0000
0000
0000
0100
0000
0000
0010
,  // measure 78
0100
0000
0000
0100
0000
0000
1001
0000
0000
0000
0000
0000
1000
0010
1000
0010
0100
0001
0100
0001
1000
0001
1000
0001
,  // measure 79
1000
0000
0010
0000
1000
0000
0010
0000
0100
0000
0001
0000
0010
0000
0000
0000
0000
0000
0000
0000
0000
0000
0000
0000
0000
0000
0000
0000
0000
0000
0000
0000
0000
0000
0000
0000
1000
0000
0000
0000
0000
0000
0100
0000
0000
000M
0000
0000
,  // measure 80
0100
M000
0010
0000
0M01
0000
1000
00M0
0100
0000
M001
0000
01M0
0000
100M
0000
,  // measure 81
0010
0M00
1000
0000
00M1
0000
0100
M000
0010
0000
0001
0M00
0010
0000
1000
0000
,  // measure 82
0M01
0000
M100
0000
0010
000M
1000
0M00
0001
0000
01M0
M000
0001
0000
1M00
0000
,  // measure 83
0010
0000
100M
0000
0100
0000
001M
M000
0100
M00M
0100
00M0
0001
M000
0100
00M0
,  // measure 84
0100
000M
M010
0000
0M01
0000
1000
00M0
0100
0000
M01M
0000
1000
0000
01M0
0000
,  // measure 85
1000
0000
0M01
0000
0010
M000
0001
0000
0100
0000
M010
000M
1000
0M00
0010
0000
,  // measure 86
M001
0000
0010
0000
010M
0000
M010
0000
0M01
0000
0010
1000
010M
0000
0100
M000
,  // measure 87
00M1
0000
0100
00M0
1000
0000
00M1
0000
M100
000M
01M0
0000
M101
0000
0010
0000
,  // measure 88
0M01
M000
0010
0000
M100
0000
0001
0000
0M10
M000
0001
0000
10M0
0000
0100
000M
,  // measure 89
1000
0000
001M
0000
0100
M000
0001
0000
0M10
0000
M001
0000
0M10
0000
100M
0000
,  // measure 90
0M10
0000
0001
M000
01M0
000M
0010
0000
100M
0000
0100
M000
00M1
0000
0100
0000
,  // measure 91
100M
0000
0010
0000
1M00
0000
001M
0000
0100
M000
0100
00M0
0001
0000
0M10
M000
,  // measure 92
0010
000M
0100
000M
1000
00M0
0100
000M
0010
M000
0100
000M
1000
00M0
0100
0000
,  // measure 93
0001
M000
0100
00M0
1000
0000
0010
0M00
0001
M000
0010
0000
100M
0000
0100
0000
,  // measure 94
0010
M000
0100
000M
1000
00M0
0100
0000
00M1
M000
0100
0000
1000
01M0
100M
0000
,  // measure 95
1000
00M0
0001
0100
0001
M000
0001
00M0
0100
0000
0010
0000
1000
0010
1000
0010
,  // measure 96
1000
0000
0000
0000
0001
0000
0100
0001
0100
0001
0100
0000
0001
0000
1000
0100
,  // measure 97
1000
0100
1000
0001
0100
0001
0100
0001
0100
0000
0000
0000
0001
0010
0001
0010
,  // measure 98
0001
0000
0000
0000
1000
0000
0100
0010
0100
0010
0100
0000
0001
0000
1000
0001
,  // measure 99
1000
0001
1000
0100
0010
0001
0100
0010
0200
0000
0000
0000
0301
0100
0010
1000
,  // measure 100
0100
0000
0000
0000
1000
0000
1000
0010
0100
0001
0100
0000
0001
0000
0001
0010
,  // measure 101
0100
1000
0100
0010
0001
0010
0100
1000
0100
0000
0000
0000
0001
1000
0001
0100
,  // measure 102
1000
0000
0000
0000
0001
0000
1000
0100
0001
0100
1000
0000
0001
0000
1000
0010
,  // measure 103
0001
0010
1000
0100
0001
0100
1000
0010
0002
0000
0000
0000
1003
0001
0100
0001
,  // measure 104
0202
0000
0300
0000
1003
0000
1000
0010
1000
0100
1000
0000
0010
0000
1000
0001
,  // measure 105
0100
0001
0010
0100
1000
0100
1000
0000
2100
0000
0000
0000
3001
0100
0010
1000
,  // measure 106
1020
0000
0000
0000
0130
0000
1000
0100
0010
0001
0100
0000
0001
0000
0001
0010
,  // measure 107
1000
0010
0001
0100
0010
1000
0001
0000
2001
0000
0000
0000
3001
0100
0001
0100
,  // measure 108
0001
0000
0000
0000
0011
0000
1000
0100
1000
0100
1000
0000
1100
0000
0010
0100
,  // measure 109
0001
1000
0010
0100
0001
0100
1000
0100
0010
0000
0000
0000
4004
0000
0000
0000
,  // measure 110
0000
0000
0000
0000
,  // measure 111
0000
0000
0000
0000
,  // measure 112
0000
0000
0000
3003
,  // measure 113
0000
0000
0000
0000
0110
0000
0000
0000
0000
0000
0000
0000
1000
0000
0000
0010
,  // measure 114
0000
0100
0000
0001
0000
0000
0010
0000
0100
0000
1000
0000
0010
0000
0000
0100
,  // measure 115
0000
0010
0000
1000
0000
0000
0100
0000
0010
0000
0100
0000
0001
0000
0000
0010
,  // measure 116
0000
0100
0000
1000
0000
0000
0001
0000
1000
0000
0100
0000
1000
0000
0000
0010
,  // measure 117
0000
0100
0000
0001
0000
0000
0100
0000
0010
0000
1000
0000
0001
0000
0000
0000
;
