#VERSION:0.83;
#TITLE:Song 2;
#SUBTITLE:;
#ARTIST:Blur;
#TITLETRANSLIT:;
#SUBTITLETRANSLIT:;
#ARTISTTRANSLIT:;
#GENRE:Rock;
#ORIGIN:;
#CREDIT:;
#BANNER:;
#BACKGROUND:;
#PREVIEWVID:;
#JACKET:Song 2.jpg;
#CDIMAGE:;
#DISCIMAGE:;
#LYRICSPATH:./Song 2.lrc;
#CDTITLE:;
#MUSIC:Song 2.mp3;
#OFFSET:0.219666;
#SAMPLESTART:45.514999;
#SAMPLELENGTH:10.000000;
#SELECTABLE:YES;
#DISPLAYBPM:130.000000;
#BPMS:0.000=129.734;
#STOPS:;
#DELAYS:;
#WARPS:;
#TIMESIGNATURES:0.000=4=4;
#TICKCOUNTS:0.000=4;
#COMBOS:0.000=1;
#SPEEDS:0.000=1.000=0.000=0;
#SCROLLS:0.000=1.000;
#FAKES:;
#LABELS:0.000=Song Start;
#BGCHANGES:0.000=Song 2.mp4=1.000=0=0=1=====,
99999=-nosongbg-=1.000=0=0=0 // don't automatically add -songbackground-
;
#KEYSOUNDS:;
#ATTACKS:
;

//---------------dance-single - ----------------
#NOTEDATA:;
#CHARTNAME:;
#STEPSTYPE:dance-single;
#DESCRIPTION:;
#CHARTSTYLE:;
#DIFFICULTY:Hard;
#METER:13;
#RADARVALUES:0.670724,0.850674,0.785238,0.114514,0.155412,574.000000,478.000000,96.000000,14.000000,0.000000,0.000000,0.000000,0.000000,0.000000,0.670724,0.850674,0.785238,0.114514,0.155412,574.000000,478.000000,96.000000,14.000000,0.000000,0.000000,0.000000,0.000000,0.000000;
#CREDIT:OpenITG3;
#DISPLAYBPM:130.000000;
#NOTES:
// measure 0
0000
0000
0000
0000
,  // measure 1
0000
0000
0000
0000
,  // measure 2
0000
0000
0000
0000
,  // measure 3
0000
0000
0000
0000
,  // measure 4
0000
0000
0000
0000
,  // measure 5
1000
0000
0100
0000
1000
0000
0001
0100
0001
0000
1000
0000
1000
0000
0001
0100
,  // measure 6
0001
1000
1100
1002
0000
0010
0010
0013
,  // measure 7
0000
0000
0001
0000
1001
0000
0010
1000
0010
0000
1000
0000
1000
0000
1000
0001
,  // measure 8
0100
0001
0101
0012
0000
1000
1000
1003
,  // measure 9
0010
0100
0001
0100
0010
1000
0100
0010
,  // measure 10
0001
0100
0001
2000
0000
0010
0010
3010
,  // measure 11
0100
0001
1000
0001
0010
0100
1000
0100
,  // measure 12
0010
0001
0100
0020
0000
0100
0100
0130
,  // measure 13
0001
1000
0001
1000
0100
1000
0100
1000
,  // measure 14
0010
0100
0001
0200
0000
0001
0001
0301
,  // measure 15
1000
0000
0100
0000
1000
0000
0010
0100
0010
0000
0100
0000
0001
0000
0100
0010
,  // measure 16
0100
0001
1000
0100
0010
0001
0011
0000
,  // measure 17
0100
0000
0000
0000
1001
0000
0000
1000
0100
0000
0000
0000
1001
0000
0000
0001
,  // measure 18
0100
0000
0010
0002
0000
1003
1001
0001
,  // measure 19
0100
0000
0000
0000
0101
0000
0000
1000
0100
0000
0000
0000
1100
0000
0000
0100
,  // measure 20
0001
0000
0010
0200
0000
0310
0110
0100
,  // measure 21
0001
0000
0000
0000
1100
0000
0000
0100
0001
0000
0000
0000
0101
0000
0000
0010
,  // measure 22
1000
0100
0010
0002
0000
1000
0100
0103
,  // measure 23
0000
0000
1000
0000
0100
0000
0010
0001
0010
0000
0100
0000
0100
0000
1000
0010
,  // measure 24
1000
1000
0100
0100
0010
0010
0011
0000
,  // measure 25
1001
0100
0001
0100
1001
0100
0001
0100
,  // measure 26
1001
0001
0010
1100
0000
1100
1100
1100
,  // measure 27
1001
0100
0001
0100
1001
0100
0001
0100
,  // measure 28
1001
1000
0010
0101
0000
0101
0101
0101
,  // measure 29
1100
1000
0010
1000
1100
1000
0010
1000
,  // measure 30
1100
1000
1010
1001
0000
0110
0110
0110
,  // measure 31
0101
0000
0001
0000
0001
0000
1000
0100
1000
0000
0010
0000
0100
0000
0001
0100
,  // measure 32
0001
0000
1000
0010
1000
0000
0100
0010
0100
0000
0001
0010
0001
0000
1000
0020
,  // measure 33
0100
0100
0100
0100
0100
0100
0100
0100
,  // measure 34
0100
0100
0100
0130
0010
0010
0010
0010
,  // measure 35
1000
0100
1001
0100
0001
0100
1001
0100
,  // measure 36
1000
0100
1001
0100
0001
0100
1001
0000
,  // measure 37
0011
0011
0101
0101
1001
1001
1100
1100
,  // measure 38
1010
1010
0110
0110
0110
0110
0110
0110
,  // measure 39
0000
0000
1000
0000
0100
0000
0000
0001
0100
0000
0001
0000
0010
0000
0000
1000
,  // measure 40
0100
0100
1000
0110
0000
0010
0010
0010
,  // measure 41
0000
0000
0001
0000
0100
0000
0000
1000
0010
0000
0010
0000
0001
0000
0000
0001
,  // measure 42
0100
0100
1000
0010
0100
0010
0010
0010
,  // measure 43
0000
0000
0001
0000
0100
0000
0000
0010
0100
0000
0100
0000
0010
0000
1000
0000
,  // measure 44
0100
0010
0001
0100
0001
0001
0001
0001
,  // measure 45
0000
0000
1001
0000
1001
0000
1000
0010
0100
0000
0100
0000
0100
0000
0100
0010
,  // measure 46
0001
0001
0010
0010
0100
0100
1000
1000
,  // measure 47
1001
0100
1000
0100
1001
0100
0001
0100
,  // measure 48
1001
0100
0001
0010
0100
1000
1000
1000
,  // measure 49
1001
0100
0001
0100
1001
0100
1000
0100
,  // measure 50
1001
1000
0010
0100
0001
0001
0001
0001
,  // measure 51
1001
0010
0100
0010
1001
0100
0010
0100
,  // measure 52
0001
0001
1000
1000
0010
0010
0100
0100
,  // measure 53
0001
1000
0001
0000
0001
0000
0001
0000
0001
1000
0001
0000
1001
0000
1001
0000
,  // measure 54
1000
0100
1000
0000
1000
0001
1000
0000
1000
0010
1000
0000
1000
0100
1000
0020
,  // measure 55
0100
0100
0100
0100
0100
0100
0100
0100
,  // measure 56
0100
0100
0100
0100
1000
1030
0010
0010
,  // measure 57
1100
1100
0010
0010
1100
1100
0010
0010
,  // measure 58
1100
1100
0001
0001
0200
0001
0001
0301
,  // measure 59
0101
0101
0010
0010
0101
0101
0010
0010
,  // measure 60
0101
0101
1000
0200
1000
1000
1000
1300
,  // measure 61
0001
0100
0001
0000
1000
0100
1000
0000
0001
0010
0001
0000
1000
0010
1000
0000
,  // measure 62
0100
0100
1001
0010
0010
0010
0010
0010
,  // measure 63
1100
0100
0110
0010
0011
0001
0101
0100
,  // measure 64
1001
1001
1100
1100
1010
1010
0110
0220
,  // measure 65
0330
0000
0000
0000
;
