#VERSION:0.83;
#TITLE:Run To Me;
#SUBTITLE:;
#ARTIST:Double You;
#TITLETRANSLIT:;
#SUBTITLETRANSLIT:;
#ARTISTTRANSLIT:;
#GENRE:Techno;
#ORIGIN:;
#CREDIT:;
#BANNER:;
#BACKGROUND:;
#PREVIEWVID:;
#JACKET:jacket.jpg;
#CDIMAGE:;
#DISCIMAGE:;
#LYRICSPATH:;
#CDTITLE:;
#MUSIC:Run To Me.mp3;
#OFFSET:-0.118212;
#SAMPLESTART:58.408001;
#SAMPLELENGTH:14.598000;
#SELECTABLE:YES;
#DISPLAYBPM:130.000000;
#BPMS:0.000=129.990;
#STOPS:;
#DELAYS:;
#WARPS:;
#TIMESIGNATURES:0.000=4=4;
#TICKCOUNTS:0.000=4;
#COMBOS:0.000=1;
#SPEEDS:0.000=1.000=0.000=0;
#SCROLLS:0.000=1.000;
#FAKES:;
#LABELS:0.000=Song Start;
#BGCHANGES:;
#KEYSOUNDS:;
#ATTACKS:
;

//---------------dance-single - ----------------
#NOTEDATA:;
#CHARTNAME:;
#STEPSTYPE:dance-single;
#DESCRIPTION:;
#CHARTSTYLE:;
#DIFFICULTY:Hard;
#METER:12;
#RADARVALUES:0.555961,0.582187,0.146726,0.258517,0.356334,557.000000,536.000000,21.000000,37.000000,0.000000,0.000000,0.000000,0.000000,0.000000,0.555961,0.582187,0.146726,0.258517,0.356334,557.000000,536.000000,21.000000,37.000000,0.000000,0.000000,0.000000,0.000000,0.000000;
#CREDIT:;
#DISPLAYBPM:130.000000;
#NOTES:
// measure 0
0000
0000
0000
0000
,  // measure 1
0000
0000
0000
0000
,  // measure 2
0000
0000
0000
0000
,  // measure 3
0000
0000
0000
0000
,  // measure 4
2100
0010
0010
0001
,  // measure 5
0001
0100
0100
3001
,  // measure 6
0102
0010
0010
0100
,  // measure 7
1003
0100
0000
0010
0100
0000
0010
0000
0001
0000
0000
0000
0100
0000
0000
0000
,  // measure 8
0001
0100
0001
1000
0100
1000
0100
0000
,  // measure 9
0010
0100
0010
1000
0100
0010
0001
0000
,  // measure 10
1000
0010
0100
0000
0001
0100
0010
0100
,  // measure 11
0001
0100
0010
1000
0100
1000
0010
0000
,  // measure 12
1000
0100
0010
0100
1000
0000
0001
0000
,  // measure 13
0001
0000
0100
0000
0010
0000
1000
0000
0100
0010
0000
0001
0000
0000
0000
1000
,  // measure 14
0100
0010
0100
0000
0001
0010
0100
0010
,  // measure 15
0100
0000
1000
0000
0100
0000
0010
0000
0001
0010
0001
0000
0100
0000
0010
0000
,  // measure 16
1000
0000
0000
1100
0000
0000
1001
0000
0001
0000
0000
0101
0000
0000
1001
0000
,  // measure 17
1000
0000
0000
1100
0000
0000
1010
0000
0010
0100
0001
0000
0100
0000
0001
0000
,  // measure 18
0100
0000
0000
0110
0000
0000
0001
0000
0101
0000
0000
0110
0000
0000
1000
0000
,  // measure 19
1001
0000
0000
1000
0000
0000
1010
0000
0100
0001
1000
0000
0100
0000
0010
0000
,  // measure 20
0001
0000
1000
0001
0000
0000
0100
0000
0010
0000
1000
0010
0000
0000
0100
0000
,  // measure 21
0001
0000
0010
0100
0000
0000
1000
0000
0100
0010
0001
0000
0100
0000
0010
1000
,  // measure 22
0001
0000
1000
0001
0000
1000
0001
0000
0100
0000
0010
0100
0000
0010
0100
0000
,  // measure 23
0001
0000
0100
0010
0000
1000
0001
0000
1000
0100
1000
0000
0100
0000
0010
1000
,  // measure 24
0001
0000
1000
0100
0000
0000
0010
0000
0001
0000
1000
0100
0000
0000
0010
0000
,  // measure 25
1000
0000
0100
0001
0000
0000
0100
0000
0010
1000
0010
0000
0100
0000
0001
0000
,  // measure 26
0100
0000
1000
0010
0000
0000
0100
0000
0001
0000
0010
0100
0000
0000
0100
0000
,  // measure 27
1000
0000
0100
0010
0000
0100
0010
0000
0001
0100
0001
0000
1000
0000
0100
0000
,  // measure 28
0010
0000
0000
1100
0000
0000
0100
0000
0011
0000
0000
0001
0000
0000
0101
0000
,  // measure 29
1000
0000
0000
1100
0000
0000
0100
0000
0010
0001
0100
0000
0010
0000
1000
0000
,  // measure 30
0100
0000
0000
0110
0000
0000
0001
0000
0011
0000
0000
0100
0000
0000
0010
0000
,  // measure 31
2002
0000
3003
0000
,  // measure 32
1000
0100
0010
0001
1000
0100
0010
0001
,  // measure 33
0100
0001
0100
0001
1000
0010
0100
0001
,  // measure 34
0200
0000
0302
0000
0013
0001
0100
1000
,  // measure 35
0020
2030
0002
3003
,  // measure 36
0100
0010
1000
0001
0100
0010
1000
0001
,  // measure 37
1000
0100
0010
0001
0100
0001
0010
0100
,  // measure 38
2000
0000
3020
0000
0031
0100
0001
1000
,  // measure 39
0200
2300
3020
0032
,  // measure 40
1003
0000
0000
0100
0000
0000
1000
0000
0000
0010
0000
0000
0001
0000
2000
0000
,  // measure 41
0002
0000
3003
0000
,  // measure 42
1000
0100
0001
0100
1000
0100
0001
0100
,  // measure 43
1000
0010
0001
0010
1000
0010
0001
0000
,  // measure 44
1000
1000
1000
0100
0010
0010
0001
1000
,  // measure 45
0001
0000
0001
0000
0010
0000
0010
0000
0100
1000
0000
1000
0100
0000
0010
0000
,  // measure 46
0001
0100
0001
0100
1000
0100
1000
0100
,  // measure 47
0001
0010
0001
0010
1000
0010
1000
0010
,  // measure 48
0001
0001
0100
0100
0010
0010
1000
1000
,  // measure 49
0100
0010
0001
0100
0001
0100
1001
0000
,  // measure 50
1000
0000
1000
0000
0001
0000
0001
0000
1000
0100
0000
0100
0000
0100
1000
0100
,  // measure 51
1000
0000
1000
0000
0001
0000
0001
0000
0200
0010
0000
0310
0000
0000
0000
0100
,  // measure 52
0001
0000
0001
0000
1000
0000
1000
0000
0001
0100
0000
0100
0000
0100
0001
0100
,  // measure 53
0001
0000
0001
0000
1000
0000
1000
0000
0200
0010
0000
0310
0000
0000
0000
0000
,  // measure 54
0100
0000
0001
0000
0010
0000
0001
0000
1000
0001
0000
0100
0000
0001
1000
0001
,  // measure 55
1000
0000
0010
0000
0100
0000
0001
0000
2000
0010
0000
3010
0000
0000
0000
0100
,  // measure 56
0010
0000
1000
0000
0100
0000
0010
0000
0100
0001
0000
0100
0000
0010
1000
0010
,  // measure 57
0100
0001
0100
0001
0100
0010
1000
0100
,  // measure 58
0001
0000
1000
0001
0000
1000
0001
0000
0100
0000
0010
1000
0000
0010
1000
0000
,  // measure 59
0001
0000
0100
0001
0000
0100
0001
0000
1000
0010
1000
0000
0100
0000
0010
0001
,  // measure 60
0100
0001
0100
0001
0100
1000
0100
1000
,  // measure 61
0020
0000
0032
0000
2003
0100
0001
3001
,  // measure 62
0100
0000
0010
1000
0000
0010
1000
0000
0100
0000
0010
0001
0000
0010
0100
0000
,  // measure 63
0010
0000
1000
0100
0000
0100
0001
0000
0001
0100
0001
0000
0100
0000
0010
0100
,  // measure 64
1000
0100
0001
0100
1000
0010
0001
0010
,  // measure 65
2000
0000
3020
0000
0230
0001
0001
0310
,  // measure 66
1000
0000
0100
0010
0000
0010
0001
0000
0001
0000
0001
0010
0000
0010
0100
0000
,  // measure 67
1000
0000
1000
0100
0000
0100
0010
0000
0010
0100
0010
0000
1000
0000
0001
0100
,  // measure 68
0010
1000
0100
0010
1000
0100
0010
0001
,  // measure 69
2000
0000
3002
0000
2003
0010
0100
3100
,  // measure 70
0010
0000
0001
1000
0000
0001
0100
0000
1000
0000
0100
0010
0000
0010
0001
0000
,  // measure 71
0100
0000
0001
1000
0000
0001
0010
0000
0100
1000
0100
0000
0010
0000
0001
1000
,  // measure 72
0100
0001
0100
0001
0010
1000
0010
1000
,  // measure 73
0002
0000
2003
0000
3200
0000
0310
0001
,  // measure 74
2000
3200
0320
0032
,  // measure 75
2003
0000
0000
3000
;
