#TITLE:Rise Up;
#SUBTITLE:Radio Edit;
#ARTIST:Yves Larock;
#TITLETRANSLIT:;
#SUBTITLETRANSLIT:;
#ARTISTTRANSLIT:;
#GENRE:;
#CREDIT:;
#BANNER:;
#BACKGROUND:Rise Up - Radio Edit-bg.png;
#LYRICSPATH:./Rise Up - Radio Edit.lrc;
#CDTITLE:;
#MUSIC:Rise Up - Radio Edit.ogg;
#OFFSET:0.700741;
#SAMPLESTART:38.445999;
#SAMPLELENGTH:14.000000;
#LASTBEATHINT:263.938782;
#SELECTABLE:YES;
#DISPLAYBPM:128.000000;
#BPMS:0.000000=127.980011
;
#STOPS:
;
#BGCHANGES:4.000=Rise Up - Radio Edit.mp4=1.000=1=0=1===CrossFade==,
264.000=Rise Up - Radio Edit-bg.png=1.000=0=0=1===CrossFade_Faster==,
99999=-nosongbg-=1.000=0=0=0 // don't automatically add -songbackground-
;
#KEYSOUNDS:;
#ATTACKS:;

//---------------dance-single - ----------------
#NOTES:
     dance-single:
     OpenITG3 owns:
     Hard:
     12:
     0.527629,0.560788,0.290757,0.275040,0.612947,470.000000,433.000000,37.000000,35.000000,0.000000,0.000000,0.527629,0.560788,0.290757,0.275040,0.612947,470.000000,433.000000,37.000000,35.000000,0.000000,0.000000:
// measure 0
0000
0000
0000
0000
,  // measure 1
0000
0000
0000
0000
,  // measure 2
0000
0000
0000
0000
,  // measure 3
0000
0000
0000
0000
,  // measure 4
0000
0000
0000
0000
,  // measure 5
1000
0010
0000
0001
0000
0000
1000
0000
0001
0000
0100
0000
0010
0000
1000
0000
,  // measure 6
0001
0100
0000
1000
0000
0000
0001
0000
1000
0000
0010
0000
0100
0000
0001
0000
,  // measure 7
0100
0010
0000
1000
0000
0000
0001
0000
0100
0000
1000
0000
0100
0000
0010
0000
,  // measure 8
1000
0100
0000
0010
0000
0001
0010
0000
2000
0000
0000
0002
3000
0000
0100
0003
,  // measure 9
0010
1000
0000
1100
0000
0000
1010
0000
0000
1001
0000
0100
0001
0000
0000
0000
,  // measure 10
0100
0001
0000
0110
0000
0000
0011
0000
0000
1100
0000
1000
0001
0000
0000
0000
,  // measure 11
2000
0000
0000
3020
0000
0000
0032
0000
0000
0103
0000
1000
0001
1000
0000
0000
,  // measure 12
0002
0000
0000
0023
0000
0000
2030
0000
0000
3100
0000
0001
1000
0001
0000
0000
,  // measure 13
1000
0010
0000
0101
0000
0000
0110
0000
0000
1010
0000
1000
0100
0000
0000
0000
,  // measure 14
0100
0001
0000
0011
0000
0000
1001
0000
0000
1100
0000
0001
0100
0000
0000
0000
,  // measure 15
0200
0000
0000
0302
0000
0000
2003
0000
0000
3010
0000
0001
1000
0001
0000
0000
,  // measure 16
0020
0000
0000
2030
0000
0000
3002
0000
0000
0103
0000
0001
1000
0001
0000
0000
,  // measure 17
1000
0010
0000
0100
0000
0000
0001
0000
0010
0001
0000
0100
0000
0000
1000
0000
,  // measure 18
0010
1000
0000
0100
0000
0000
1000
0000
0010
0100
0000
0001
0000
0000
1000
0000
,  // measure 19
0100
0010
0000
0010
1000
0001
0000
0001
0100
0001
0000
0010
0100
0000
1000
0000
,  // measure 20
1001
0000
0000
0001
0000
0000
0001
0000
0000
0001
0000
0000
0001
0000
0000
0000
,  // measure 21
1000
0100
1000
0000
0001
0100
0001
0000
,  // measure 22
1000
0010
0100
0001
0100
1000
0001
0000
,  // measure 23
1000
0001
0100
0000
0001
0010
0100
1000
,  // measure 24
2000
3020
0032
0203
,  // measure 25
0301
0010
0001
0000
1000
0100
1000
0000
,  // measure 26
0001
0100
0010
0100
1000
0100
0001
0000
,  // measure 27
1000
0001
0100
0000
1000
0100
0010
0001
,  // measure 28
0002
0203
0320
2030
,  // measure 29
3001
0000
0000
0001
0000
0000
0001
0000
1000
0100
0000
0100
1000
0000
0010
0000
,  // measure 30
0100
0000
0000
0100
0000
0000
0100
0000
0001
0010
0000
0010
0001
0000
0010
0000
,  // measure 31
1000
0000
0001
0000
0100
0000
0010
0000
0001
1000
0000
0010
0100
0000
0010
0000
,  // measure 32
0001
0000
0100
0010
0000
1000
0100
0000
0010
0000
0001
0000
0100
0000
0001
0000
,  // measure 33
1000
0100
0000
0010
0000
0000
0001
0000
1000
0010
0000
0010
1000
0000
0100
0000
,  // measure 34
0010
0001
0000
1000
0000
0000
0001
0000
0100
0010
0000
0010
0100
0000
0010
0000
,  // measure 35
1000
0001
0000
1000
0000
0000
0010
0000
0100
0001
0000
0001
0100
0000
0010
0000
,  // measure 36
1000
0100
0000
0010
0000
0100
1000
0000
0001
0010
0000
0110
0000
0000
0100
0000
,  // measure 37
0010
0001
0000
0011
0000
0000
0110
0000
0000
1100
0000
0100
0010
0000
0000
0000
,  // measure 38
0010
1000
0000
1010
0000
0000
0101
0000
0000
0011
0000
0100
1000
0000
0000
0000
,  // measure 39
0020
0000
0000
0230
0000
0000
0302
0000
0000
0013
0000
0100
1000
0100
0000
0000
,  // measure 40
2000
0000
0000
3002
0000
0000
0023
0000
0000
0130
0000
1000
0001
1000
0000
0000
,  // measure 41
0001
0010
0000
1001
0000
0000
0110
0000
0000
0011
0000
0001
1000
0000
0000
0000
,  // measure 42
0010
0100
0000
0110
0000
0000
1010
0000
0000
0101
0000
1000
0100
0000
0000
0000
,  // measure 43
0020
0000
0000
0032
0000
0000
2003
0000
0000
3100
0000
0001
0010
0001
1000
0000
,  // measure 44
0100
0000
0000
0100
0000
0000
0100
0000
0000
0100
0000
0000
0100
0000
0000
0000
,  // measure 45
0001
0100
0010
0000
1000
0010
0100
0000
,  // measure 46
0001
0100
1000
0100
0001
0010
1000
0000
,  // measure 47
1000
0010
0001
0010
1000
0100
0010
0001
,  // measure 48
0002
0023
0230
2300
,  // measure 49
3100
0001
0100
0000
0010
1000
0100
0000
,  // measure 50
0010
0001
0100
0010
1000
0100
0001
0000
,  // measure 51
0001
0100
1000
0100
0001
0010
1000
0010
,  // measure 52
0110
0000
0000
1100
0000
0000
0110
0000
0000
0101
0000
0000
0110
0000
0000
0000
,  // measure 53
1000
0010
0000
0100
0000
0000
0001
0000
1000
0001
0000
0100
0010
0000
0100
0000
,  // measure 54
0001
1000
0000
0100
0000
0000
0010
0000
0001
0010
0000
0010
0100
0000
1000
0000
,  // measure 55
0010
0100
0000
0001
0000
0000
0100
0000
0010
1000
0000
1000
0010
0000
0100
0000
,  // measure 56
0001
1000
0000
0100
0000
0010
0001
0000
0010
0000
0010
1000
0000
1000
0100
0000
,  // measure 57
0001
0010
0000
0100
0000
0000
1000
0000
0001
0100
0000
0100
0010
0000
0010
0000
,  // measure 58
0001
1000
0000
1000
0000
0000
0100
0000
0010
1000
0000
0100
0010
0000
0001
0000
,  // measure 59
0100
0010
0000
1000
0000
0000
0100
0000
1000
0010
0000
0010
0100
0000
0010
0000
,  // measure 60
0101
0000
0000
0110
0000
0000
1010
0000
0000
1001
0000
0000
0101
0000
0000
0110
,  // measure 61
0000
0000
0000
0000
0000
0000
0000
0000
1000
0001
0000
0100
0001
0000
0001
0000
,  // measure 62
0000
0000
0000
0000
0000
0000
0000
0000
0001
1000
0000
0100
1000
0000
1000
0000
,  // measure 63
0000
0000
0000
0000
0000
0000
0000
0000
0010
0100
0000
0010
0001
0000
0001
0000
,  // measure 64
0000
0000
0000
0000
0000
0000
0010
0000
1000
0000
0000
0001
0000
0000
0100
0000
;
