#TITLE:Murder Plot;
#SUBTITLE:;
#ARTIST:Kordhell;
#TITLETRANSLIT:;
#SUBTITLETRANSLIT:;
#ARTISTTRANSLIT:;
#GENRE:Phonk;
#CREDIT:Kryptogun;
#BANNER:murderplot-bn.png;
#BACKGROUND:murderplot-bg.png;
#LYRICSPATH:murderplot.lrc;
#CDTITLE:;
#MUSIC:murder plot.mp3;
#OFFSET:-0.117357;
#SAMPLESTART:17.153000;
#SAMPLELENGTH:14.000000;
#SELECTABLE:NO;
#DISPLAYBPM:140.000000;
#BPMS:0.000000=140.000000
,71.000000=280.000000
,73.000000=140.000000
,168.000000=280.000000
,170.000000=140.000000
;
#STOPS:
;
#BGCHANGES:;
#KEYSOUNDS:;
#ATTACKS:;

//---------------dance-single - ----------------
#NOTES:
     dance-single:
     :
     Challenge:
     16:
     0.781251,0.788307,0.497878,0.442558,0.663837,692.000000,629.000000,63.000000,56.000000,0.000000,0.000000,0.781251,0.788307,0.497878,0.442558,0.663837,692.000000,629.000000,63.000000,56.000000,0.000000,0.000000:
// measure 0
0000
0000
0000
0000
,  // measure 1
0000
0000
0000
0000
,  // measure 2
0001
0000
0000
0100
0000
0000
1000
0000
0000
0000
0000
0000
0010
0000
1000
0000
0100
0000
0001
0000
0000
0000
0000
0000
,  // measure 3
0010
0001
0101
0010
1000
0100
0110
0000
,  // measure 4
1000
0000
0001
0000
0010
0000
0100
0000
1000
0000
0001
0100
0001
0000
0010
0000
,  // measure 5
1000
0010
0001
0100
1000
0100
1001
0000
,  // measure 6
0001
0100
0110
0000
1000
0100
0110
0000
,  // measure 7
0001
1000
0010
0100
0001
0100
1001
0000
,  // measure 8
0010
0000
0001
0000
0010
0000
0100
0000
1000
0010
0100
0000
0001
0000
0100
0000
,  // measure 9
0100
0010
0010
0001
1000
0100
0110
0000
,  // measure 10
0010
0000
0100
0000
0001
0010
0100
0000
1002
0000
0010
0000
1003
0000
0000
0000
,  // measure 11
0001
0000
0100
0000
0001
1000
0010
0000
2000
0000
3020
0000
0230
0000
0302
0000
,  // measure 12
1003
0000
0100
0000
0001
0010
0001
0000
2100
0000
0010
0000
3001
0000
0000
0000
,  // measure 13
0001
0000
0001
0000
1000
0100
0010
0000
0011
0000
0011
0000
1001
0000
1001
0000
,  // measure 14
1000
0000
0001
0000
0100
0001
1000
0000
0210
0000
0001
0000
1300
0000
0000
0000
,  // measure 15
0001
0000
0010
0000
0100
0001
0100
0000
2000
0000
3002
0000
0203
0000
2300
0000
,  // measure 16
3001
0000
0010
0000
1000
0001
1000
0000
0120
0000
1000
0000
0031
0000
0000
0000
,  // measure 17
0101
0000
0001
0010
0000
0010
0100
0000
1000
0100
1000
0010
0200
0000
0000
0000
,  // measure 18
0000
0000
0000
0000
0000
0000
0000
0000
0000
0000
0000
0000
0301
0000
0000
0000
0000
0000
1000
0000
0000
0000
0000
0000
0100
0000
0000
0010
0000
0000
0100
0000
0000
0000
0000
0000
0001
0000
0000
0000
0010
0000
0000
0000
0100
0000
0000
0000
,  // measure 19
1000
0000
0100
0000
0010
0000
0010
0000
1000
0000
1000
0100
0020
0000
0032
0000
,  // measure 20
0203
0000
0320
0000
1030
0000
0001
0000
0100
0010
0100
0000
1000
0000
0100
0010
,  // measure 21
0100
0000
0010
0000
0001
0000
0001
0000
0100
0010
0100
0000
1010
0000
1010
0000
,  // measure 22
1001
0000
0000
0000
0000
0000
1001
0000
0000
0000
0000
0000
0001
0000
0000
0000
0000
0000
0100
0000
0000
0000
0000
0000
0010
0000
0000
1000
0000
0000
0100
0000
0000
0000
0000
0000
0010
0000
0000
0000
0001
0000
0000
0000
0100
0000
0000
0000
,  // measure 23
0001
0000
1000
0000
0010
0000
0010
0000
0100
0010
0001
0000
0020
0000
2030
0000
,  // measure 24
3200
0000
0000
0000
0000
0000
0302
0000
0000
0000
0000
0000
0103
0000
0000
0000
0000
0000
0100
0000
0000
0000
0000
0000
1000
0000
0000
0100
0000
0000
1000
0000
0000
0000
0000
0000
0001
0000
0000
0000
0100
0000
0000
0000
0001
0000
0000
0000
,  // measure 25
1000
0000
0010
0000
0100
0001
0010
0000
0010
0100
1000
0000
1000
0010
0100
0010
,  // measure 26
0002
0000
0000
0000
0013
0100
0010
0001
0010
0000
0010
1000
0000
1000
0100
0010
,  // measure 27
0100
0001
0100
1000
0010
0100
0010
0100
0001
0000
0001
0010
0000
0010
0100
0010
,  // measure 28
0100
0000
0000
1000
0000
0000
0100
0000
0000
1000
0000
0000
0010
0000
0000
0000
0000
0000
0100
0000
0000
0000
0000
0000
1001
0000
0000
0000
0000
0000
0000
0000
0000
0000
0000
0000
0010
0000
0000
0000
0001
0000
0000
0000
0100
0000
0000
0000
,  // measure 29
2000
0000
3100
0000
0001
0000
0100
0000
0001
0000
0001
0100
0001
0000
1000
0000
,  // measure 30
2001
0000
0000
0000
3001
0100
0010
1000
0010
0000
0010
1000
0000
1000
0100
0010
,  // measure 31
0001
1000
0100
0010
0100
1000
0001
0100
0001
0000
0001
0010
0100
0010
0001
1000
,  // measure 32
0100
0000
0000
0010
0000
0000
0001
0000
0000
0010
0000
0000
0100
0000
0000
0000
0000
0000
0001
0000
0000
0000
0000
0000
0101
0000
0000
0000
0000
0000
0000
0000
0000
0000
0000
0000
0010
0000
0000
0000
1000
0000
0000
0000
0100
0000
0000
0000
,  // measure 33
1000
0100
0002
0203
0320
2030
3002
0203
,  // measure 34
0302
0000
0003
0000
1001
0000
0100
0000
0001
1000
0100
0000
0021
0000
0001
0000
,  // measure 35
1030
0000
0000
0000
1100
0000
0010
0000
0100
0001
0100
0000
2000
0000
3002
0000
,  // measure 36
0203
0000
0320
0000
1030
0000
1000
0000
0100
1000
0100
0000
0101
0000
0001
0000
,  // measure 37
1001
0000
0000
0000
0011
0000
0010
0000
0100
1000
0100
0000
1010
0000
1010
0000
,  // measure 38
0110
0000
0110
0000
1001
0000
0100
0000
0001
0010
0100
0000
2100
0000
0010
0000
,  // measure 39
3001
0000
0000
0000
0110
0000
0001
0000
0001
0010
0100
0000
0002
0000
0203
0000
,  // measure 40
2300
0000
3020
0000
0130
0000
0001
0000
1000
0010
0100
0000
0101
0000
0001
0000
,  // measure 41
1001
0000
0000
0000
1010
0000
1000
0100
0000
0100
0001
0000
0001
0100
1000
0010
,  // measure 42
0001
0000
0000
0000
0000
0000
0000
0000
1010
0000
1000
0000
0001
0100
0001
0000
,  // measure 43
0001
0000
0000
0000
0010
0000
0000
0000
0100
0000
0000
0000
1000
0000
0000
0000
0000
0000
1100
0000
0000
0000
0000
0000
1000
0000
0000
0000
0000
0000
0001
0000
0000
0000
0000
0000
0010
0000
0000
0100
0000
0000
0001
0000
0000
0000
0000
0000
,  // measure 44
2000
0000
3020
0000
0230
0000
0302
0000
1003
0000
0100
0010
0100
0000
1100
0000
,  // measure 45
0101
0000
0010
0100
0010
0000
1000
0000
1001
0000
0001
0010
0100
0000
0100
0000
,  // measure 46
1010
0000
1010
0000
1001
0000
1001
0000
0101
0000
0100
0000
0001
1000
0010
0000
,  // measure 47
1000
0000
0000
0000
0100
0000
0000
0000
0010
0000
0000
0000
0001
0000
0000
0000
0000
0000
0100
0000
0000
0000
0000
0000
0010
0000
0000
0000
0000
0000
0010
0000
0000
0000
0000
0000
1000
0000
0000
0010
0000
0000
0100
0000
0000
0000
0000
0000
,  // measure 48
0002
2003
3020
0230
0301
0100
0101
0100
,  // measure 49
0001
1000
0100
0000
0011
0000
0100
0000
1010
0000
1000
0100
0000
0100
1000
0000
,  // measure 50
0001
0010
0100
1000
0020
0000
0000
0000
0130
0001
0100
0010
1000
0000
1000
0100
,  // measure 51
0000
0010
0001
0010
0100
0010
1000
0010
0001
0100
0001
1000
0100
0000
0010
1000
,  // measure 52
0010
0100
0001
0010
0100
1000
0100
0010
0001
0000
1000
0000
1100
0000
0000
0000
,  // measure 53
0010
0000
0001
0000
1000
0000
0100
0000
0000
0000
0000
0000
0011
0000
0000
0001
0000
0000
1001
0000
0000
1000
0000
0000
,  // measure 54
1100
0000
0001
0000
0110
0000
0000
0000
1000
0010
0100
0001
1000
0000
0001
0010
,  // measure 55
0000
0010
0100
1000
0100
0010
0100
0001
0100
0010
0100
1000
0010
0000
0100
0010
,  // measure 56
0001
0010
0100
1000
0010
0100
0010
0000
1100
0000
0100
0000
0101
0000
0000
0000
,  // measure 57
0001
0000
0010
0000
0100
0000
1000
0000
0000
0000
0000
0000
0110
0000
0000
0001
0000
0000
0110
0000
0000
1000
0000
0000
,  // measure 58
1100
0000
0110
0000
0200
0000
0000
0000
0301
0100
0001
0010
1000
0000
1000
0010
,  // measure 59
0000
0010
0001
0100
0001
0100
1000
0000
0010
0100
0010
0100
0010
0000
1000
0100
,  // measure 60
1000
0010
0100
0001
0010
0100
1000
0100
0010
0001
0010
0001
0010
0000
0010
0100
,  // measure 61
0000
0100
0010
1000
0010
0100
1000
0000
0100
0001
0100
0001
0100
0000
0010
1000
,  // measure 62
0000
1000
0100
0010
0001
1000
0001
0000
0100
0001
0010
0100
0010
0000
0100
1000
,  // measure 63
0000
1000
0100
1000
0010
0100
0010
0000
0001
0010
0100
1000
0100
0000
0100
1000
,  // measure 64
0100
0010
0001
0100
0010
0100
1000
0000
0001
1000
0100
1000
0001
0000
0100
0001
,  // measure 65
0010
0100
1000
0010
0100
0010
1000
0100
0020
0000
0230
0000
0302
0000
0023
0000
,  // measure 66
0230
1300
0010
1000
0100
0000
0000
0000
;
