#TITLE:Malibu Pier;
#SUBTITLE:;
#ARTIST:The Living Tombstone;
#TITLETRANSLIT:;
#SUBTITLETRANSLIT:;
#ARTISTTRANSLIT:;
#GENRE:;
#CREDIT:;
#BANNER:;
#BACKGROUND:Malibu Pier-bg.png;
#LYRICSPATH:;
#CDTITLE:./OpenITG3.png;
#MUSIC:Malibu Pier.ogg;
#OFFSET:-0.351129;
#SAMPLESTART:26.789000;
#SAMPLELENGTH:14.000000;
#LASTBEATHINT:373.871094;
#SELECTABLE:YES;
#DISPLAYBPM:177.000000;
#BPMS:0.000000=177.020004
,336.000000=87.980003
,368.000000=87.979622
;
#STOPS:
;
#BGCHANGES:;
#KEYSOUNDS:;
#ATTACKS:;

//---------------dance-single - ----------------
#NOTES:
     dance-single:
     :
     Challenge:
     13:
     0.615357,0.663644,0.467161,0.343501,0.123660,627.000000,559.000000,68.000000,50.000000,0.000000,0.000000,0.615357,0.663644,0.467161,0.343501,0.123660,627.000000,559.000000,68.000000,50.000000,0.000000,0.000000:
// measure 0
0000
0000
0000
0000
,  // measure 1
0000
0000
0000
0000
,  // measure 2
0000
0000
0000
0000
,  // measure 3
0000
0000
0000
0000
,  // measure 4
1100
1002
0000
0013
,  // measure 5
0000
0100
0001
0100
1000
0100
0001
0010
,  // measure 6
0101
2001
0000
3100
,  // measure 7
0000
0100
0001
0100
0001
0100
0001
1000
,  // measure 8
0001
0010
0001
1000
1100
0000
2001
0000
,  // measure 9
0000
3100
1000
0100
0001
0100
1000
0010
,  // measure 10
0101
0000
1002
0000
0003
0100
1000
0010
,  // measure 11
0101
0000
0120
0000
1000
0230
0000
0300
,  // measure 12
0011
2001
0000
3100
,  // measure 13
0000
0010
1000
0010
0001
0010
1000
0100
,  // measure 14
1010
1002
0000
0013
,  // measure 15
0000
0010
1000
0010
1000
0100
1000
0001
,  // measure 16
1000
0010
1000
0001
0011
0000
1002
0000
,  // measure 17
0000
0013
0001
0010
1000
0010
0001
0100
,  // measure 18
1010
0000
2001
0000
3000
0010
0001
0100
,  // measure 19
1010
0000
0210
0000
0010
1300
0100
0010
,  // measure 20
0100
1000
0100
1000
0100
0100
1000
1000
,  // measure 21
0001
0100
0001
0100
0001
0001
1000
1000
,  // measure 22
0001
1000
0001
1000
0100
0100
0001
0001
,  // measure 23
1000
0001
1000
0100
1100
0000
1001
0000
,  // measure 24
0010
0001
0010
0001
2100
0000
3001
0000
,  // measure 25
0012
0000
1003
0000
0100
1000
0001
1000
,  // measure 26
0110
1001
2100
0100
,  // measure 27
0001
0000
3001
0000
0010
0001
0100
0010
,  // measure 28
0100
0001
0100
0001
0100
0100
0001
0001
,  // measure 29
1000
0100
1000
0100
1000
1000
0001
0001
,  // measure 30
1000
0001
1000
0001
0100
0100
1000
1000
,  // measure 31
0001
1000
0001
0100
0101
0000
1001
0000
,  // measure 32
0010
1000
0010
1000
0102
0000
1003
0000
,  // measure 33
2010
0000
3100
0000
0010
0001
0010
1000
,  // measure 34
0200
0000
0010
0000
,  // measure 35
0001
0000
1300
0000
,  // measure 36
0110
2001
0100
3010
,  // measure 37
0000
0001
0010
0001
0010
0100
1000
0010
,  // measure 38
0100
0012
0100
1003
,  // measure 39
0000
0001
1000
0100
1000
0001
0100
0001
,  // measure 40
1000
0010
1000
0001
1010
0000
0102
0000
,  // measure 41
0003
0010
0100
1000
0001
0100
0001
0010
,  // measure 42
0101
0000
2001
0000
3000
0100
0001
0010
,  // measure 43
1100
0000
0102
0000
1003
0020
0000
0130
,  // measure 44
0010
2001
0010
3100
,  // measure 45
0000
0100
1000
0010
0100
0001
0010
0001
,  // measure 46
1100
1002
0020
0033
,  // measure 47
0000
0100
0001
0100
0001
0100
0001
1000
,  // measure 48
0001
0010
0001
1000
0101
0000
2001
0000
,  // measure 49
3000
0100
0001
0010
0100
1000
0001
0100
,  // measure 50
1010
0000
0210
0000
0300
0010
1000
0100
,  // measure 51
1001
0000
0012
0000
0013
0100
0010
0001
,  // measure 52
1000
0100
1000
1000
0010
0100
0001
1000
,  // measure 53
0001
0001
0010
0010
0100
1000
0001
0100
,  // measure 54
0010
0010
0100
0100
0010
0001
0010
0100
,  // measure 55
1000
0001
1000
0010
0100
0000
1001
0000
,  // measure 56
1000
0010
0100
0001
0210
0000
0301
0000
,  // measure 57
1002
0000
0103
0000
0010
1000
0001
0100
,  // measure 58
1010
0101
2010
0100
,  // measure 59
0001
0000
3001
0000
0010
0001
0100
0010
,  // measure 60
0100
0001
0100
1000
0100
0100
0001
0001
,  // measure 61
1000
0010
0001
0010
1000
1000
0001
0001
,  // measure 62
1000
0100
1000
0010
0100
0100
0001
0001
,  // measure 63
0010
0100
1000
0100
0101
0000
1001
0000
,  // measure 64
0010
1000
0010
0100
1002
0000
1003
0000
,  // measure 65
0120
0000
0130
0000
0010
0001
0010
0100
,  // measure 66
1000
0000
1010
0000
0100
1000
0000
0110
,  // measure 67
0000
0101
0000
1000
0010
1000
0100
0010
,  // measure 68
0100
0000
1000
0001
0100
0010
1000
0010
,  // measure 69
0200
0000
0301
1000
0100
0020
0000
0031
,  // measure 70
0100
0010
0100
1000
0000
2001
0000
3100
,  // measure 71
0010
0000
0010
0001
0010
0100
1000
0100
,  // measure 72
0010
0100
0010
0001
0000
0102
0000
0103
,  // measure 73
0020
0000
1030
0100
1000
0100
0010
0001
,  // measure 74
0100
0001
0100
0010
0000
0120
0000
1030
,  // measure 75
0200
0000
0310
0001
1000
0001
0000
0100
,  // measure 76
0010
0000
0001
1000
0010
0100
0001
0100
,  // measure 77
0020
0000
1030
0001
0010
0200
0000
1300
,  // measure 78
0010
0100
0010
0001
0000
1002
0000
0013
,  // measure 79
0100
0000
0100
1000
0100
0010
0001
0010
,  // measure 80
0100
0010
0100
1000
0000
2010
0000
3010
,  // measure 81
0200
0000
0301
0010
0001
0010
0100
1000
,  // measure 82
0010
1000
0010
0100
0000
0210
0000
0301
,  // measure 83
0020
0000
0130
1000
0001
1000
0000
0010
,  // measure 84
0100
0000
0010
0000
0001
0100
0000
0100
1000
0000
0010
0000
1000
0100
0000
0100
,  // measure 85
1000
0000
1000
0010
0000
0100
0000
0010
1000
0000
0001
0000
0100
0010
0000
0010
,  // measure 86
0001
0000
0001
0100
0000
0010
0000
1000
0100
0000
0010
0000
0100
1000
0000
1000
,  // measure 87
0010
0000
0100
0010
0000
0001
0000
0100
1000
0000
0010
0000
1000
0200
0000
0300
,  // measure 88
0000
0000
0100
0000
1000
0010
0000
0010
0001
0000
0100
0000
0001
0010
0000
0010
,  // measure 89
0001
0000
0001
0100
0000
0010
0000
0100
0001
0000
1000
0000
0010
0100
0000
0100
,  // measure 90
1000
0000
1000
0010
0000
0100
0000
0001
0010
0000
0100
0000
0010
0001
0000
0001
,  // measure 91
0100
0000
0010
0100
0000
1000
0000
0010
0001
0000
0100
0000
0001
0020
0000
0030
,  // measure 92
0100
0000
0000
0000
;
