#TITLE:Like a Prayer;
#SUBTITLE:;
#ARTIST:Madonna;
#TITLETRANSLIT:;
#SUBTITLETRANSLIT:;
#ARTISTTRANSLIT:;
#GENRE:Techno;
#CREDIT:;
#BANNER:;
#BACKGROUND:;
#LYRICSPATH:;
#CDTITLE:;
#MUSIC:Like a Prayer.ogg;
#OFFSET:1.260000;
#SAMPLESTART:59.035000;
#SAMPLELENGTH:14.598000;
#LASTBEATHINT:0.294421;
#SELECTABLE:YES;
#DISPLAYBPM:111.000000;
#BPMS:0.000000=111.949997
,48.000000=55.974998
,80.000000=111.949997
;
#STOPS:
;
#BGCHANGES:;
#KEYSOUNDS:;
#ATTACKS:;

//---------------dance-single - ----------------
#NOTES:
     dance-single:
     :
     Challenge:
     8:
     0.388610,0.442211,0.134003,0.314908,0.180905,406.000000,386.000000,20.000000,47.000000,0.000000,0.000000,0.388610,0.442211,0.134003,0.314908,0.180905,406.000000,386.000000,20.000000,47.000000,0.000000,0.000000:
// measure 0
0000
0000
0000
0000
,  // measure 1
0000
0000
0000
0000
,  // measure 2
0000
0000
0000
0000
,  // measure 3
0000
0000
0000
0000
,  // measure 4
2000
0000
3100
0010
0001
0010
0100
0010
,  // measure 5
2000
0000
3010
0001
0100
1000
0100
0001
,  // measure 6
0020
0000
0031
1000
1000
0100
0010
0001
,  // measure 7
0200
0000
0301
0010
0001
0000
1001
0000
,  // measure 8
1100
0000
1000
0010
0100
0001
0010
0100
,  // measure 9
2000
0000
3100
0010
0100
0010
0001
0100
,  // measure 10
0020
0000
1030
0001
0100
0001
1000
1000
,  // measure 11
0001
0010
0001
0000
1100
0000
0011
0000
,  // measure 12
0200
0000
0000
0010
0302
0000
0000
0100
,  // measure 13
0023
0000
0000
0100
2030
0001
3200
0010
,  // measure 14
0302
0000
0000
1000
0023
0000
0000
0100
,  // measure 15
2030
0000
0000
0010
3002
0100
0023
0100
,  // measure 16
2030
0000
0000
0010
3200
0000
0000
0001
,  // measure 17
0320
0000
0000
0100
0032
0100
2003
0010
,  // measure 18
3200
0000
0000
0001
2300
0000
0000
0100
,  // measure 19
3020
0000
0000
0000
0130
0001
1000
0100
,  // measure 20
0002
0000
0013
0100
1000
0100
0010
0100
,  // measure 21
0002
0000
0103
1000
0010
0001
0010
1000
,  // measure 22
0200
0000
1300
0001
0001
0010
0100
1000
,  // measure 23
0020
0000
1030
0100
1000
0000
1001
0000
,  // measure 24
0011
0000
0001
0100
0010
1000
0100
0010
,  // measure 25
0002
0000
0013
0100
0010
0100
1000
0010
,  // measure 26
0200
0000
0301
1000
0010
1000
0001
0001
,  // measure 27
1000
0100
1000
0000
0011
0000
1100
0000
,  // measure 28
0002
0000
0103
1000
0001
0100
0010
1000
,  // measure 29
0002
0000
1003
1000
0100
0001
0100
1000
,  // measure 30
0200
0000
1300
0001
0010
0100
1000
0010
,  // measure 31
0020
0000
0031
1000
0100
0000
0011
0000
,  // measure 32
1100
0000
0010
1000
0010
1000
1000
0010
,  // measure 33
0002
0000
0103
0010
0100
0010
0001
0010
,  // measure 34
0200
0000
0301
0010
0100
0010
0100
1000
,  // measure 35
0001
0100
0010
0000
0110
0000
0011
0000
,  // measure 36
0100
0000
1000
0100
0000
0000
0010
0001
0010
0000
0100
1000
0000
0000
0100
0000
,  // measure 37
0010
0000
0000
0100
0001
0000
0001
0010
0100
0000
0100
1000
0000
1000
0010
0000
,  // measure 38
0200
0000
0000
0000
0310
0000
0001
0100
0001
0000
1000
0010
0000
0000
0100
0000
,  // measure 39
0010
0000
0000
0010
1000
0000
1000
0100
0010
0000
0100
0010
0000
0001
0100
0000
,  // measure 40
1000
0010
0100
0010
1000
0001
0100
0001
,  // measure 41
0020
0000
0000
0130
1000
0000
1000
0000
0002
0000
0000
0013
0100
0000
0010
0000
,  // measure 42
1000
0000
0000
0000
1000
0000
0001
0000
0100
0000
0000
0001
0010
0000
0100
0000
,  // measure 43
1000
0000
0000
0001
1000
0000
0100
0000
0010
0000
0100
0000
1000
0000
0100
0000
,  // measure 44
0001
0000
1001
0010
0100
1000
0100
0000
,  // measure 45
0010
0000
0000
0001
0100
0000
0010
0000
1000
0000
0000
1000
0000
0100
0010
0100
,  // measure 46
0020
0000
0000
0031
0000
0010
0100
0010
0200
0000
0000
1300
0000
1000
0100
0010
,  // measure 47
0002
0000
0000
1003
0000
0001
0010
0100
2000
0000
0000
3100
1000
0001
0100
0000
,  // measure 48
1001
0000
0000
0000
0010
0000
1000
0000
0100
0000
0010
0001
0000
0000
0001
0000
,  // measure 49
0100
0000
0001
0000
0010
0000
0100
0000
1000
0000
1000
0100
0000
0010
0001
0000
,  // measure 50
0101
0000
0000
0000
0001
0000
0010
0000
0100
0000
0010
0100
0000
0000
0010
0000
,  // measure 51
1001
0000
1000
0000
0100
0000
0010
0000
0100
0000
0010
0100
0000
0100
0001
0010
,  // measure 52
0100
0000
0000
0000
1000
0000
0100
0000
1000
0000
0010
0100
0000
0000
0010
0000
,  // measure 53
0001
0000
0100
0000
0001
0000
0010
0000
0100
0000
0000
1000
0000
1000
0100
0010
,  // measure 54
0200
0000
0000
0310
0000
0010
0001
0010
0200
0000
0000
0310
0000
0010
1000
0100
,  // measure 55
0020
0000
0000
0031
0000
0001
1000
0100
2000
0000
0000
3010
0100
0001
0010
0000
,  // measure 56
0100
0000
1000
0100
1000
0000
0001
0000
,  // measure 57
0101
0000
0001
0000
1001
0000
0100
1000
,  // measure 58
0010
0100
0011
0100
,  // measure 59
1001
1000
0100
0010
,  // measure 60
0001
0000
0000
0000
;
