#TITLE:Beautiful Lies (VIP Mix);
#SUBTITLE:;
#ARTIST:B-Complex;
#TITLETRANSLIT:;
#SUBTITLETRANSLIT:;
#ARTISTTRANSLIT:;
#GENRE:;
#CREDIT:;
#BANNER:;
#BACKGROUND:;
#LYRICSPATH:;
#CDTITLE:;
#MUSIC:Beautiful Lies (VIP Mix).mp3;
#OFFSET:-0.069046;
#SAMPLESTART:88.334999;
#SAMPLELENGTH:14.000000;
#LASTBEATHINT:455.932587;
#SELECTABLE:YES;
#DISPLAYBPM:174.000000;
#BPMS:0.000000=174.020004
;
#STOPS:
;
#BGCHANGES:;
#KEYSOUNDS:;
#ATTACKS:;

//---------------dance-single - ----------------
#NOTES:
     dance-single:
     :
     Hard:
     10:
     0.232319,0.255209,0.393366,0.062363,0.032381,678.000000,514.000000,164.000000,26.000000,0.000000,1.000000,0.232319,0.255209,0.393366,0.062363,0.032381,678.000000,514.000000,164.000000,26.000000,0.000000,1.000000:
// measure 0
0000
0000
0000
0000
,  // measure 1
0000
0000
0000
0000
,  // measure 2
0000
0000
0000
0000
,  // measure 3
0000
0000
0000
0000
,  // measure 4
0000
0000
0000
0000
,  // measure 5
0000
0000
0000
0000
,  // measure 6
0000
0000
0000
0000
,  // measure 7
0000
0000
0000
0000
,  // measure 8
1001
0000
0000
0000
,  // measure 9
0000
0000
0000
0000
,  // measure 10
1001
0000
0000
0000
,  // measure 11
0000
0000
0000
0000
,  // measure 12
1001
0000
0000
0000
,  // measure 13
0000
0000
0000
0000
,  // measure 14
1001
0000
0000
0000
,  // measure 15
0000
0000
0000
0000
,  // measure 16
1000
0000
0101
0000
0011
0000
0010
0100
,  // measure 17
0000
1010
0000
1000
1100
0000
1000
0100
,  // measure 18
1001
0000
0000
0010
0100
0000
0000
0000
1001
0000
0000
0000
0100
0000
1001
0000
,  // measure 19
0000
0000
1001
0000
0000
0000
0100
0000
1001
0000
0000
0010
0100
0000
1000
0000
,  // measure 20
1001
0000
1100
0000
1001
0000
0100
1001
,  // measure 21
0000
0000
1001
0000
0000
0000
0010
0000
1001
0000
0000
0010
0100
0000
0010
0000
,  // measure 22
1100
0000
0000
1000
0100
0000
0000
0000
1001
0000
0000
0000
0010
0000
0101
0000
,  // measure 23
0000
0000
0101
0000
0000
0000
0010
0000
1001
0000
0000
1000
0100
0000
0001
1000
,  // measure 24
0001
0000
0010
0100
0000
0110
0000
1001
,  // measure 25
0000
0001
0200
0000
0000
0301
0010
0000
,  // measure 26
1001
0000
0000
0000
0100
0000
1000
0000
0000
0000
0100
0000
0010
0001
0000
0000
,  // measure 27
1010
0000
2000
0100
0000
3100
1000
0000
,  // measure 28
0101
0000
0110
0100
0000
0101
0000
1001
,  // measure 29
0000
0002
0010
0000
0000
0013
0100
0000
,  // measure 30
1001
0000
0000
0000
1001
0000
0100
0000
0000
0000
0100
0000
0001
0010
0000
0000
,  // measure 31
0100
1001
0000
0000
,  // measure 32
1000
0100
1000
0000
1001
0000
0101
0000
,  // measure 33
0001
0000
0001
0010
0000
0010
0100
0010
,  // measure 34
1000
0000
1100
0000
1001
0000
0100
0001
,  // measure 35
0010
0000
0100
0010
0000
1000
0100
0000
,  // measure 36
1001
0000
1100
0000
1001
0000
0001
0100
,  // measure 37
0001
0000
1000
0001
0000
0100
0010
0100
,  // measure 38
1000
0000
1010
0000
0010
0100
0010
0000
,  // measure 39
0101
0000
1000
0100
0000
0010
0010
0010
,  // measure 40
0100
1100
0101
0010
,  // measure 41
1001
0000
0100
1000
0000
1000
0001
1000
,  // measure 42
0010
0011
0011
0011
,  // measure 43
1001
0000
0100
1100
0000
1000
1000
1000
,  // measure 44
0100
0101
1100
0010
,  // measure 45
1001
0000
0100
0001
0000
0001
1000
0001
,  // measure 46
1000
0000
0010
0010
0010
0000
0110
0000
,  // measure 47
1001
0000
1000
0001
0000
0100
0001
0010
,  // measure 48
0100
0000
0011
0000
0011
0000
0100
1010
,  // measure 49
0000
1010
0000
0100
0011
0000
0110
0000
,  // measure 50
1001
0000
0000
1000
0010
0000
0000
0000
1010
0000
0000
0000
0100
0000
0011
0000
,  // measure 51
0000
0000
0011
0000
0000
0000
0100
0000
0011
0000
0000
0100
0010
0000
0000
0000
,  // measure 52
1000
0000
0101
0000
0101
0000
0010
1001
,  // measure 53
0000
1001
0000
0100
1001
0000
1100
0000
,  // measure 54
0101
0000
0000
1000
0010
0000
0000
0000
0110
0000
0000
0000
1000
0000
0101
0000
,  // measure 55
0000
0000
0101
0000
0000
0000
0010
0000
1010
0000
0000
1000
0001
0000
1000
0001
,  // measure 56
0100
0000
0110
0100
0000
0010
0000
0110
,  // measure 57
0000
1000
0202
0000
0303
0001
1001
0000
,  // measure 58
0010
0000
0000
0000
1001
0000
0100
0000
0000
0000
0100
0000
0010
1000
0000
0000
,  // measure 59
0101
0000
0020
0100
0000
0130
1000
0000
,  // measure 60
0100
0000
0011
0100
0000
0001
0000
1001
,  // measure 61
0000
0001
0220
0000
0030
0310
0100
0000
,  // measure 62
0110
0000
0000
0000
,  // measure 63
0000
0000
0000
0000
,  // measure 64
0001
0010
0100
0000
1100
0000
0001
0010
,  // measure 65
0100
0010
0000
0100
0010
0000
0100
0010
,  // measure 66
0100
0000
0100
0000
1000
0000
0000
0000
1000
0000
0000
0010
0000
0000
0001
0000
,  // measure 67
0010
0000
0000
0100
0010
0000
0100
0000
1000
0000
0001
0000
1001
0000
0000
0000
,  // measure 68
1000
0100
0010
0100
1000
0000
0011
0000
,  // measure 69
0100
0001
0000
0100
1000
0000
0010
1000
,  // measure 70
0001
0000
0000
0000
1100
0000
0000
0000
0011
0000
0000
0101
0000
0000
1000
0000
,  // measure 71
1100
0000
0001
0101
0101
0010
0100
1000
,  // measure 72
0100
0000
0001
0010
0100
0100
0010
0000
,  // measure 73
1000
0001
0000
0100
0001
0001
0010
0100
,  // measure 74
1000
0000
0000
0000
1100
0000
0000
0000
1000
0000
0000
0011
0000
0000
0100
0000
,  // measure 75
1000
0000
0000
0100
0010
0000
0001
0000
0010
0000
0100
0000
0010
0000
0000
0000
,  // measure 76
1000
0100
1000
0000
0001
0010
0100
0010
,  // measure 77
0001
0100
0010
1000
0001
0000
1000
0001
,  // measure 78
0000
0000
0100
0000
0001
0000
0000
0000
1000
0000
0000
0001
0000
0000
0100
0000
,  // measure 79
0010
0000
0000
1000
0100
0000
0020
0000
0002
0000
0000
0000
0033
0000
0000
0000
,  // measure 80
1002
0000
2003
0100
3000
1000
0001
0000
,  // measure 81
0102
0000
0103
0020
0000
1000
1000
1030
,  // measure 82
1100
0000
1010
0000
1001
0000
0010
0001
,  // measure 83
0100
0000
0100
1000
0000
1000
0001
1000
,  // measure 84
0011
0000
0002
0100
0003
0001
1000
0000
,  // measure 85
2100
0000
0010
3020
0000
0100
0100
0130
,  // measure 86
0110
0000
0101
0000
1001
0100
1000
0000
,  // measure 87
1001
0000
1000
0010
0100
0001
0100
1000
,  // measure 88
0110
0000
0200
0001
0300
0100
0010
0000
,  // measure 89
2001
0000
3001
0020
0000
0001
0001
0031
,  // measure 90
1100
0000
0110
0000
0101
0100
1000
0001
,  // measure 91
0100
0000
0001
0010
0000
0010
0100
1000
,  // measure 92
1020
0000
1030
0200
0000
0310
0001
0000
,  // measure 93
0012
0000
1003
0200
0000
0010
0010
0310
,  // measure 94
0110
0000
1001
0000
0101
0100
0001
0010
,  // measure 95
1100
0000
0001
0000
,  // measure 96
0100
0000
1010
0000
0101
0000
0100
1010
,  // measure 97
0000
0101
0000
0100
0011
0000
0110
1000
,  // measure 98
1100
0000
0000
1000
0010
0000
0000
0000
1010
0000
0000
0000
0100
0000
0011
0000
,  // measure 99
0000
0000
1001
0000
0000
0000
0100
0000
0011
0000
0000
0100
0010
0000
0001
0000
,  // measure 100
1000
0000
0101
0000
0101
0000
0010
0101
,  // measure 101
0000
0101
0000
0010
1001
0000
1100
1000
,  // measure 102
0101
0000
0000
1000
0010
0000
0000
0000
0110
0000
0000
0000
1000
0000
0011
0000
,  // measure 103
0000
0000
0101
0000
0000
0000
0010
0000
1010
0000
0000
1000
0001
0000
1000
0001
,  // measure 104
1000
1001
0110
1001
,  // measure 105
0110
0000
0110
0100
0000
0110
0010
0100
,  // measure 106
1001
1100
0011
0101
,  // measure 107
1001
0000
0000
0000
1001
0000
0100
0000
0000
0000
1001
0000
0000
0000
1000
0001
,  // measure 108
0100
0011
0110
1010
,  // measure 109
0101
0000
1010
0100
0000
0011
0100
0011
,  // measure 110
0100
1000
0100
0010
0100
1000
0100
0001
,  // measure 111
0200
0000
0002
0000
,  // measure 112
0313
0000
0000
0000
;
