#TITLE:Suck My Dick 2020;
#SUBTITLE:;
#ARTIST:Little Big;
#TITLETRANSLIT:;
#SUBTITLETRANSLIT:;
#ARTISTTRANSLIT:;
#CREDIT:;
#BANNER:Suck My Dick 2020.png;
#BACKGROUND:Suck My Dick 2020-bg.png;
#LYRICSPATH:;
#CDTITLE:;
#MUSIC:Suck My Dick 2020.mp3;
#OFFSET:-0.020;
#SAMPLESTART:111.540;
#SAMPLELENGTH:13.520;
#SELECTABLE:YES;
#DISPLAYBPM:142.000;
#BPMS:0.000=141.975;
#STOPS:;
#BGCHANGES:0.000=Suck My Dick 2020.avi=1.000=1=1=0,
336.000=Suck My Dick 2020-bg.png=1.000=1=0=1,
99999=-nosongbg-=1.000=0=0=0 // don't automatically add -songbackground-
;

//---------------dance-single - ----------------
#NOTES:
     dance-single:
     :
     Hard:
     7:
     0.532,0.523,0.313,0.216,0.049: // measure 1
0000
0000
0000
0000
,  // measure 2
0000
0000
2002
3003
,  // measure 3
1001
0000
0101
0000
0010
0000
1000
0100
,  // measure 4
0010
0000
0100
1000
0001
0100
0001
0000
,  // measure 5
0011
0000
0000
0000
1100
0000
0000
0000
0010
0000
0000
0001
0000
0000
1000
0000
,  // measure 6
0001
0000
1000
0010
0001
0010
1000
0000
,  // measure 7
0011
0000
0100
0000
1010
0000
0001
1000
,  // measure 8
0100
0000
1000
0010
0100
0010
1000
0000
,  // measure 9
0011
0000
0000
0000
0100
0000
0000
0000
0010
0000
0000
0001
1000
0000
0001
0000
,  // measure 10
0200
0000
0010
0000
0301
0100
0001
0000
,  // measure 11
1100
0000
0010
0000
1001
0000
0001
0100
,  // measure 12
1000
0000
0100
0010
1000
0001
0010
0000
,  // measure 13
1100
0000
0000
0000
1001
0000
0000
0000
0001
0000
0000
0100
0000
0000
0010
0000
,  // measure 14
0100
0000
0010
1000
0010
0100
0001
0000
,  // measure 15
1010
0000
0100
0000
1001
0000
0001
1000
,  // measure 16
0100
0000
0010
0100
1000
0100
0010
0001
,  // measure 17
0100
0000
0000
0000
1010
0000
0000
0000
1000
0000
0000
0001
0010
0000
0001
0000
,  // measure 18
0100
0010
1000
0100
0010
0010
0010
0000
,  // measure 19
0000
0000
0001
0100
0001
0000
1000
0100
,  // measure 20
1000
0000
0001
0100
0001
1000
1000
0000
,  // measure 21
0000
0000
0010
0001
1000
0000
0010
1000
,  // measure 22
0001
0000
0100
0010
1000
0001
0001
0000
,  // measure 23
1000
0000
0100
1000
0100
2000
0000
0001
,  // measure 24
3001
0000
0001
0100
0001
0200
0000
0310
,  // measure 25
0100
1001
0001
1100
,  // measure 26
0010
0001
1000
0002
0000
0100
0103
0000
,  // measure 27
0010
0000
1100
0000
0010
0001
0100
0000
,  // measure 28
0010
1000
0100
0001
0100
1000
0010
0200
,  // measure 29
0300
0000
0101
0000
0001
0010
0100
0000
,  // measure 30
0010
0001
0100
1000
0001
0010
1000
0002
,  // measure 31
0003
0000
1001
0000
1000
0100
0010
0100
,  // measure 32
1000
0000
0001
0100
0010
0000
1000
0001
,  // measure 33
0101
0000
0000
1000
1100
0000
0000
0001
,  // measure 34
1001
0110
2002
3003
,  // measure 35
0001
0100
0001
0000
1000
0100
0010
0100
,  // measure 36
1000
0000
0001
0100
0010
0100
0001
0000
,  // measure 37
0010
0001
0100
0000
0010
1000
0001
1000
,  // measure 38
0100
0000
0010
0100
1000
0100
0010
0001
,  // measure 39
0100
0010
0100
0000
0001
1000
0100
1000
,  // measure 40
0001
0000
0100
1000
0100
0010
1000
0001
,  // measure 41
0010
0001
0100
0000
0001
1000
0100
0010
,  // measure 42
0100
0000
1000
0010
1000
0001
0101
0000
,  // measure 43
1000
0010
1000
0000
0001
0000
0100
0010
,  // measure 44
0100
0000
0001
0010
0100
0010
0001
0000
,  // measure 45
1000
0000
0100
0000
0010
0000
0000
0000
0001
0000
0000
0010
0001
0000
0010
0000
,  // measure 46
0001
0100
0010
1000
0001
0100
0010
0000
,  // measure 47
1000
0010
1000
0000
0101
0000
0001
0010
,  // measure 48
0100
0000
0010
0100
1000
0010
0100
0001
,  // measure 49
0100
0000
0000
0000
1010
0000
0000
0000
0001
0000
0000
0100
0001
0000
1000
0000
,  // measure 50
0100
1000
0100
0010
1001
0000
0000
0000
,  // measure 51
2000
0010
0002
3003
,  // measure 52
0220
0000
0000
0330
,  // measure 53
0002
0000
0000
0000
0100
0000
0000
0000
1000
0000
0000
0010
0000
0000
1000
0000
,  // measure 54
2000
0000
0000
0000
0000
0000
0000
0000
3003
0000
0000
0000
0100
0010
0100
0000
,  // measure 55
0002
0010
2000
3003
,  // measure 56
0220
0000
0330
2000
,  // measure 57
3200
0000
0000
0000
0001
0000
0000
0000
0010
0000
0000
0010
0000
0000
0010
0000
,  // measure 58
0020
0000
0000
0330
,  // measure 59
0010
0000
0001
0000
1000
0000
0001
0100
,  // measure 60
0010
0100
0001
0000
1001
0000
1000
0001
,  // measure 61
1001
0000
0001
0000
0100
0000
0010
1000
,  // measure 62
0001
1000
0100
0000
0110
0000
0001
1000
,  // measure 63
1001
0000
0100
0000
0010
0000
1000
0100
,  // measure 64
0010
0000
0010
0100
1000
0000
0001
1000
,  // measure 65
1001
0000
0000
0001
0101
0000
0000
1000
,  // measure 66
1100
0110
2002
3003
,  // measure 67
0001
0100
0001
1000
0100
0000
0010
0100
,  // measure 68
1000
0000
0001
0001
1000
1000
0001
0000
,  // measure 69
0100
0000
0001
0000
0100
0000
0001
0000
0010
0000
0000
0001
0000
0000
1000
0000
,  // measure 70
0100
0000
1000
1000
0010
0010
0100
0000
,  // measure 71
0001
0100
0010
0100
0001
0000
1000
0100
,  // measure 72
1000
0000
0001
0001
0010
0010
0100
0000
,  // measure 73
1000
0000
0010
0000
0100
0000
0000
0000
0001
0000
0000
0100
0000
0000
0001
0000
,  // measure 74
1000
0000
0001
0010
0001
0000
1100
0000
,  // measure 75
1001
0001
0100
0010
2000
0000
3010
0100
,  // measure 76
0001
0010
0100
0100
0010
0010
0001
0000
,  // measure 77
1000
0000
0100
0000
0010
0000
0001
0000
0200
0000
0000
0001
0000
0000
0310
0000
,  // measure 78
0010
1000
0001
0001
1000
1000
0100
0000
,  // measure 79
0010
0100
0001
0100
2000
0000
3010
0100
,  // measure 80
1000
0100
0010
0010
0100
0100
0001
0000
,  // measure 81
1000
0000
0010
0000
1000
0000
0001
0000
0200
0000
0000
0001
0000
0000
0310
0000
,  // measure 82
0010
0100
0001
1000
0100
1000
1100
0000
,  // measure 83
1001
0000
0000
0000
0101
0000
0000
0000
0001
0000
0000
1000
0000
0000
0002
0000
,  // measure 84
0200
0000
0303
0000
;

//---------------dance-single - ----------------
#NOTES:
     dance-single:
     :
     Medium:
     5:
     0.455,0.465,0.390,0.327,0.010:
0000
0000
0000
0000
,
0000
0000
2002
3003
,
1000
0000
0001
0000
0100
0000
0010
0100
,
0010
0110
1001
0000
,
0001
0000
0010
0000
0001
0000
1000
0100
,
1000
1001
0110
0000
,
0001
0000
0100
0000
0010
0000
1000
0010
,
1000
0011
1100
0000
,
0010
0000
0100
0000
0001
0000
0010
0001
,
0100
0000
0001
0000
1000
0100
1000
0000
,
0110
0000
0010
0000
0001
0000
1000
0001
,
1000
0110
1001
0100
,
0001
0000
0000
0000
1000
0000
0000
0000
0001
0000
0000
1000
0000
0000
0001
0000
,
0100
0110
1001
0100
,
1000
0000
0001
0000
0010
0000
0001
1000
,
0001
0101
1001
1000
,
0100
0000
0000
0000
0010
0000
0000
0000
0100
0000
0000
0010
0000
0000
0100
0000
,
0010
0001
1000
0001
,
2002
0000
3003
0000
1000
0010
1000
0000
,
0001
0100
0001
0000
1000
0000
2002
0000
,
3003
0000
0001
0100
0001
0000
1000
0100
,
1000
0001
0100
1001
,
0100
0000
0001
0010
0001
0010
0000
0002
,
0000
0000
1003
0010
1000
0020
0000
0130
,
0000
0010
0100
0010
,
1002
0000
0000
0000
0000
0100
0103
0000
,
1001
0000
0001
0000
0100
0000
0010
1000
,
0010
1000
0010
0000
0100
0000
0001
2000
,
0000
0000
3100
0000
0010
0000
0001
0100
,
0001
0100
0001
0000
1000
0000
0010
0200
,
0000
0000
0310
0000
1000
0000
0001
0100
,
0001
0000
1000
0010
0100
0000
0001
1000
,
0001
0000
0000
0100
0100
0000
0000
0010
,
0010
1000
2002
3003
,
1001
0110
2002
3003
,
0001
0000
0100
0010
0100
0010
0100
0000
,
0011
1100
2002
3003
,
1000
0000
0100
0010
0001
0010
0001
0000
,
0101
1010
2002
3003
,
0001
0000
1000
0010
0100
0001
1000
0000
,
0101
1001
0210
1300
,
0001
0000
0100
0000
0010
0100
0010
0000
,
0101
1100
2001
3100
,
0001
0000
0010
0001
0010
0001
0010
0000
,
0011
1100
1002
0103
,
0001
0000
0100
0001
0100
0001
1000
0000
,
1010
0110
2010
3100
,
0010
0000
0100
0010
0001
1000
0001
0000
,
0101
1010
1002
0103
,
1000
0000
0100
1000
0001
0000
0000
0000
,
2000
0000
0100
0100
0000
0000
0001
0002
,
3003
0000
0000
0000
,
0002
0000
0100
0100
0000
0000
1000
2000
,
3003
0000
0000
0000
,
0200
0000
0001
0001
0000
0000
0010
0020
,
0330
0000
0000
1000
,
0020
0000
0100
0100
0000
0000
1000
2000
,
3030
0000
0000
0000
,
1000
0100
0010
0001
,
1000
0001
1000
0000
2002
0000
3003
0000
,
0001
0100
0010
1000
,
0001
0100
0001
0000
2002
0000
3003
0000
,
1000
0100
0001
0100
,
1000
0000
0001
1000
0001
0000
0100
0000
,
0110
0000
0000
0100
0100
0000
0000
0010
,
0010
0100
2002
3003
,
1000
0100
1000
0000
0100
0000
0010
0001
,
0010
0001
2002
3003
,
0001
0100
0010
0000
0100
0000
0001
1000
,
0100
0010
0100
1000
,
0001
0010
0001
0000
1000
0000
0001
1000
,
0001
0110
2002
3003
,
1000
0010
0100
0000
0001
0000
1000
0100
,
1000
0001
0100
0010
,
2001
0000
0010
0000
3001
0000
0100
0001
,
0100
0000
0010
1000
0001
0000
1000
0000
,
0012
0000
0100
0000
1003
0000
0001
0010
,
0100
0000
0010
0001
1000
0000
0001
0000
,
0201
0000
1000
0000
0301
0000
0010
0001
,
0100
0000
0010
1000
0100
0000
0010
0000
,
1200
0000
0001
0000
1300
0000
0001
0100
,
0001
0000
1000
0010
1000
0000
0001
0000
,
1001
0000
0000
0000
0100
0000
0000
0000
0010
0000
0000
0010
0000
0000
0010
0000
,
0200
0000
0300
0000
;

//---------------dance-single - ----------------
#NOTES:
     dance-single:
     :
     Easy:
     4:
     0.346,0.378,0.216,0.334,0.000:
0000
0000
0000
0000
,
0000
0000
2002
3003
,
1000
0100
0010
0100
,
2000
0001
0002
3003
,
0001
0100
0010
0100
,
0002
1000
2000
3003
,
0001
0100
0010
1000
,
0200
0010
0020
0330
,
0010
0001
1000
0001
,
0100
0010
1001
0000
,
0001
0100
0001
1000
,
0200
1000
0020
0330
,
0010
0001
0100
0001
,
2000
0010
0002
3003
,
0001
0100
0010
1000
,
0020
0100
2000
3030
,
0001
0100
0001
0010
,
0100
0010
2002
3003
,
0001
0100
0000
0001
,
0000
1000
0100
1000
,
0000
0001
0000
0010
,
0000
0001
2000
3001
,
0100
0000
0010
0100
,
0001
0000
1000
0100
,
1000
1000
0001
0001
,
0100
0010
2002
3003
,
0001
0100
0010
0100
,
0001
0000
1000
0000
0001
0000
0000
1001
,
0000
1000
0100
0010
,
0001
0000
0100
0000
0010
0000
0000
0110
,
0000
0100
0010
1000
,
0001
1000
0100
0010
,
0110
0000
1001
0000
,
0100
0010
0220
0330
,
0010
0001
1000
0001
,
0100
0110
1001
0000
,
0001
0100
0010
1000
,
0100
0110
1001
0000
,
0001
0010
0001
1000
,
0010
1001
0110
0000
,
0010
1000
0100
0001
,
0100
1000
0001
0100
,
0010
0001
0010
0100
,
0001
1001
2002
3003
,
0001
0100
0001
1000
,
0100
0110
0220
0330
,
0010
0001
1000
0100
,
1000
1001
0220
0330
,
0010
1000
0001
0010
,
0001
0100
2002
3003
,
1000
0100
2000
0000
,
3002
0000
0000
0000
,
0103
0001
0200
0000
,
0320
0000
0000
0000
,
0130
0010
0200
0000
,
0302
0000
0000
0000
,
1003
0100
0020
0000
,
0200
0000
0000
0330
,
1001
0001
0100
0000
,
0001
0100
0001
1000
,
0100
0000
1000
0100
,
0010
0001
0100
0010
,
0100
0000
0010
1000
,
0001
1000
0100
0000
,
0110
0000
1001
0000
,
0110
0110
0220
0330
,
0010
0001
0100
1000
,
0200
0010
0310
0000
,
0100
0010
1000
0100
,
0020
0100
0130
0000
,
0010
0001
1000
0100
,
2000
0001
3001
0000
,
0001
0100
0010
1000
,
0002
0100
0103
0000
,
0001
0100
0010
1000
,
0200
1000
0310
0100
,
0010
0001
0100
0010
,
2000
0010
3001
0100
,
0001
1000
0100
0010
,
0002
0010
1003
0001
,
0100
0010
1000
0100
,
0001
0100
0010
0001
,
1001
0000
0110
0000
,
2002
0000
3003
0000
;

//---------------dance-single - ----------------
#NOTES:
     dance-single:
     :
     Beginner:
     1:
     0.164,0.202,0.070,0.000,0.000:
0000
0000
0000
0000
,
0000
0000
1001
0000
,
0001
0000
0100
0000
,
0001
0000
0000
0000
,
1000
0000
0100
0000
,
0010
0000
0000
0000
,
0100
0000
1000
0000
,
0001
0000
0000
0000
,
0100
0000
0010
0000
,
0100
0000
0000
0000
,
1001
0000
0001
0000
,
0100
0100
0100
0000
,
0010
0000
1000
0000
,
0100
0100
0100
0000
,
1000
0000
0001
0000
,
0010
0010
0010
0000
,
0001
0000
1000
0000
,
1001
0000
0000
0000
,
0001
0000
0000
0000
,
0100
0000
0000
0000
,
0001
0000
0000
0000
,
1000
0000
0000
0000
,
0100
0000
0100
0000
,
0010
0000
0010
0000
,
0001
0000
1000
0000
,
1001
0000
0000
0000
,
1001
0000
0000
0000
,
0100
0100
0100
0000
,
0010
0000
0000
0000
,
1000
1000
1000
0000
,
0001
0000
0000
0000
,
0010
0010
0010
0000
,
0100
0000
0010
0000
,
1001
0000
0000
0000
,
0001
0000
0100
0000
,
0001
0001
0001
0000
,
1000
0000
0100
0000
,
1000
1000
1000
0000
,
0010
0000
1000
0000
,
0001
0001
0001
0000
,
0010
0000
0100
0000
,
0010
0000
0000
0000
,
1001
0000
0001
0000
,
0100
0100
0100
0000
,
0010
0000
1000
0000
,
0100
0100
0100
0000
,
1000
0000
0001
0000
,
0010
0010
0010
0000
,
0001
0000
1000
0000
,
1001
0000
0000
0000
,
1000
0000
0100
0000
,
1000
0000
0000
0000
,
0100
0000
0010
0000
,
0100
0000
0000
0000
,
0010
0000
0001
0000
,
0010
0000
0000
0000
,
0001
0000
1000
0000
,
0001
0000
0000
0000
,
1000
0000
0000
0000
,
0100
0000
0000
0000
,
0010
0000
0000
0000
,
0001
0000
0000
0000
,
0100
0000
0000
0000
,
0010
0000
0100
0000
,
0010
0000
0100
0000
,
1001
0000
0000
0000
,
0001
0000
0100
0000
,
0001
0001
0001
0000
,
1000
0000
0100
0000
,
1000
1000
1000
0000
,
0001
0000
0010
0000
,
0001
0001
0001
0000
,
1000
0000
0010
0000
,
1000
0000
0001
0000
,
0100
0000
0010
0000
,
1000
1000
1000
0000
,
0100
0000
0010
0000
,
0001
0001
0001
0000
,
0100
0000
0010
0000
,
1000
1000
1000
0000
,
0001
0000
0010
0000
,
0100
0000
0000
0000
,
0010
0000
0001
0000
,
1001
0000
0000
0000
;
