#TITLE:HOT LIMIT;
#SUBTITLE:;
#ARTIST:T.M.Revolution;
#TITLETRANSLIT:;
#SUBTITLETRANSLIT:;
#ARTISTTRANSLIT:;
#CREDIT:;
#BANNER:;
#BACKGROUND:;
#LYRICSPATH:;
#CDTITLE:;
#MUSIC:HOT LIMIT.mp3;
#OFFSET:-8.700;
#SAMPLESTART:15.570;
#SAMPLELENGTH:13.860;
#SELECTABLE:YES;
#DISPLAYBPM:139.000;
#BPMS:0.000=138.540,132.000=138.370;
#STOPS:;
#BGCHANGES:;

//---------------dance-single - ----------------
#NOTES:
     dance-single:
     :
     Hard:
     8:
     0.544,0.469,0.256,0.192,0.201:
1000
0100
0010
0000
0100
0000
1100
0000
,
0010
0001
0100
0000
0001
0100
0010
0000
,
1000
0010
0100
0000
0001
0000
1001
0000
,
0010
0001
1000
0100
0010
0100
1000
0010
,
0110
0000
0000
0000
0101
0000
0000
0000
0001
0000
0000
1000
0000
0000
0100
0000
,
0010
0000
0001
0000
0100
0000
0010
0000
0100
0000
0010
1000
0000
0000
0000
0000
,
0001
0010
0001
1000
0100
0010
0100
1000
,
0010
0000
0100
0000
0001
0000
1000
0002
0000
0000
0000
0000
0013
0000
0000
0000
,
1100
0000
0000
0000
0011
0000
0000
0000
0100
0000
0000
0001
0000
0000
0100
0000
,
0010
0000
1000
0000
0100
0000
1000
0000
0001
0000
0010
0001
0000
0000
0000
0000
,
1000
0010
0100
0010
1000
0100
0010
0100
,
1000
0010
0110
0000
2002
0000
3003
0000
,
1000
0000
0100
0000
0010
0001
0000
0000
0001
0000
0010
0000
0100
1000
0000
0000
,
1000
0000
0010
0000
0100
0001
0000
0000
0001
0000
0100
0000
0110
0000
0000
0000
,
0010
0000
0100
0000
0001
0010
0000
0000
0100
0000
0010
0000
0001
0100
0000
0000
,
0100
0000
0010
0000
1000
0010
0000
0000
0100
0000
0001
0000
1001
0000
0000
0000
,
1000
0100
0010
0001
0010
0100
1000
0000
,
0010
0100
0001
1000
0001
0100
0010
0000
,
0010
1000
0100
0010
0100
1000
0010
0100
,
0001
0000
0000
0010
0000
0000
0100
0000
2000
0000
0000
0000
3000
0000
0000
0000
,
1000
0010
0100
0001
0010
0001
1000
0100
,
1000
0010
1000
0001
0100
0010
0100
0001
,
0010
0001
1000
0100
0010
0100
1000
0010
,
0100
0000
0000
0010
0000
0000
1000
0000
0002
0000
0000
0000
0003
0000
0000
0000
,
1000
0000
0000
0010
0000
0000
0001
0000
0010
0000
0000
1000
0000
0000
0100
0000
,
0001
0000
0000
0100
0000
0000
1000
0000
0010
0000
0000
0000
0110
0000
0100
0000
,
0001
0000
0000
0010
0000
0000
0001
0000
1000
0000
0000
0000
1100
0000
0000
0000
,
0011
0101
2002
3003
,
0001
0000
0000
0100
0000
0000
0010
0000
1000
0000
0000
0100
0000
0000
0010
0000
,
0001
0000
0000
1000
0000
0000
0001
0000
0100
0000
0000
0000
0010
0000
1000
0000
,
0002
0000
0003
1000
0200
0000
0300
0010
,
0001
0000
0000
1000
0000
0000
0001
0000
0101
0000
0000
0000
0000
0000
0001
0100
,
0001
0000
0000
1000
0000
0000
0001
0000
2002
0000
0000
0000
3003
0000
0000
0000
,
0011
0000
0000
0000
1100
0000
0000
0000
1001
0000
0001
1000
0000
0000
0001
0000
,
0100
0000
0010
0000
1000
0000
0100
0000
0010
0000
0100
0010
0000
0000
0000
0000
,
0010
0001
0100
0010
0100
0001
1000
0001
,
1000
0000
0010
0000
0100
0000
0001
0100
0000
0101
0000
0000
1001
0000
0000
0000
,
0001
0000
1000
0000
0100
0000
0010
0000
0100
0000
1000
0100
0000
0000
0010
0000
,
0001
0000
0100
0000
0010
0000
1000
0000
0001
0000
0100
0001
0000
0000
0000
0000
,
1000
0100
0010
0100
0010
0001
0100
0010
,
1000
0001
0101
0000
2002
0000
3003
0000
,
0110
0000
0000
0000
1001
0000
0000
0000
1000
0000
0100
0010
0000
0010
0001
0000
,
0100
0000
0010
0000
1000
0000
0001
0000
0100
0000
0010
1000
0000
0000
0000
0000
,
0001
0100
0010
1000
0100
0001
0100
1000
,
0010
0000
0100
0000
0001
0000
2000
0002
0000
0000
0000
0000
3003
0000
0000
0000
,
0001
0000
0100
0000
0010
0000
1000
0000
0100
0000
0010
0001
0000
0010
0001
0000
,
0100
0000
0010
0000
1000
0000
0001
0000
0100
0000
0010
0100
0000
0000
0000
0000
,
0001
0010
0001
1000
0100
1000
0001
0100
,
0010
1000
1010
0000
0202
0000
0303
0000
,
1000
0000
0010
0000
0100
0001
0000
0000
1000
0000
0010
0000
0100
0001
0000
0000
,
1000
0000
0100
0000
0010
0001
0000
0000
1000
0000
0100
0000
0010
0000
0001
0000
,
0100
0000
0001
0000
0100
0001
0000
0000
0100
0000
0001
0000
0100
0001
0000
0000
,
1000
0000
0100
0000
1000
0100
0000
0000
1000
0000
0100
0000
0010
0000
0100
0000
,
2000
0010
3002
0010
,
0203
0000
0010
0000
0301
0100
0010
1000
,
0002
0000
0000
0000
,
1003
0000
0100
0000
0010
0000
0001
0000
0100
0000
0010
0000
0100
0010
0100
0010
;

//---------------dance-single - ----------------
#NOTES:
     dance-single:
     :
     Medium:
     5:
     0.383,0.391,0.147,0.101,0.014:
1000
0100
0010
0001
,
0001
0100
0001
0000
1000
0100
1000
0000
,
0010
0100
0001
1000
,
0010
0100
2002
3003
,
0001
0100
0010
1010
,
1000
0100
0010
0000
0010
0001
0100
0000
,
0010
1000
0001
0100
,
0001
0100
0001
1000
0200
0000
0300
0000
,
0010
0001
0100
0000
0010
1000
0100
0000
,
0010
0000
0001
0000
0100
0001
0100
0000
,
0010
0000
1000
0000
0100
1000
0100
0000
,
0010
0001
0100
0000
2002
0000
3003
0000
,
0001
0100
0010
0000
1000
0100
0010
0000
,
0001
0000
1000
0000
0010
0100
0010
0000
,
0001
1000
0100
0000
1000
0001
0100
0000
,
0001
0000
1000
0000
0010
0100
0010
0000
,
1000
0100
0010
0001
,
0100
0010
1000
0001
,
0100
0001
1000
0010
,
1000
0000
0000
0001
0000
0000
1000
0000
0001
0000
0000
0000
0000
0000
0000
0000
,
0001
0100
0010
1000
,
0001
0010
0100
1000
,
0010
0100
0001
1000
,
0010
0000
0000
0100
0000
0000
0010
0000
0100
0000
0000
0000
0000
0000
0000
0000
,
0010
0000
1000
0100
1000
0000
0001
0100
,
0001
0000
1000
0001
1000
0000
0000
0010
,
1000
0000
0001
0010
0001
0000
0100
0000
,
0110
1001
0110
0000
,
0010
0000
0001
0100
0010
0000
1000
0100
,
0010
0000
0100
1000
0010
0000
0000
1000
,
0020
0000
0030
0100
0002
0000
0003
1000
,
0100
0000
0010
0001
0100
0000
0010
0000
,
1000
0000
0000
2000
0000
0000
0001
0000
0002
0000
0000
0000
3003
0000
0000
0000
,
1100
0101
1010
0011
,
0100
0001
1000
0000
0001
1000
0100
0000
,
0010
0001
0100
0010
,
1000
0000
0100
0000
0010
0001
0100
0000
,
0011
1100
1010
0101
,
0001
0100
0010
0000
1000
0100
0010
0000
,
1000
0010
0100
0001
,
1000
0100
0010
0000
0022
0000
0033
0000
,
0010
0100
0010
0000
0001
1000
0001
0000
,
0100
0000
0001
0000
1000
0010
0100
0000
,
0001
0010
0100
0000
1000
0000
0010
0000
,
0100
0001
1000
0010
0100
0000
0000
0000
,
0010
1000
0100
0000
0010
0001
0100
0000
,
0001
0000
1000
0000
0100
0010
0100
0000
,
1000
0010
0100
0000
0010
0000
0100
0000
,
0001
0100
0010
0000
1001
0000
0000
0000
,
1000
1000
1000
0000
0001
0001
0001
0000
,
0100
0000
0010
0000
0100
0010
0100
0000
,
0010
0010
0010
0000
0100
0100
0100
0000
,
0001
0000
0100
0000
0010
1000
0010
1000
,
0010
0000
1000
0000
,
0100
0000
0010
0000
,
0001
0000
1000
0000
,
0100
0000
0010
0000
0001
0010
0001
0010
;

//---------------dance-single - ----------------
#NOTES:
     dance-single:
     :
     Easy:
     3:
     0.243,0.260,0.092,0.000,0.000: // measure 1
1001
0000
0000
0000
,  // measure 2
0001
0000
0100
0000
,  // measure 3
0110
0000
0000
0000
,  // measure 4
1000
0100
0010
0001
,  // measure 5
0100
0100
0010
1000
,  // measure 6
0001
0100
0001
0000
,  // measure 7
0010
0001
0100
0100
,  // measure 8
0010
1000
0100
0000
,  // measure 9
0010
0001
0010
0001
,  // measure 10
1000
0100
1000
0100
,  // measure 11
1000
0010
0100
0001
,  // measure 12
0010
0100
0110
0000
,  // measure 13
1001
0001
1000
1000
,  // measure 14
0010
0010
0100
0100
,  // measure 15
0001
0100
0010
1000
,  // measure 16
0100
1000
0001
0010
,  // measure 17
0001
0000
1000
0000
,  // measure 18
0001
0000
0100
0000
,  // measure 19
0010
0000
1000
0000
,  // measure 20
0100
0010
0100
0010
,  // measure 21
0001
0000
0100
0000
,  // measure 22
0010
1000
0010
0000
,  // measure 23
0100
0000
0001
0000
,  // measure 24
1000
0001
0100
0000
,  // measure 25
0110
0000
1001
0000
,  // measure 26
0001
1000
0100
0000
,  // measure 27
0010
0000
0001
0000
,  // measure 28
1000
1000
1000
0000
,  // measure 29
0110
0000
1001
0000
,  // measure 30
0001
0010
0001
0000
,  // measure 31
0100
0000
0010
0000
,  // measure 32
1000
0010
0100
0001
,  // measure 33
0010
0100
0010
0000
,  // measure 34
0110
0010
0001
0100
,  // measure 35
0010
1000
0010
0000
,  // measure 36
0100
0001
0010
0001
,  // measure 37
1000
0100
0010
0000
,  // measure 38
0100
1000
0001
0000
,  // measure 39
0010
0001
0100
0000
,  // measure 40
0010
1000
0001
0100
,  // measure 41
0001
0010
0100
0000
,  // measure 42
0010
0100
0110
0000
,  // measure 43
0001
1000
0001
0100
,  // measure 44
0010
1000
0100
0010
,  // measure 45
0100
1000
0001
0000
,  // measure 46
0010
0001
0100
0000
,  // measure 47
0010
1000
0100
0000
,  // measure 48
1000
0010
0100
0001
,  // measure 49
0010
0001
1000
0000
,  // measure 50
0001
0001
1000
1000
,  // measure 51
0100
0100
0010
0010
,  // measure 52
0001
0100
0010
1000
,  // measure 53
0100
1000
0001
0010
,  // measure 54
0001
0000
1000
0000
,  // measure 55
0100
0000
0010
0000
,  // measure 56
0100
0000
0000
0000
,  // measure 57
1000
0100
0010
0001
;

//---------------dance-single - ----------------
#NOTES:
     dance-single:
     :
     Beginner:
     1:
     0.131,0.182,0.064,0.000,0.000: // measure 1
1000
0000
0000
0000
,  // measure 2
0100
0000
0010
0000
,  // measure 3
0100
0000
0000
0000
,  // measure 4
0001
0000
1000
0000
,  // measure 5
1001
0000
0001
0000
,  // measure 6
0100
0000
0010
0000
,  // measure 7
1000
0000
0100
0000
,  // measure 8
0010
0010
0010
0000
,  // measure 9
0001
0000
0100
0000
,  // measure 10
0010
0000
1000
0000
,  // measure 11
0001
0000
0100
0000
,  // measure 12
0001
0001
0001
0000
,  // measure 13
1001
0000
1000
0000
,  // measure 14
0001
0000
1000
0000
,  // measure 15
0100
0000
0010
0000
,  // measure 16
0100
0000
0010
0000
,  // measure 17
0100
0000
0000
0000
,  // measure 18
0010
0000
0000
0000
,  // measure 19
0001
0000
0000
0000
,  // measure 20
1000
0000
0010
0000
,  // measure 21
0100
0000
0000
0000
,  // measure 22
0001
0000
0000
0000
,  // measure 23
1000
0000
0000
0000
,  // measure 24
0100
0000
0010
0000
,  // measure 25
0001
0000
0000
0000
,  // measure 26
1000
0000
0010
0000
,  // measure 27
1000
0000
0000
0000
,  // measure 28
0001
0000
0100
0000
,  // measure 29
0001
0000
0000
0000
,  // measure 30
0010
0000
0001
0000
,  // measure 31
0100
0000
0000
0000
,  // measure 32
0010
0000
0000
0000
,  // measure 33
1000
0000
0100
0000
,  // measure 34
0110
0000
0000
0000
,  // measure 35
1001
0000
0000
0000
,  // measure 36
0001
0000
0100
0000
,  // measure 37
0010
0000
1000
0000
,  // measure 38
1001
0000
0000
0000
,  // measure 39
0110
0000
0000
0000
,  // measure 40
0010
0000
0001
0000
,  // measure 41
0100
0000
0010
0000
,  // measure 42
0100
0000
0000
0000
,  // measure 43
0010
0000
0000
0000
,  // measure 44
1000
0000
0001
0000
,  // measure 45
0100
0000
0010
0000
,  // measure 46
1000
0000
0000
0000
,  // measure 47
0001
0000
0000
0000
,  // measure 48
0100
0000
0001
0000
,  // measure 49
0010
0000
0100
0000
,  // measure 50
0110
0000
0010
0000
,  // measure 51
0001
0000
0100
0000
,  // measure 52
0010
0000
0010
0000
,  // measure 53
1000
0000
0100
0000
,  // measure 54
1000
0000
0000
0000
,  // measure 55
0001
0000
0000
0000
,  // measure 56
0100
0000
0000
0000
,  // measure 57
0010
0000
0100
0100
;
