#VERSION:0.83;
#TITLE:I Am Gonna Claw;
#SUBTITLE:(Out Your Eyes Then Drown You To Death) (From Hades II);
#ARTIST:Darren Korb;
#TITLETRANSLIT:;
#SUBTITLETRANSLIT:;
#ARTISTTRANSLIT:;
#GENRE:;
#ORIGIN:;
#TAGS:;
#CREDIT:JBEAN;
#BANNER:I Am Gonna Claw (Out Your Eyes Then Drown You To Death)-banner.png;
#BACKGROUND:I Am Gonna Claw (Out Your Eyes Then Drown You To Death)-bk.png;
#PREVIEWVID:;
#JACKET:I Am Gonna Claw (Out Your Eyes Then Drown You To Death)-jacket.png;
#CDIMAGE:;
#DISCIMAGE:;
#LYRICSPATH:I Am Gonna Claw (Out Your Eyes Then Drown You To Death).lrc;
#CDTITLE:;
#MUSIC:I Am Gonna Claw (Out Your Eyes Then Drown You To Death).ogg;
#OFFSET:0.020000;
#SAMPLESTART:40.175999;
#SAMPLELENGTH:12.000000;
#SELECTABLE:YES;
#BPMS:0.000000=146.000000
;
#STOPS:;
#DELAYS:;
#WARPS:;
#TIMESIGNATURES:0.000000=4=4
;
#TICKCOUNTS:0.000000=4
;
#COMBOS:0.000000=1
;
#SPEEDS:0.000000=1.000000=0.000000=0
;
#SCROLLS:0.000000=1.000000
;
#XSCROLLS:0.000000=0.000000 ;
#FAKES:;
#LABELS:0.000000=Song Start
;
#BGCHANGES:;
#KEYSOUNDS:;
#ATTACKS:
;

//---------------dance-single - J. Frederick----------------
#NOTEDATA:;
#CHARTNAME:J. Frederick;
#CHARTHASH:3282552680;
#STEPSTYPE:dance-single;
#BANNER:;
#DESCRIPTION:J. Frederick;
#CHARTSTYLE:;
#DIFFICULTY:Beginner;
#METER:1;
#METERF:0.000000;
#LASTSECONDHINT:199.706024;
#RADARVALUES:0.097159,0.208070,0.029357,0.000000,0.000000,139.000000,133.000000,6.000000,0.000000,0.000000,0.000000,0.000000,0.000000,0.000000,0.097159,0.208070,0.029357,0.000000,0.000000,139.000000,133.000000,6.000000,0.000000,0.000000,0.000000,0.000000,0.000000,0.000000;
#CREDIT:J. Frederick;
#NOTES:
// measure 0
0000
0000
0000
0000
,  // measure 1
0000
0000
0000
0000
,  // measure 2
0000
0000
0000
0000
,  // measure 3
0000
0000
0000
0000
,  // measure 4
0000
0000
0000
0000
,  // measure 5
0000
0000
0000
0000
,  // measure 6
0000
0000
0001
0000
,  // measure 7
0000
0000
0000
0000
,  // measure 8
0000
0000
0000
0000
,  // measure 9
0000
1000
0000
0000
,  // measure 10
0000
0000
0000
0000
,  // measure 11
0000
0000
0000
0000
,  // measure 12
0010
0000
0000
0000
,  // measure 13
0000
0000
0000
0000
,  // measure 14
0000
0000
0000
0100
,  // measure 15
0000
0000
0000
0000
,  // measure 16
0000
0000
0000
0001
,  // measure 17
0001
1000
1000
0000
,  // measure 18
0000
0001
0000
0000
,  // measure 19
0010
0000
0100
0000
,  // measure 20
0000
0000
0000
0000
,  // measure 21
1000
0000
0000
0100
,  // measure 22
0000
0000
0010
0000
,  // measure 23
0000
0000
0000
0000
,  // measure 24
0000
0000
1001
0000
,  // measure 25
0000
0000
1000
0000
,  // measure 26
0000
0000
0010
0000
,  // measure 27
0000
0000
0100
0000
,  // measure 28
0000
0000
0001
0000
,  // measure 29
0000
0000
1000
0000
,  // measure 30
0000
0000
0100
0000
,  // measure 31
0000
0000
0010
0000
,  // measure 32
0000
0000
0001
0000
,  // measure 33
0000
0000
1000
0000
,  // measure 34
0000
0000
0010
0000
,  // measure 35
0000
0000
0100
0000
,  // measure 36
0100
0000
0010
0000
,  // measure 37
0000
1000
0000
0000
,  // measure 38
0001
0000
0000
0010
,  // measure 39
0000
0100
0000
0000
,  // measure 40
1000
0000
0000
0001
,  // measure 41
0000
0000
0100
0100
,  // measure 42
0010
0000
0000
1000
,  // measure 43
0000
0000
0001
0000
,  // measure 44
0000
0010
0010
0100
,  // measure 45
0000
0000
1000
0000
,  // measure 46
0001
0000
0100
0010
,  // measure 47
0100
0010
0100
0000
,  // measure 48
0000
0001
0000
0000
,  // measure 49
1000
0000
0000
0100
,  // measure 50
0010
0100
0000
0000
,  // measure 51
1000
0000
0000
0001
,  // measure 52
0000
0000
0100
0000
,  // measure 53
0000
0000
0000
0000
,  // measure 54
0000
0000
0110
0000
,  // measure 55
0000
0000
0010
0000
,  // measure 56
0000
0000
0001
0000
,  // measure 57
0000
0000
1000
0000
,  // measure 58
0000
0000
0010
0000
,  // measure 59
0000
0000
0100
0000
,  // measure 60
0000
0000
0001
0000
,  // measure 61
0000
0000
1001
0000
,  // measure 62
0000
0000
1000
0000
,  // measure 63
0000
0000
0100
0000
,  // measure 64
0000
0000
1000
0000
,  // measure 65
0000
0000
0010
0000
,  // measure 66
0000
0000
0100
0000
,  // measure 67
0000
0000
0001
0000
,  // measure 68
0000
0000
0010
0000
,  // measure 69
0000
0000
0100
0000
,  // measure 70
0010
0000
0110
0000
,  // measure 71
0000
0000
0000
0000
,  // measure 72
0000
0000
0010
0000
,  // measure 73
0000
0000
0001
0000
,  // measure 74
0000
0000
1000
0000
,  // measure 75
0000
0000
0010
0000
,  // measure 76
0000
0000
0100
0000
,  // measure 77
0000
0000
0001
0000
,  // measure 78
0000
0000
1000
0000
,  // measure 79
0000
0000
0010
0000
,  // measure 80
0000
0000
0100
0000
,  // measure 81
0000
0000
0001
0000
,  // measure 82
0000
0000
1000
0000
,  // measure 83
0000
0000
0100
0000
,  // measure 84
0000
0000
0010
0000
,  // measure 85
0000
0000
0001
0000
,  // measure 86
0000
0000
1000
0000
,  // measure 87
0000
0000
0010
0000
,  // measure 88
0000
0000
0100
0000
,  // measure 89
0000
0000
0001
0000
,  // measure 90
1000
0000
0001
0000
,  // measure 91
1000
0000
0001
0000
,  // measure 92
0000
0000
0100
0000
,  // measure 93
0000
0000
0010
0000
,  // measure 94
0000
0000
1000
0000
,  // measure 95
0000
0000
0001
0000
,  // measure 96
0000
0000
0010
0000
,  // measure 97
0000
0000
0100
0000
,  // measure 98
0000
0000
1000
0000
,  // measure 99
0000
0000
0010
0000
,  // measure 100
0000
0000
0100
0000
,  // measure 101
0000
0000
0001
0000
,  // measure 102
0000
0000
1000
0000
,  // measure 103
0001
0000
0010
0000
,  // measure 104
0000
0000
0100
0000
,  // measure 105
0000
0000
1000
0000
,  // measure 106
0000
0000
0010
0000
,  // measure 107
0100
0000
0001
0000
,  // measure 108
0000
0000
1000
0000
,  // measure 109
0000
0000
0100
0000
,  // measure 110
0000
0000
0010
0000
,  // measure 111
0001
0000
1000
0000
,  // measure 112
0000
0000
0010
0000
,  // measure 113
0000
0000
0100
0000
,  // measure 114
0000
0000
0001
0000
,  // measure 115
1000
0000
0100
0000
,  // measure 116
0000
0000
0010
0000
,  // measure 117
0000
0000
0001
0000
,  // measure 118
0000
0000
1000
0000
,  // measure 119
0001
0000
1001
0000
,  // measure 120
0000
0000
0010
0000
,  // measure 121
0100
0000
0110
0000
;

//---------------dance-single - J. Frederick----------------
#NOTEDATA:;
#CHARTNAME:J. Frederick;
#CHARTHASH:3503057842;
#STEPSTYPE:dance-single;
#BANNER:;
#DESCRIPTION:J. Frederick;
#CHARTSTYLE:;
#DIFFICULTY:Easy;
#METER:3;
#METERF:0.000000;
#LASTSECONDHINT:200.527939;
#RADARVALUES:0.207599,0.298467,0.034250,0.161466,0.000000,297.000000,290.000000,7.000000,33.000000,0.000000,0.000000,0.000000,0.000000,0.000000,0.207599,0.298467,0.034250,0.161466,0.000000,297.000000,290.000000,7.000000,33.000000,0.000000,0.000000,0.000000,0.000000,0.000000;
#CREDIT:J. Frederick;
#NOTES:
0000
0000
0000
0000
,
0000
0000
0000
0000
,
0000
0000
0000
0000
,
0000
0000
0000
0000
,
0000
0000
0000
0000
,
0000
0000
0000
0000
,
0000
0000
1000
0000
,
0001
1000
0000
0010
,
0100
0000
0001
0010
,
0100
1000
0000
0001
,
0100
0000
0010
1000
,
0000
0100
1000
0001
,
0010
0000
0001
0100
,
0000
0010
1000
0000
,
0100
1000
0001
0010
,
0000
0001
1000
0000
,
0100
1000
0000
0010
,
0100
0001
1000
0000
,
0001
0010
0100
1000
,
0001
0100
0010
1000
,
0001
0200
0000
0300
,
0020
0000
0030
2000
,
0000
3000
0002
0000
,
0000
2000
0000
0000
,
3003
0000
1000
0000
,
0001
0000
0100
0000
,
0010
0000
1000
0000
,
0001
0000
0010
0001
,
0100
0010
1000
0000
,
0100
0000
0010
0000
,
0001
0000
1000
0000
,
0100
0000
1000
0001
,
0100
0010
1000
0000
,
0001
0000
1000
0000
,
0001
0000
0100
0000
,
0010
0000
0100
0000
,
0020
0000
0130
0000
,
0010
1000
0000
0001
,
0010
0000
0100
1000
,
0001
0100
0000
0010
,
1000
0000
0001
0010
,
0000
0100
1000
0001
,
0100
0000
0010
1000
,
0000
0100
0010
0000
,
0001
1000
0010
0100
,
0000
0010
1000
0000
,
0001
0010
0000
0100
,
1000
0001
0100
0100
,
0100
0010
0010
0010
,
1000
1000
1000
0001
,
0010
0200
0000
0300
,
2000
0000
3000
0002
,
0000
0003
0200
0000
,
0000
0020
0000
0000
,
0330
0000
0010
0000
,
1000
0000
0100
0000
,
0010
0000
0001
0000
,
1000
0000
0100
1000
,
0001
0000
0100
0000
,
0010
0000
1000
0000
,
0001
0000
0010
0000
,
0001
0000
1000
0010
,
0100
0001
1000
0000
,
0100
0000
0010
0000
,
0001
1000
0010
0000
,
0100
0000
0001
0000
,
1000
0000
0100
0000
,
0010
0001
1000
0000
,
0100
0000
1000
0000
,
0010
0100
0002
0000
,
2000
3003
0001
1000
,
0001
1000
0010
0100
,
0010
0100
0001
0010
,
0001
0010
0100
1000
,
0100
1000
0010
0100
,
0001
0000
0010
0100
,
1000
0000
0100
1000
,
0001
0000
0100
0001
,
0010
0000
0100
1000
,
0001
0000
0100
0010
,
1000
0000
0010
1000
,
0001
0000
0010
0100
,
1000
0000
0001
1000
,
0001
0001
1000
0001
,
1000
1000
0001
1000
,
0001
0001
1000
0001
,
1001
0000
0100
0010
,
0100
0100
0010
0100
,
0010
0010
0100
0010
,
0100
0100
0010
0100
,
0110
0000
2002
0000
,
0000
3003
2002
0000
,
0000
0000
0000
0000
,
0000
3003
0001
0000
,
1000
0000
0001
0000
,
1000
0000
0020
0000
,
0000
0030
0200
0000
,
0000
0300
0002
0000
,
0000
0003
2000
3000
,
0200
0300
0020
0000
,
0000
0030
0002
0000
,
0000
0003
2000
0000
,
0000
3000
0020
0030
,
0200
0300
0001
0100
,
0010
1000
0001
0000
,
0010
0100
1000
0000
,
0001
0000
1001
0000
,
0110
0000
0100
0010
,
1000
0001
0010
0000
,
0100
0000
1000
0000
,
0001
1000
0002
0000
,
2000
3003
1000
0001
,
0100
0000
0010
0000
,
0100
0000
0001
1000
,
0100
0000
0010
0000
,
0001
0000
1000
0001
,
1000
0000
0010
0000
,
0100
0000
0010
1000
,
0001
0000
0020
0000
,
0000
0000
0200
0000
,
0000
0000
0000
0000
,
0000
0330
2002
0000
,
3003
0000
0000
0000
;

//---------------dance-single - J. Frederick----------------
#NOTEDATA:;
#CHARTNAME:J. Frederick;
#CHARTHASH:3505926864;
#STEPSTYPE:dance-single;
#BANNER:;
#DESCRIPTION:J. Frederick;
#CHARTSTYLE:;
#DIFFICULTY:Medium;
#METER:6;
#METERF:0.000000;
#LASTSECONDHINT:200.527939;
#RADARVALUES:0.301961,0.447700,0.092965,0.200609,0.000000,432.000000,413.000000,19.000000,41.000000,0.000000,0.000000,0.000000,0.000000,0.000000,0.301961,0.447700,0.092965,0.200609,0.000000,432.000000,413.000000,19.000000,41.000000,0.000000,0.000000,0.000000,0.000000,0.000000;
#CREDIT:J. Frederick;
#NOTES:
0000
0000
0000
0000
,
0000
0000
0000
0000
,
0000
0000
0000
0000
,
0000
0000
0000
0000
,
0000
0000
0000
0000
,
0000
0000
0000
0000
,
0000
0000
1001
0000
,
1000
0001
0000
0100
,
0010
0000
1000
0100
,
0010
0001
0000
0100
,
0010
0000
1000
0001
,
0000
0010
0001
0100
,
0010
0000
1000
0001
,
0000
0010
0100
0000
,
1000
0010
0100
0001
,
0000
1000
0100
0000
,
0010
0001
0000
1000
,
0010
0100
0002
0000
,
1003
0100
0010
0001
,
0100
0010
1000
0100
,
0010
0000
0001
1000
0000
1000
0010
0000
,
0010
0100
0000
0100
0001
0000
0001
0010
,
0000
0010
0100
0000
0100
2000
0000
0000
,
0000
0002
0000
0000
,
0000
3003
1001
0001
,
0100
0010
1000
0000
0200
0000
0000
0000
,
0310
0001
2000
0000
,
0000
0000
3001
0000
0100
0010
1000
0000
,
0100
0010
0001
0000
0100
0000
0010
1000
,
0001
0010
0200
0000
,
0310
0001
2000
0000
,
0000
0000
3010
0000
0100
0010
1000
0000
,
0001
0010
0100
1000
0001
0000
0100
0000
,
0010
1000
0001
0010
,
0100
1000
0010
0100
,
0001
0010
0001
1000
,
0200
0000
1300
0000
,
0100
0010
0000
0001
,
0100
0000
0010
1000
,
0001
0010
0000
0001
,
1000
0000
0100
1000
,
0000
0010
0100
0001
,
0010
0000
0100
1000
,
0000
0001
0100
0000
,
0010
1000
0001
0010
,
0000
0100
1000
0000
,
0010
0100
0000
0001
,
0100
0010
1000
0001
,
0010
0001
0100
0010
,
1000
0100
0010
0001
,
0100
0000
0010
1000
0000
1000
0001
0000
,
0001
0010
0000
0010
0100
0000
0100
1000
,
0000
1000
0010
0000
0200
0000
0000
0000
,
0000
0020
0000
0000
,
0000
0330
0010
0100
,
0001
1000
0100
0000
0020
0000
0000
0000
,
0031
1000
0020
0000
,
0130
0000
0001
0000
0010
0001
0100
0000
,
0010
1000
0100
0000
0010
0000
0001
0000
,
1000
0010
0200
0000
,
0310
1000
0200
0000
,
0310
0000
0001
0000
0010
0100
1000
0000
,
0010
0100
0001
0000
0010
0000
0001
0000
,
0100
0010
1000
0000
0001
0000
0010
0000
,
0001
1000
0100
0000
1000
0000
0010
0000
,
0100
0001
1000
0000
0002
0000
0003
0000
,
2000
3000
0100
1000
,
0010
0100
0001
0000
0010
0000
0001
0000
,
0100
0010
1000
0000
0100
0000
0010
0000
,
0001
0010
0100
0000
2000
0000
0000
0000
,
3001
0100
0020
0000
,
0000
0000
0230
0000
,
0000
0000
0302
0000
,
0000
0000
2003
0000
,
0000
0000
3100
0010
,
0002
0000
0103
0010
,
2000
0000
3100
1000
,
0002
0000
0013
0001
,
0200
0000
0000
0000
0310
0000
1000
0010
,
0100
0000
0000
0000
0001
0000
0010
0100
,
1000
0000
0000
0000
0100
0000
1000
0001
,
0100
0000
0000
0000
0001
0000
1000
0010
,
0100
0000
0010
0100
,
0001
0001
0010
0100
,
1000
1000
0100
0010
,
0001
0001
0100
0010
,
1000
0000
1000
0000
0010
0100
0010
0000
,
0100
0000
0000
0000
0010
1000
0001
0000
,
0010
0000
0000
0000
0100
1000
0001
0000
,
0100
0000
0010
1010
,
0100
0101
0001
1001
,
0010
0011
0100
1100
,
0010
0000
0110
0000
0010
0001
1000
0010
,
0100
0001
1000
0000
0001
0000
1000
0000
,
0001
1000
0001
1000
,
0001
1000
0010
0000
0200
0000
0000
0000
,
0301
0010
0200
0000
,
1300
0001
0020
0000
,
0031
0000
0100
0000
0010
1000
0010
0000
,
0100
0001
0100
0000
0020
0000
0000
0000
,
1030
0001
0020
0000
,
0130
1000
0002
0000
,
0013
0000
0001
0000
0100
0001
1000
0000
,
0100
1000
0001
0000
0010
0001
0100
0000
,
0010
0000
1000
0000
0100
1000
0010
0000
,
0100
0001
2000
0000
,
3001
0000
0010
0100
2000
0000
0000
0000
,
3020
0000
0000
0000
0130
0000
0001
0010
,
0100
0000
0010
0000
0001
0000
0100
0010
,
1000
0001
0020
0000
,
0130
1000
0002
0000
,
2000
0000
3003
1001
,
0010
0110
1000
1010
,
0001
0101
0010
0011
,
0100
0000
1100
0000
0010
0001
0010
0000
,
0100
1000
0100
0000
1000
0000
1010
0000
,
0001
0101
1000
1001
,
0100
0000
1100
0000
0010
0001
0100
0000
,
0010
1000
0100
0000
0020
0000
0000
0000
,
0000
0000
0200
0000
,
0000
0000
0000
0000
,
0000
0330
2002
0000
,
3003
0000
0000
0000
;

//---------------dance-single - J. Frederick----------------
#NOTEDATA:;
#CHARTNAME:J. Frederick;
#CHARTHASH:3040864881;
#STEPSTYPE:dance-single;
#BANNER:;
#DESCRIPTION:J. Frederick;
#CHARTSTYLE:;
#DIFFICULTY:Hard;
#METER:8;
#METERF:0.000000;
#LASTSECONDHINT:200.527939;
#RADARVALUES:0.455738,0.567086,0.102751,0.102751,0.022018,652.000000,631.000000,21.000000,21.000000,0.000000,0.000000,0.000000,0.000000,0.000000,0.455738,0.567086,0.102751,0.102751,0.022018,652.000000,631.000000,21.000000,21.000000,0.000000,0.000000,0.000000,0.000000,0.000000;
#CREDIT:J. Frederick;
#NOTES:
0000
0000
0000
0000
,
0000
0000
0000
0000
,
0000
0000
0000
0000
,
0000
0000
0000
0000
,
0000
0000
0000
0000
,
0000
0000
0000
0000
,
0000
0000
0000
0000
1001
0000
0000
1000
,
0001
0100
0010
0000
0000
0010
0100
0001
,
0010
0000
0000
0010
0100
1000
0001
0000
,
1000
0000
1001
0000
0000
1000
0001
0100
,
0010
0000
0000
1000
0100
0010
0001
0000
,
0000
0010
0100
1000
0001
0000
0100
0000
,
0110
0000
0000
0010
0100
0001
1000
0000
,
0000
1000
0001
0010
0100
0000
0000
0100
,
0010
0001
0100
0000
0010
0000
0110
0000
,
0000
0100
0010
1000
0001
0000
0000
0010
,
0100
1000
0001
0000
0000
0010
0001
0100
,
0010
0000
1000
0000
0001
0010
0100
1000
,
0001
0000
0100
0010
0000
1000
0001
0000
,
0010
0100
1000
0001
0100
0010
0100
0000
,
0001
0000
0010
0100
0000
1000
0001
0000
,
0100
0010
0000
1000
0001
0000
0010
0100
,
0000
1000
0010
0000
0100
0001
0100
0001
,
0100
0001
1000
0010
1000
0010
1000
0001
,
0010
0100
1000
0001
0100
0000
0001
0010
,
0100
0000
1000
0000
0010
0000
0100
0001
,
1000
0000
0100
0000
0010
0000
0001
1000
,
0010
0100
0002
0000
,
2003
0000
0000
0000
3100
0000
0010
0001
,
0100
0000
0010
0000
0100
0000
0001
1000
,
0100
0000
0010
0000
0001
0000
1000
0010
,
0100
0010
2000
0000
,
3002
0000
0000
0000
0013
0100
1000
0010
,
0100
0000
0010
0100
0001
1000
0100
0000
,
0010
0001
0100
0001
1000
0010
0100
0001
,
0010
0000
0100
0010
0001
1000
0100
0000
,
2000
0000
0000
0000
3001
0000
0000
0010
,
0100
1000
0010
0000
0000
0010
0100
0001
,
0010
0000
0000
0010
0001
0100
0010
0000
,
1000
0000
1001
0000
0000
0001
0010
0100
,
1000
0000
0000
0100
1000
0010
0100
0000
,
0000
0010
0100
0001
1000
0000
0001
0000
,
1001
0000
0000
0001
0010
0100
1000
0000
,
0000
1000
0010
0100
0001
0000
0000
0001
,
0010
0100
0010
0000
0001
0000
0011
0000
,
0000
0010
0001
0100
0010
0000
0000
0010
,
1000
0001
0010
0000
0000
0100
1000
0001
,
0100
0000
0010
0000
1000
0100
1000
0100
,
1000
0000
0001
0010
0001
0010
0001
0000
,
0100
0001
0100
0001
0100
0000
0010
1000
,
0010
0100
0010
1000
0000
0001
0010
0000
,
0100
1000
0000
0010
0100
0000
0001
0010
,
0000
0100
1000
0000
0002
0000
0100
0000
,
0010
2000
0000
0000
,
0000
0000
3003
0000
1001
0000
1000
0001
,
0100
0010
0200
0000
,
0310
1000
0002
0000
,
0013
0000
0100
0010
0001
0100
0010
1000
,
0100
1000
0010
0100
,
0001
0010
0200
0000
,
1300
0001
0200
0000
,
0310
0000
0000
0000
1000
0000
0000
0000
0001
0000
0100
0001
0100
0000
0010
1000
,
0010
0000
1000
0001
1000
0000
0001
0000
0010
0000
0100
0000
1000
0000
0001
0000
,
0100
0010
1000
0000
0010
0100
0001
0010
,
0100
1000
0001
0000
0010
0001
0100
0000
,
0010
1000
0100
0000
1000
0010
0100
0001
,
1000
0001
1000
0000
0001
0010
1000
0010
,
0001
1000
0001
0000
1000
0010
0001
0010
,
1000
0001
0010
0000
0001
0100
0010
1000
,
0100
0010
0001
0100
0020
0000
0000
0000
,
0200
0000
0330
0010
,
1001
0000
0001
0010
,
1100
0000
0010
0001
,
0101
0000
0010
1000
,
0001
1000
0001
0100
0010
0000
1000
0100
,
0010
0000
0000
0000
0001
0000
0100
0010
,
1000
0000
0000
0000
0100
0000
1000
0001
,
0010
0000
0000
0000
0001
0100
0010
1000
,
0001
0000
0010
0000
0100
0000
0010
0001
,
1000
0000
0000
0000
0100
0000
1000
0010
,
0100
0000
0000
0000
0010
0000
1000
0001
,
0010
0000
0000
0000
0001
0010
0100
1000
,
0001
0000
0100
0000
0010
1000
0010
0100
,
0010
0000
0110
0000
0010
0100
0001
0100
,
0010
0000
0110
0000
1000
0100
0010
0100
,
1000
0000
1001
0000
0001
0100
0010
0100
,
0001
0000
1001
0000
0001
0000
0010
0100
,
1000
0010
0100
0000
0010
0000
0100
0010
,
1000
0001
0010
0000
0001
0000
0010
0100
,
1000
0001
0100
0000
0001
0100
0010
1000
,
0001
0010
0100
1000
0001
0100
0010
1000
,
0100
0010
0001
0100
0010
1000
0001
0010
,
0100
1000
0100
0010
0001
0100
0010
1000
,
0001
0100
0010
1000
0100
0010
0001
0000
0000
0001
0000
0000
,
0001
0001
1000
1000
,
1000
0001
0100
0010
1000
0010
0100
0010
,
1000
0001
0010
0000
0100
0010
0001
0010
,
0100
1000
0001
0000
0100
0010
1000
0001
,
0010
0001
0100
0000
0001
1000
0100
0000
,
0010
0000
0110
0000
0010
0100
1000
0010
,
0100
0001
0010
0000
0001
0100
0010
1000
,
0100
1000
0010
0000
0100
0001
0010
0000
,
0100
1000
0010
0000
0100
0001
1000
0001
,
0100
0010
1000
0100
0010
0000
0001
0000
,
0010
0100
1000
0000
0002
0000
0000
0000
,
0103
0010
2000
0000
,
3100
0000
0010
0001
0100
0000
0010
1000
,
0100
0000
0010
0001
0100
0000
0010
0000
,
1000
0001
0010
0000
0200
0000
0000
0000
,
0310
0001
2000
0000
,
3001
0000
0000
0000
0100
0000
0000
0000
0010
0000
1000
0010
1000
0000
0001
0100
,
0001
0010
0100
1000
0001
0100
0010
1000
,
0100
0010
0001
0010
0100
1000
0010
0100
,
0001
0010
0001
0100
0010
0100
0001
1000
,
0100
0010
0100
1000
0010
0100
0001
0000
,
0010
0100
1000
0000
0100
1000
0100
0010
,
0100
0001
0100
0010
0100
1000
0010
0100
,
0010
0001
0010
0100
0010
1000
0001
0010
,
0100
1000
0001
0100
0020
0000
0000
0000
,
0000
0000
0200
0000
,
0000
0330
1001
0110
,
1001
0110
2002
0000
,
3003
0000
0000
0000
;
