#TITLE:Coral Crown;
#SUBTITLE:(From Hades II);
#ARTIST:Darren Korb;
#TITLETRANSLIT:;
#SUBTITLETRANSLIT:;
#ARTISTTRANSLIT:;
#GENRE:;
#CREDIT:JBEAN;
#BANNER:Coral Crown-banner;
#BACKGROUND:Coral Crown-bk.png;
#LYRICSPATH:Coral Crown.lrc;
#CDTITLE:;
#MUSIC:Coral Crown.ogg;
#OFFSET:0.000;
#SAMPLESTART:37.900;
#SAMPLELENGTH:12.000;
#SELECTABLE:YES;
#BPMS:0.000=158.000;
#STOPS:;
#BGCHANGES:;
#KEYSOUNDS:;

//---------------dance-single - J. Frederick----------------
#NOTES:
     dance-single:
     J. Frederick:
     Beginner:
     1:
     0.091,0.000,0.028,0.000,0.000: // measure 1
0000
0000
0000
0000
,  // measure 2
0000
0000
0000
0000
,  // measure 3
0000
0000
0000
0000
,  // measure 4
0000
0000
0000
0000
,  // measure 5
0000
0000
0000
0000
,  // measure 6
0001
0000
0000
0000
,  // measure 7
1000
0000
0000
0000
,  // measure 8
0010
0000
0000
0000
,  // measure 9
0100
0000
0000
0000
,  // measure 10
0110
0000
0000
0000
,  // measure 11
0010
0000
0000
0000
,  // measure 12
1000
0000
0000
0000
,  // measure 13
0001
0000
0000
0000
,  // measure 14
0010
0000
0000
0000
,  // measure 15
0100
0000
0000
0000
,  // measure 16
1000
0000
0000
0000
,  // measure 17
0001
0000
0000
0000
,  // measure 18
1001
0000
0000
0000
,  // measure 19
1000
0000
0000
0000
,  // measure 20
0010
0000
0000
0000
,  // measure 21
0100
0000
0000
0000
,  // measure 22
0001
0000
0000
0000
,  // measure 23
0010
0000
0000
0000
,  // measure 24
0100
0000
0000
0000
,  // measure 25
1000
0000
0000
0000
,  // measure 26
0001
0000
0000
0000
,  // measure 27
0001
0000
0000
0000
,  // measure 28
0001
0000
0000
0000
,  // measure 29
0000
0000
0000
0000
,  // measure 30
1000
0000
0000
0000
,  // measure 31
1000
0000
0000
0000
,  // measure 32
1000
0000
0000
0000
,  // measure 33
0000
0000
0000
0000
,  // measure 34
0010
0000
0000
0000
,  // measure 35
0100
0000
0000
0000
,  // measure 36
0001
0000
0000
0000
,  // measure 37
1000
0000
0000
0000
,  // measure 38
0100
0000
0000
0000
,  // measure 39
0010
0000
0000
0000
,  // measure 40
0001
0000
0000
0000
,  // measure 41
1000
0000
0000
0000
,  // measure 42
0010
0000
0000
0000
,  // measure 43
0100
0000
0000
0000
,  // measure 44
0001
0000
0000
0000
,  // measure 45
1000
0000
0000
0000
,  // measure 46
1001
0000
0000
0000
,  // measure 47
0100
0000
0000
0000
,  // measure 48
0010
0000
0000
0000
,  // measure 49
0001
0000
0000
0000
,  // measure 50
1000
0000
0000
0000
,  // measure 51
0010
0000
0000
0000
,  // measure 52
0100
0000
0000
0000
,  // measure 53
0001
0000
0000
0000
,  // measure 54
0010
0000
0000
0000
,  // measure 55
0010
0000
0000
0000
,  // measure 56
0010
0000
0000
0000
,  // measure 57
0000
0000
0000
0000
,  // measure 58
0001
0000
0000
0000
,  // measure 59
0001
0000
0000
0000
,  // measure 60
0001
0000
0000
0000
,  // measure 61
0000
0000
0000
0000
,  // measure 62
1000
0000
0000
0000
,  // measure 63
0010
0000
0000
0000
,  // measure 64
0100
0000
0000
0000
,  // measure 65
0001
0000
0000
0000
,  // measure 66
0010
0000
0000
0000
,  // measure 67
0100
0000
0000
0000
,  // measure 68
1000
0000
0000
0000
,  // measure 69
0001
0000
0000
0000
,  // measure 70
1001
0000
0000
0000
,  // measure 71
0100
0000
0000
0000
,  // measure 72
0010
0000
0000
0000
,  // measure 73
1000
0000
0000
0000
,  // measure 74
0001
0000
0000
0000
,  // measure 75
0010
0000
0000
0000
,  // measure 76
0100
0000
0000
0000
,  // measure 77
1000
0000
0000
0000
,  // measure 78
0001
0000
0000
0000
,  // measure 79
0000
0000
0000
0000
,  // measure 80
0100
0000
0000
0000
,  // measure 81
0000
0000
0000
0000
,  // measure 82
0010
0000
0000
0000
,  // measure 83
1000
0000
0000
0000
,  // measure 84
0100
0000
0000
0000
,  // measure 85
0100
0000
0000
0000
,  // measure 86
0010
0000
0000
0000
,  // measure 87
0010
0000
0000
0000
,  // measure 88
0001
0000
0000
0000
,  // measure 89
0001
0000
0000
0000
,  // measure 90
1000
0000
0000
0000
,  // measure 91
1000
0000
0000
0000
,  // measure 92
0010
0000
0000
0000
,  // measure 93
0000
0000
0000
0000
,  // measure 94
0100
0000
0000
0000
,  // measure 95
0001
0000
0000
0000
,  // measure 96
1000
0000
0000
0000
,  // measure 97
0000
0000
0000
0000
,  // measure 98
0100
0000
0000
0000
,  // measure 99
0010
0000
0000
0000
,  // measure 100
0001
0000
0000
0000
,  // measure 101
1000
0000
0000
0000
,  // measure 102
0010
0000
0000
0000
,  // measure 103
0100
0000
0000
0000
,  // measure 104
0001
0000
0000
0000
,  // measure 105
0000
0000
0000
0000
,  // measure 106
1000
0000
0000
0000
,  // measure 107
0001
0000
1000
0000
,  // measure 108
1001
0000
0000
0000
,  // measure 109
0100
0000
0000
0000
,  // measure 110
0010
0000
0000
0000
,  // measure 111
0001
0000
0000
0000
,  // measure 112
1000
0000
0000
0000
,  // measure 113
0010
0000
0000
0000
,  // measure 114
0100
0000
0000
0000
,  // measure 115
0001
0000
0000
0000
,  // measure 116
1000
0000
0000
0000
,  // measure 117
0010
0000
0000
0000
,  // measure 118
0100
0000
0000
0000
,  // measure 119
0001
0000
0000
0000
,  // measure 120
1000
0000
0000
0000
,  // measure 121
0010
0000
0000
0000
,  // measure 122
0100
0000
0000
0000
,  // measure 123
0001
0000
0000
0000
,  // measure 124
1000
0000
0000
0000
,  // measure 125
1000
0000
0000
0000
,  // measure 126
1000
0000
0000
0000
,  // measure 127
0000
0000
0000
0000
,  // measure 128
0010
0000
0000
0000
,  // measure 129
0010
0000
0000
0000
,  // measure 130
0010
0000
0000
0000
,  // measure 131
0000
0000
0000
0000
,  // measure 132
0100
0000
0000
0000
,  // measure 133
0001
0000
0000
0000
,  // measure 134
0010
0000
0000
0000
,  // measure 135
0100
0000
0000
0000
,  // measure 136
1000
0000
0000
0000
,  // measure 137
0001
0000
0000
0000
,  // measure 138
0100
0000
0000
0000
,  // measure 139
0010
0000
0000
0000
,  // measure 140
0110
0000
0000
0000
,  // measure 141
1000
0000
0000
0000
,  // measure 142
0001
0000
0000
0000
,  // measure 143
0010
0000
0000
0000
,  // measure 144
0100
0000
0000
0000
,  // measure 145
1000
0000
0000
0000
,  // measure 146
0001
0000
0000
0000
,  // measure 147
0100
0000
0000
0000
,  // measure 148
0010
0000
0000
0000
,  // measure 149
1000
0000
0000
0000
,  // measure 150
0001
0000
0000
0000
,  // measure 151
0010
0000
0000
0000
,  // measure 152
0100
0000
0100
0000
,  // measure 153
0010
0000
0010
0000
,  // measure 154
0001
0000
0001
0000
,  // measure 155
1000
0000
1000
0000
,  // measure 156
0001
0000
0000
0000
,  // measure 157
0000
0000
0000
0000
,  // measure 158
1000
0000
0001
0000
,  // measure 159
0100
0000
0010
0000
,  // measure 160
0110
0000
0000
0000
;

//---------------dance-single - J. Frederick----------------
#NOTES:
     dance-single:
     J. Frederick:
     Easy:
     4:
     0.269,0.000,0.008,0.159,0.000: // measure 1
0000
0000
0000
0000
,  // measure 2
0000
0000
0000
0000
,  // measure 3
0000
0000
0000
0000
,  // measure 4
0000
0000
0000
0000
,  // measure 5
0000
0000
0000
0000
,  // measure 6
1000
0001
1000
0001
,  // measure 7
0010
0100
0010
0100
,  // measure 8
1000
0001
1000
0001
,  // measure 9
0200
0000
0310
0000
,  // measure 10
0010
1000
0001
0000
,  // measure 11
0010
0100
1000
0000
,  // measure 12
0001
0100
0010
0000
,  // measure 13
2000
0000
0002
3003
,  // measure 14
0001
0010
0100
0000
,  // measure 15
1000
0001
0100
0000
,  // measure 16
0010
1000
0001
0000
,  // measure 17
0020
0000
0200
0330
,  // measure 18
0100
0010
0001
0000
,  // measure 19
0001
0100
0010
0000
,  // measure 20
0100
0010
1000
0001
,  // measure 21
0010
0100
1000
0000
,  // measure 22
1000
0100
0010
0000
,  // measure 23
0010
0001
0100
0000
,  // measure 24
0001
0100
0010
1000
,  // measure 25
0001
0010
0100
0000
,  // measure 26
2000
0000
3000
0000
,  // measure 27
2000
0000
3000
0000
,  // measure 28
0001
0000
0100
0000
,  // measure 29
0010
0000
1000
0000
,  // measure 30
0002
0000
0003
0000
,  // measure 31
0002
0000
0003
0000
,  // measure 32
1000
0000
0100
0000
,  // measure 33
0010
0001
1000
0010
,  // measure 34
0100
0010
1000
0000
,  // measure 35
0100
0010
0001
1000
,  // measure 36
0001
0100
0010
0000
,  // measure 37
0100
0010
1000
0000
,  // measure 38
0001
0010
0100
0000
,  // measure 39
1000
0001
0100
0000
,  // measure 40
0010
1000
0001
0000
,  // measure 41
0010
0000
0100
0000
,  // measure 42
0010
0001
1000
0000
,  // measure 43
0100
1000
0001
0000
,  // measure 44
0100
0000
0010
0000
,  // measure 45
0100
0010
1000
0000
,  // measure 46
0001
0010
0100
0000
,  // measure 47
1000
0010
0100
0000
,  // measure 48
0001
0100
0010
0000
,  // measure 49
1000
0001
0010
0100
,  // measure 50
1000
0001
0100
0000
,  // measure 51
0010
1000
0001
0000
,  // measure 52
0010
0001
1000
0100
,  // measure 53
1000
0010
0100
0000
,  // measure 54
0002
0000
0003
0000
,  // measure 55
0002
0000
0003
0000
,  // measure 56
0010
0001
0100
0000
,  // measure 57
0010
1000
0100
0000
,  // measure 58
2000
0000
3000
0000
,  // measure 59
2000
0000
3000
0000
,  // measure 60
0010
0000
0100
0000
,  // measure 61
0001
1000
0001
0010
,  // measure 62
0100
0000
1000
0000
,  // measure 63
0010
0000
0100
0000
,  // measure 64
0001
0000
0010
0000
,  // measure 65
0100
1000
0001
0100
,  // measure 66
0010
0000
1000
0000
,  // measure 67
0001
0000
0010
0000
,  // measure 68
0100
0010
0001
0000
,  // measure 69
0100
0010
1000
0000
,  // measure 70
0001
0000
0001
0000
,  // measure 71
1000
0000
1000
0000
,  // measure 72
0001
1000
0010
0100
,  // measure 73
0001
0010
0100
0000
,  // measure 74
0010
0000
0010
0000
,  // measure 75
0100
0000
0100
0000
,  // measure 76
0010
0001
1000
0010
,  // measure 77
0100
0001
1000
0000
,  // measure 78
0002
0003
0001
0000
,  // measure 79
2000
3000
1000
0000
,  // measure 80
0020
0030
0010
0000
,  // measure 81
0200
0300
0100
0000
,  // measure 82
0010
0100
0010
0100
,  // measure 83
0001
1000
0001
1000
,  // measure 84
0010
0100
0001
0000
,  // measure 85
0010
0100
1000
0000
,  // measure 86
0001
0100
0010
0000
,  // measure 87
1000
0001
0010
0000
,  // measure 88
0100
1000
0001
0000
,  // measure 89
0100
0010
1000
0000
,  // measure 90
0100
1000
0001
0000
,  // measure 91
0010
0001
1000
0000
,  // measure 92
0100
1000
0001
0000
,  // measure 93
0100
0001
0010
0000
,  // measure 94
0100
1000
0001
0000
,  // measure 95
0100
0010
1000
0000
,  // measure 96
0001
0001
0002
0003
,  // measure 97
1000
1000
2000
3000
,  // measure 98
0010
0010
0020
0030
,  // measure 99
0100
0100
0200
0300
,  // measure 100
0010
0100
0001
0000
,  // measure 101
0010
0100
1000
0000
,  // measure 102
0001
0100
0010
1000
,  // measure 103
0002
0000
0000
0000
,  // measure 104
1003
0001
1000
0001
,  // measure 105
0100
0010
0100
0010
,  // measure 106
1000
0100
0010
0001
,  // measure 107
0100
0010
1000
0000
,  // measure 108
0002
0000
0003
0000
,  // measure 109
2000
0000
3000
0000
,  // measure 110
0020
0000
0030
0000
,  // measure 111
0200
0000
0300
0000
,  // measure 112
0010
0100
0001
0000
,  // measure 113
0010
0100
1000
0000
,  // measure 114
0001
0100
0010
1000
,  // measure 115
0001
1000
2002
3003
,  // measure 116
0001
0000
1000
0000
,  // measure 117
0010
0000
0100
0000
,  // measure 118
0010
0100
0001
0000
,  // measure 119
0010
0100
1000
0000
,  // measure 120
0001
0000
0100
0000
,  // measure 121
0010
0000
1000
0000
,  // measure 122
0001
1000
0100
0000
,  // measure 123
0010
0001
1000
0000
,  // measure 124
0002
0000
0003
0000
,  // measure 125
0002
0000
0003
0000
,  // measure 126
0010
0001
0100
0000
,  // measure 127
0010
1000
0100
0000
,  // measure 128
2000
0000
3000
0000
,  // measure 129
2000
0000
3000
0000
,  // measure 130
0100
1000
0001
0000
,  // measure 131
0010
0001
1000
0010
,  // measure 132
0100
0000
0001
0000
,  // measure 133
1000
0001
0010
0000
,  // measure 134
0100
0000
1000
0000
,  // measure 135
0010
0100
0001
0000
,  // measure 136
1000
0000
0100
0000
,  // measure 137
1000
0001
0010
0000
,  // measure 138
0001
0000
1000
0000
,  // measure 139
0100
1000
0001
0000
,  // measure 140
0100
0100
0100
0000
,  // measure 141
0010
0010
0010
0000
,  // measure 142
1000
0001
1000
0100
,  // measure 143
0010
0001
1000
0000
,  // measure 144
0001
0001
0001
0000
,  // measure 145
1000
1000
1000
0000
,  // measure 146
0001
0100
0010
1000
,  // measure 147
0001
0000
0010
0000
,  // measure 148
0200
0000
0000
0300
,  // measure 149
0020
0000
0000
0030
,  // measure 150
0002
0000
0000
0003
,  // measure 151
2000
0000
3000
0000
,  // measure 152
0001
1000
0001
1000
,  // measure 153
0010
0100
0010
0100
,  // measure 154
0001
0010
0100
1000
,  // measure 155
0010
0100
0001
1000
,  // measure 156
0200
0010
0010
0010
,  // measure 157
0010
0010
0010
0010
,  // measure 158
0310
0001
1000
0010
,  // measure 159
0100
0001
1000
0001
,  // measure 160
2002
0000
3003
0000
;

//---------------dance-single - J. Frederick----------------
#NOTES:
     dance-single:
     J. Frederick:
     Medium:
     6:
     0.359,0.000,0.012,0.126,0.008: // measure 1
0000
0000
0000
0000
,  // measure 2
0000
0000
0000
0000
,  // measure 3
0000
0000
0000
0000
,  // measure 4
0000
0000
0000
0000
,  // measure 5
0000
0000
0000
0000
,  // measure 6
1000
0100
1000
0000
0001
0100
0001
0000
,  // measure 7
1000
0010
1000
0000
0001
0010
0001
0000
,  // measure 8
0010
0100
0010
0000
0001
1000
0001
0000
,  // measure 9
0100
0010
1000
0001
0010
0000
0000
0000
,  // measure 10
0100
1000
0001
0000
,  // measure 11
0100
0010
1000
0000
,  // measure 12
0100
0010
0001
0000
,  // measure 13
0100
0001
1000
0010
,  // measure 14
0100
0001
0010
0000
,  // measure 15
0100
1000
0001
0000
,  // measure 16
0100
0010
1000
0000
,  // measure 17
0100
0010
2002
3003
,  // measure 18
0001
1000
0010
0000
,  // measure 19
0100
0001
0010
0000
,  // measure 20
0100
1000
0001
0000
,  // measure 21
0100
0010
1000
0001
,  // measure 22
0010
0100
1000
0000
,  // measure 23
0001
0100
0010
0000
,  // measure 24
1000
0001
0010
0100
,  // measure 25
1000
0001
1000
0001
1000
0000
0000
0000
,  // measure 26
0002
0000
0003
0000
,  // measure 27
2000
0000
3000
0000
,  // measure 28
0001
0000
0000
1000
0010
0000
0100
0000
,  // measure 29
0001
0000
0000
0010
0100
0000
0000
0000
,  // measure 30
2000
0000
3000
0000
,  // measure 31
0002
0000
0003
0000
,  // measure 32
1000
0000
0000
0001
0100
0000
0010
0000
,  // measure 33
1000
0100
0010
0001
,  // measure 34
1000
0000
0100
0000
1000
0100
1000
0000
,  // measure 35
0001
0000
0010
0000
0001
0010
0001
0000
,  // measure 36
0100
0000
0010
0000
1000
0010
1000
0000
,  // measure 37
0001
0000
0100
0000
0001
0100
0001
0000
,  // measure 38
1000
0010
0100
0000
,  // measure 39
0001
0010
0100
0000
,  // measure 40
1000
0001
0100
0010
,  // measure 41
1000
0000
0001
0000
1000
0001
1000
0000
,  // measure 42
0001
0010
0100
0000
,  // measure 43
1000
0010
0100
0000
,  // measure 44
0001
0010
0100
1000
,  // measure 45
0001
1000
0001
1000
0001
0000
0000
0000
,  // measure 46
1000
0010
0200
0300
,  // measure 47
0001
0010
0200
0300
,  // measure 48
0010
0001
1000
0010
,  // measure 49
0100
0001
1000
0000
0001
0000
0000
0000
,  // measure 50
0010
0100
2000
3000
,  // measure 51
0001
0100
0020
0030
,  // measure 52
0100
0010
1000
0001
,  // measure 53
0010
0100
0010
0100
0010
0000
0000
0000
,  // measure 54
0200
0000
0300
0000
,  // measure 55
2000
0000
3000
0000
,  // measure 56
0001
0000
0000
0010
0100
0000
1000
0000
,  // measure 57
0001
0000
0000
0100
0010
0000
1000
0000
,  // measure 58
0002
0000
0003
0000
,  // measure 59
2000
0000
3000
0000
,  // measure 60
0001
0000
0000
0010
0100
0000
1000
0000
,  // measure 61
0001
0100
0010
1000
,  // measure 62
0001
0100
0001
0000
0010
0000
0100
0000
,  // measure 63
1000
0100
1000
0000
0010
0000
0100
0000
,  // measure 64
0001
1000
0001
0000
0010
0000
0100
0000
,  // measure 65
1000
0001
1000
0000
0010
0100
0010
0000
,  // measure 66
0100
0000
0001
0000
0010
0001
0010
0000
,  // measure 67
0100
0000
1000
0000
0010
1000
0010
0000
,  // measure 68
0100
0000
0001
0000
1000
0001
1000
0000
,  // measure 69
0001
0010
0100
0000
,  // measure 70
0010
0001
0100
0000
,  // measure 71
0010
1000
0100
0000
,  // measure 72
0010
0001
1000
0010
,  // measure 73
0100
0010
0100
0000
0110
0000
0000
0000
,  // measure 74
0010
0100
0001
0000
,  // measure 75
0010
0100
1000
0000
,  // measure 76
0100
1000
0001
0100
,  // measure 77
0010
0100
0010
0100
0010
0000
0100
0000
,  // measure 78
0001
1000
0001
1000
0001
0000
1000
0000
,  // measure 79
0100
1000
0100
1000
0100
0000
0010
0000
,  // measure 80
0001
0010
0001
0010
0001
0000
0100
0000
,  // measure 81
0010
0100
0010
0100
0010
0000
0100
0000
,  // measure 82
0001
1000
0100
0010
,  // measure 83
0001
0100
0010
1000
,  // measure 84
0002
0000
0003
0000
,  // measure 85
2000
0000
3000
0000
,  // measure 86
0020
0000
0030
0000
,  // measure 87
0200
0000
0300
0000
,  // measure 88
0002
0000
0010
0000
,  // measure 89
0000
0000
1000
0000
,  // measure 90
0203
0000
0010
0000
,  // measure 91
0000
0000
0001
0000
,  // measure 92
0302
0000
0010
0000
,  // measure 93
0000
0000
0100
0000
,  // measure 94
2003
0000
0100
0000
,  // measure 95
0000
0000
3010
0000
,  // measure 96
0100
0000
0001
0000
0010
0001
0010
0000
,  // measure 97
0100
0000
1000
0000
0010
1000
0010
0000
,  // measure 98
0100
0000
0001
0000
1000
0001
1000
0000
,  // measure 99
0100
0010
0001
0000
,  // measure 100
0100
0000
0010
0000
1000
0010
1000
0000
,  // measure 101
0010
0000
0100
0000
0001
0100
0001
0000
,  // measure 102
0010
0000
0100
0000
1000
0001
1000
0000
,  // measure 103
0001
0100
0010
0000
,  // measure 104
0100
0010
0100
0010
,  // measure 105
1000
0001
1000
0001
,  // measure 106
0010
0100
1000
0000
0001
0100
0010
0000
,  // measure 107
1000
0001
1000
0001
2000
0000
0000
0000
,  // measure 108
3001
0100
0010
0000
,  // measure 109
1000
0100
0010
0000
,  // measure 110
0001
0100
0010
0000
,  // measure 111
1000
0010
0100
0001
1000
0000
0000
0000
,  // measure 112
0001
0010
0100
0000
,  // measure 113
1000
0010
0100
0000
,  // measure 114
0001
0100
0010
1000
,  // measure 115
0001
1000
0001
1000
0001
0000
0000
0000
,  // measure 116
1000
0001
0010
0000
,  // measure 117
0001
1000
0100
0000
,  // measure 118
1000
0010
0100
0001
,  // measure 119
0010
0100
1000
0000
,  // measure 120
0001
0100
0010
0000
,  // measure 121
1000
0001
0010
0000
,  // measure 122
0100
1000
0001
0100
,  // measure 123
0010
0100
0001
1000
0001
0000
0000
0000
,  // measure 124
0020
0000
0030
0000
,  // measure 125
0200
0000
0300
0000
,  // measure 126
1000
0000
0000
0010
0100
0000
0001
0000
,  // measure 127
0010
0000
0000
0001
1000
0000
0100
0000
,  // measure 128
2000
0000
3000
0000
,  // measure 129
0002
0000
0003
0000
,  // measure 130
0010
0000
0001
0100
0010
0000
1000
0000
,  // measure 131
0100
0010
0001
1000
,  // measure 132
0001
0100
0001
0000
1000
0000
0100
0010
,  // measure 133
0000
0010
0100
0000
1000
0000
0010
0000
,  // measure 134
0100
0000
0001
0000
1000
0010
1000
0001
,  // measure 135
0000
0001
0010
0000
0100
0000
1000
0000
,  // measure 136
0001
0000
0100
0000
0010
0000
0100
0001
,  // measure 137
0000
0001
0010
0000
0100
0000
1000
0000
,  // measure 138
0001
0000
0100
0000
0010
0000
1000
0100
,  // measure 139
0000
0100
1000
0000
0010
0000
0100
0000
,  // measure 140
0001
0010
0001
0010
0001
0000
0010
0000
,  // measure 141
0100
1000
0100
1000
0100
0000
1000
0000
,  // measure 142
0010
1000
0010
1000
0010
0000
0100
0001
,  // measure 143
0000
0001
0100
0000
0010
0000
1001
0000
,  // measure 144
0001
0010
0100
0000
1000
0000
0010
0100
,  // measure 145
0000
0100
0001
0000
0010
0000
0001
0000
,  // measure 146
1000
0001
1000
0001
1000
0000
0001
0100
,  // measure 147
0000
0100
0010
0000
1000
0000
0100
0000
,  // measure 148
0010
0001
0010
0000
0100
0000
1000
0010
,  // measure 149
0000
0010
0100
0000
0010
0000
1000
0000
,  // measure 150
0001
1000
0001
0000
0010
0000
0100
1000
,  // measure 151
0000
1000
0010
0000
0100
0000
0001
0000
,  // measure 152
0020
0100
0100
0100
,  // measure 153
0001
0001
0100
0001
,  // measure 154
0032
0010
1000
0010
,  // measure 155
0100
0100
1000
0100
,  // measure 156
2003
0100
0010
0100
,  // measure 157
0001
0010
0100
0001
,  // measure 158
3001
0100
0001
0000
1000
0100
1000
0000
,  // measure 159
0001
0000
1000
0000
0010
0000
0100
0000
0001
0000
1000
0000
,  // measure 160
0200
0000
0300
0000
;

//---------------dance-single - J. Frederick----------------
#NOTES:
     dance-single:
     J. Frederick:
     Hard:
     8:
     0.590,0.000,0.073,0.033,0.045: // measure 1
0000
0000
0000
0000
,  // measure 2
0000
0000
0000
0000
,  // measure 3
0000
0000
0000
0000
,  // measure 4
0000
0000
0000
0000
,  // measure 5
0000
0000
0000
0000
,  // measure 6
0001
0100
0010
0100
1000
0100
0010
0100
,  // measure 7
0001
1000
0100
0010
0100
0001
0100
0010
,  // measure 8
0100
1000
0010
0100
0001
0010
0100
1000
,  // measure 9
0001
0100
0010
1000
0002
0000
0000
0000
,  // measure 10
1003
0001
1000
0000
0001
0000
0010
0000
0100
0000
1000
0000
0010
0000
0000
0000
,  // measure 11
0100
0010
1000
0000
0001
0010
0100
0000
,  // measure 12
1000
0100
1000
0000
0100
0000
0010
0000
0001
0000
0100
0000
0010
0000
0000
0000
,  // measure 13
0100
0001
0010
0000
0100
1000
0001
0000
,  // measure 14
0100
0001
0100
0000
0001
0000
0010
0000
0100
0000
1000
0000
0010
0000
0000
0000
,  // measure 15
0100
0010
1000
0000
0100
0010
0001
0000
,  // measure 16
0100
0001
0100
0000
0001
0000
1000
0000
0100
0000
0010
0000
0001
0000
1000
0000
,  // measure 17
0010
0100
0001
1000
0200
0000
0000
0000
,  // measure 18
0310
0001
0100
0010
1000
0001
0100
0001
,  // measure 19
0010
0100
1000
0010
0100
0001
0010
0001
,  // measure 20
0100
0010
1000
0100
0010
0100
1000
0010
,  // measure 21
0100
0001
0010
0100
1000
0001
0100
0000
,  // measure 22
0010
0100
0001
0010
0100
1000
0010
0100
,  // measure 23
0010
1000
0100
0010
0001
0100
0010
0100
,  // measure 24
0001
0010
0100
0010
0001
1000
0010
0100
,  // measure 25
0001
1000
0001
0000
1000
0000
0001
0000
0200
0000
0000
0000
0000
0000
0000
0000
,  // measure 26
0310
1000
0001
0010
0100
0000
0000
0000
,  // measure 27
1000
0100
0010
0001
0100
0000
0000
0000
,  // measure 28
0010
0000
1000
0001
0010
0000
0100
0000
,  // measure 29
0010
0000
0001
0100
0010
0000
1000
0000
,  // measure 30
0001
0100
0010
1000
0100
0000
0000
0000
,  // measure 31
0010
0001
1000
0010
0100
0000
0000
0000
,  // measure 32
0010
0000
0100
0001
0010
0000
0100
1000
,  // measure 33
0001
0100
0010
1000
,  // measure 34
0001
0100
0000
0100
0010
1000
0000
0000
,  // measure 35
0100
0010
0000
0010
0001
1000
0010
0000
,  // measure 36
0100
0001
0000
0001
1000
0100
0000
0000
,  // measure 37
1000
0001
0000
0001
0100
0010
0100
0000
,  // measure 38
0001
0010
0100
1000
0001
0100
0010
0000
,  // measure 39
0100
0001
0010
0100
1000
0001
0100
0000
,  // measure 40
0001
0100
0010
1000
0100
0010
0001
0000
,  // measure 41
0100
0000
0010
0100
0010
0000
0100
0000
0010
0000
1000
0000
0001
0000
0000
0000
,  // measure 42
0010
0001
1000
0100
1000
0001
0100
0000
,  // measure 43
0010
0100
0001
0010
0100
1000
0001
0000
,  // measure 44
0010
0001
0100
0010
1000
0001
0010
0100
,  // measure 45
1000
0000
0001
1000
0001
0000
1000
0000
0010
0000
0100
0000
0001
0000
0000
0000
,  // measure 46
0010
0001
0100
0010
1000
0100
0010
0001
,  // measure 47
0100
0010
0100
0010
1000
0001
0010
0100
,  // measure 48
1000
0010
0100
0001
0010
0001
0100
0010
,  // measure 49
1000
0000
0001
0000
0010
0000
0100
0000
1000
0001
1000
0000
0001
0000
0000
0000
,  // measure 50
0100
0010
0100
0001
0010
0100
1000
0100
,  // measure 51
0010
0001
0100
0010
0100
0010
1000
0100
,  // measure 52
1000
0010
0100
0001
0010
0100
1000
0001
,  // measure 53
1000
0001
1000
0000
0001
0000
1000
0000
0002
0000
0000
0000
0000
0000
0000
0000
,  // measure 54
0103
0010
1000
0100
0010
0000
0000
0000
,  // measure 55
0100
1000
0010
0100
0001
0000
0000
0000
,  // measure 56
0010
0000
0001
0100
0010
0000
1000
0100
,  // measure 57
0010
0001
1001
0000
,  // measure 58
1000
0001
0010
0001
0100
0000
0000
0000
,  // measure 59
0001
1000
0010
1000
0100
0000
0000
0000
,  // measure 60
1000
0000
0100
0010
0001
0000
0100
0010
,  // measure 61
1000
1001
0110
1001
,  // measure 62
0001
0010
0100
0000
0010
0001
0100
0010
,  // measure 63
0000
0010
0100
0000
0010
1000
0001
0000
,  // measure 64
0010
0100
1000
0000
0100
1000
0010
0100
,  // measure 65
0000
0100
0010
1000
0001
0010
0100
0000
,  // measure 66
0010
0001
0100
0000
0001
1000
0010
0100
,  // measure 67
0000
0100
0010
1000
0100
0010
0001
0000
,  // measure 68
0010
0100
1000
0000
0100
1000
0001
0100
,  // measure 69
0000
0100
0010
1000
0001
0010
0100
0000
,  // measure 70
1000
0001
0100
0010
1000
0001
0010
0000
,  // measure 71
0001
0100
0010
1000
0100
0010
0001
0000
,  // measure 72
0010
0001
0100
0000
0010
1000
0100
0000
,  // measure 73
1000
0010
0100
0010
0100
0001
0010
0000
,  // measure 74
0001
0010
0100
0000
1000
0001
0010
0100
,  // measure 75
0000
0100
0010
0001
0100
0010
1000
0000
,  // measure 76
0010
0100
0001
1000
0100
0010
0001
1000
,  // measure 77
0000
1000
0001
0100
0010
0100
0001
0000
,  // measure 78
0010
0100
1000
0001
0100
0010
1000
0100
,  // measure 79
0000
0100
1000
0010
0100
0001
0010
0000
,  // measure 80
0001
0010
0100
1000
0001
0100
0010
1000
,  // measure 81
0000
1000
0010
0100
0001
0010
0100
0000
,  // measure 82
0010
0001
0100
0000
0010
1000
0100
0000
,  // measure 83
0010
0001
0100
0010
1000
0001
0010
0100
,  // measure 84
1000
0001
0100
0000
,  // measure 85
0010
1000
0001
0000
,  // measure 86
0010
0100
1000
0000
,  // measure 87
0010
0000
0100
0000
0001
1000
0001
0000
,  // measure 88
0010
0100
1000
0000
,  // measure 89
0010
0100
0001
0000
,  // measure 90
0010
0001
0100
0000
0010
1000
0100
0000
,  // measure 91
0010
0001
1000
0000
,  // measure 92
0001
0000
1000
0000
0010
0000
0100
0001
,  // measure 93
0000
0001
0010
0000
0100
0000
0000
0000
,  // measure 94
0010
0000
0001
0000
1000
0000
0100
1000
,  // measure 95
0000
1000
0001
0000
0100
0000
0000
0000
,  // measure 96
0010
0100
0010
1000
0001
0010
0100
1000
,  // measure 97
0000
1000
0100
0000
0010
0001
0100
0000
,  // measure 98
0010
1000
0010
0100
0001
1000
0001
0010
,  // measure 99
0000
0010
0001
0100
0010
0000
0000
0000
,  // measure 100
0100
0010
1000
0001
0010
0100
1000
0001
,  // measure 101
0000
0001
1000
0010
0100
0000
0001
0000
,  // measure 102
0010
0001
0100
0000
0010
1000
0100
0010
,  // measure 103
0000
0010
0100
1000
0001
0000
0100
0000
,  // measure 104
0010
1000
0010
0100
0001
0010
0100
1000
,  // measure 105
0100
0000
0010
0000
0001
0000
0100
0000
0010
0000
1000
0000
0001
0000
0010
0001
,  // measure 106
0010
0000
0001
0000
0010
0000
0100
1000
0100
0000
1000
0000
0010
0000
0100
0010
,  // measure 107
0100
0000
0010
0000
1000
0000
0001
1000
0001
0000
1000
0000
0001
0000
0010
0000
,  // measure 108
0100
1000
0010
0100
0001
0010
0001
0100
,  // measure 109
0010
1000
0100
0010
0001
0100
0010
0000
,  // measure 110
0100
0010
1000
0001
0010
0100
1000
0001
,  // measure 111
0100
0010
1000
0001
0200
0000
0000
0000
,  // measure 112
0310
1000
0001
0010
0100
1000
0010
0100
,  // measure 113
0001
0010
0001
0100
0010
1000
0100
0000
,  // measure 114
1000
0010
0100
0001
0010
0100
1000
0010
,  // measure 115
0100
0000
0010
0000
1000
0001
1000
0001
2000
0000
0000
0000
0000
0000
0000
0000
,  // measure 116
3001
0010
0001
0100
0010
1000
0001
0000
,  // measure 117
0010
0001
0100
0010
1000
0100
0010
0000
,  // measure 118
0001
0100
0001
0000
1000
0100
1000
0000
,  // measure 119
0010
0100
0001
0010
0100
1000
0001
0000
,  // measure 120
0100
0010
0100
0001
0010
0100
1000
0000
,  // measure 121
0100
1000
0010
0100
0001
0010
0001
0000
,  // measure 122
1000
0010
1000
0000
0001
0010
0001
0000
,  // measure 123
0100
0010
0100
0000
0010
0000
0100
0000
0002
0000
0000
0000
0000
0000
0000
0000
,  // measure 124
1003
0100
0010
0001
0100
0000
0000
0000
,  // measure 125
0001
0100
0010
1000
0100
0000
0000
0000
,  // measure 126
1000
0000
1000
0100
0010
0000
0010
0001
,  // measure 127
0100
0010
1000
0001
0010
0000
0000
0000
,  // measure 128
0001
0100
0010
1000
0001
0000
0000
0000
,  // measure 129
1000
0001
0010
0100
1000
0000
0000
0000
,  // measure 130
0100
0000
1000
0010
0100
0000
0100
0001
,  // measure 131
0101
1010
1100
0011
,  // measure 132
0010
0001
0100
0010
1000
0100
1000
0010
,  // measure 133
0000
0010
0100
0001
0010
0100
1000
0000
,  // measure 134
0100
1000
0001
0000
0010
0001
0100
0010
,  // measure 135
0000
0010
0100
0001
1000
0100
0010
0000
,  // measure 136
0100
1000
0010
0100
0001
0010
0001
0100
,  // measure 137
0000
0100
0010
1000
0001
0010
0100
0000
,  // measure 138
0010
0001
0100
0000
0010
1000
0001
0100
,  // measure 139
0000
0100
0001
1000
0010
1000
0100
0000
,  // measure 140
1000
0100
0010
0001
0100
0010
1000
0100
,  // measure 141
0000
0100
1000
0010
0100
0001
0010
0000
,  // measure 142
0001
0100
0010
0000
1000
0001
0010
0100
,  // measure 143
0000
0100
0010
0001
0100
0010
1000
0000
,  // measure 144
0010
0100
0010
1000
0010
0100
0001
1000
,  // measure 145
0000
1000
0001
0010
0100
1000
0001
0000
,  // measure 146
0010
0100
0010
0001
0010
0100
1000
0001
,  // measure 147
0000
0001
0100
0010
1000
0001
0100
0000
,  // measure 148
0001
0000
0100
0000
0010
1000
0001
0010
,  // measure 149
0000
0010
0001
1000
0100
1000
0001
0000
,  // measure 150
0100
0000
0010
0000
0100
0001
1000
0100
,  // measure 151
0000
0100
1000
0010
0100
0001
0010
0000
,  // measure 152
0011
1100
1010
0101
,  // measure 153
1001
0110
1001
1001
,  // measure 154
0001
0100
0010
1000
0100
0010
0001
0010
,  // measure 155
0100
1000
0010
0100
0001
0010
0001
0100
,  // measure 156
0010
0010
1000
0001
0100
0100
0001
0010
,  // measure 157
0100
0100
1000
0001
0010
0010
0100
0010
,  // measure 158
0001
1000
0001
0000
1000
0000
0010
0000
0100
0010
0100
0000
0010
0000
1000
0000
,  // measure 159
0010
0000
1010
0000
0100
0000
0001
0000
0101
0000
0001
0000
,  // measure 160
2000
0000
3000
0000
;
