#VERSION:0.83;
#TITLE:like i do;
#SUBTITLE:;
#ARTIST:Nightly;
#TITLETRANSLIT:;
#SUBTITLETRANSLIT:;
#ARTISTTRANSLIT:;
#GENRE:;
#ORIGIN:;
#CREDIT:;
#BANNER:like i do.png;
#BACKGROUND:like i do-bg.png;
#PREVIEWVID:;
#JACKET:like i do-jacket.png;
#CDIMAGE:;
#DISCIMAGE:;
#LYRICSPATH:;
#CDTITLE:;
#MUSIC:like i do.ogg;
#OFFSET:0.000000;
#SAMPLESTART:78.708069;
#SAMPLELENGTH:14.999998;
#SELECTABLE:YES;
#BPMS:0.000=170.000;
#STOPS:;
#DELAYS:;
#WARPS:;
#TIMESIGNATURES:0.000=4=4;
#TICKCOUNTS:0.000=4;
#COMBOS:0.000=1;
#SPEEDS:0.000=1.000=0.000=0;
#SCROLLS:0.000=1.000;
#FAKES:;
#LABELS:0.000=Song Start;
#BGCHANGES:;
#KEYSOUNDS:;
#ATTACKS:
;

//---------------dance-single - ----------------
#NOTEDATA:;
#CHARTNAME:;
#STEPSTYPE:dance-single;
#DESCRIPTION:;
#CHARTSTYLE:;
#DIFFICULTY:Challenge;
#METER:18;
#RADARVALUES:0.801960,1.145991,0.396060,0.642880,0.872480,978.000000,909.000000,69.000000,112.000000,828.000000,0.000000,0.000000,0.000000,0.000000,0.801960,1.145991,0.396060,0.642880,0.872480,978.000000,909.000000,69.000000,112.000000,828.000000,0.000000,0.000000,0.000000,0.000000;
#CREDIT:S.Kyoufu;
#NOTES:
// measure 0
0000
0000
0000
0000
,  // measure 1
0000
0000
0000
1000
0000
1000
0000
1000
,  // measure 2
1000
0000
0000
0000
,  // measure 3
0000
0000
0000
0000
0000
0001
0001
0001
,  // measure 4
0000
0001
0000
0000
0000
0000
0000
0000
,  // measure 5
0000
0000
0000
0000
,  // measure 6
0000
0000
0000
0000
,  // measure 7
0000
0000
0000
0000
,  // measure 8
2000
0000
3100
0000
0000
0100
0000
1000
,  // measure 9
0000
0100
1000
0000
1100
0000
MMMM
0000
,  // measure 10
0002
0000
0103
0000
0000
0100
0001
0100
,  // measure 11
0000
0000
0100
0000
0001
0000
0000
0000
0101
0000
0000
MMMM
0000
0000
0002
0000
,  // measure 12
2003
0000
3200
0010
0320
0000
0230
2300
,  // measure 13
3020
0100
0100
0000
0100
0000
0130
0000
,  // measure 14
0010
0100
0010
0100
0001
1000
0001
1000
,  // measure 15
0100
0010
0100
0010
0001
1000
0001
1000
,  // measure 16
0010
0010
0100
0001
0010
0010
0100
1000
,  // measure 17
0010
0010
0100
0001
0020
0000
0130
MMMM
,  // measure 18
0010
0010
0001
1000
0010
0010
0100
0001
,  // measure 19
0001
0010
0200
0000
1300
0000
MMMM
1000
,  // measure 20
0020
0000
0230
0000
0320
0000
2030
3002
,  // measure 21
0000
0023
0000
0130
0200
0000
2300
0000
,  // measure 22
3100
0010
0001
0010
0100
1000
0010
0100
,  // measure 23
0001
0100
0010
1000
0010
0100
0001
1000
,  // measure 24
0100
1000
0100
0000
1000
0000
0100
1000
0100
0000
0010
0000
0001
0000
0010
0000
,  // measure 25
0001
0100
0001
0000
0100
0000
0001
0100
0001
0000
0100
0000
0010
0000
1000
0000
,  // measure 26
0001
1000
0001
0000
1000
0000
0001
1000
0001
0000
1000
0000
0001
1000
0001
0000
,  // measure 27
0100
0010
1000
0001
1000
0100
0010
0001
1000
0010
0100
0010
1000
0001
0010
0100
,  // measure 28
1000
0100
0010
0000
0001
0000
0010
0100
1000
0000
0001
0000
1000
0000
0010
0000
,  // measure 29
0100
0001
0100
0001
0100
0010
0100
0010
1000
0010
1000
0010
1000
0001
1000
0001
,  // measure 30
2000
0000
3100
0200
0000
0010
0320
0000
,  // measure 31
0032
0000
0000
2000
0000
0000
3003
0000
,  // measure 32
1001
0010
0100
0001
1000
0100
0010
0001
,  // measure 33
1000
1000
0010
0100
0001
0001
0010
0100
,  // measure 34
1000
0100
1000
0010
0100
0001
0010
0001
,  // measure 35
0100
0001
1000
0010
0100
0001
1000
1000
,  // measure 36
1000
0100
0010
0001
1000
0001
0010
0100
,  // measure 37
1000
0001
1000
0100
1000
0010
0010
0010
,  // measure 38
0100
0010
1000
0001
1000
0100
0010
0001
,  // measure 39
1000
0001
0010
0001
0100
0001
0100
0010
,  // measure 40
0100
0000
1010
0000
1000
0100
0010
0000
0001
0000
0011
0000
0001
0100
0010
0000
,  // measure 41
1000
0001
0010
0011
2002
0000
3003
MMMM
,  // measure 42
1000
0000
0100
0000
0010
0001
1000
0000
0010
0000
0100
0000
0001
1000
0100
0000
,  // measure 43
0010
0000
0001
0000
1000
0000
0010
0000
0100
0001
0100
0001
0100
0000
MMMM
0000
,  // measure 44
0010
1000
0010
1000
0100
0010
0001
1000
,  // measure 45
0100
0010
0001
1000
1010
0001
1010
0001
,  // measure 46
0021
0230
2300
3020
0230
0320
2030
3002
,  // measure 47
2003
3200
0320
0032
2003
3002
0103
0100
,  // measure 48
0100
0010
1000
0010
0100
0010
1000
0010
,  // measure 49
0100
0010
1000
0001
1000
0100
0010
0001
,  // measure 50
1000
0100
1000
0001
1000
0100
1000
0010
,  // measure 51
1000
0100
1000
0100
0010
0001
0100
0010
,  // measure 52
0100
0001
0100
1000
0100
0001
0100
0010
,  // measure 53
0100
0001
0100
1000
0100
0001
0020
0000
,  // measure 54
0130
0100
1000
1000
0001
0001
0100
0100
,  // measure 55
0010
0010
1000
1000
0002
0000
2003
0000
,  // measure 56
3100
0010
0001
0000
0100
0000
0010
0100
0001
0000
1000
0000
0100
0000
0010
0001
,  // measure 57
1000
0000
0010
0000
0100
0010
1000
0000
0100
0010
0001
0010
0100
1000
0001
1000
,  // measure 58
0001
MMMM
0101
0101
MMMM
1001
MMMM
MMMM
,  // measure 59
1000
0100
0010
0001
0100
0010
1000
0010
0100
0001
1000
0100
0010
0100
1000
0010
,  // measure 60
0100
MMMM
0110
MMMM
MMMM
MMMM
MMMM
MMMM
,  // measure 61
0100
0001
0100
0001
0010
0100
1000
0001
1000
0100
1000
0100
1000
0100
0010
0001
,  // measure 62
1000
MMMM
1000
1010
MMMM
MMMM
0001
MMMM
,  // measure 63
0011
MMMM
0110
1100
MMMM
MMMM
MMMM
MMMM
,  // measure 64
1000
0100
0010
0001
1000
0001
0100
0010
1000
0000
MMMM
0000
1000
0000
0001
0000
,  // measure 65
1000
0001
0010
0100
0010
0001
1000
0000
MMMM
0000
1010
0000
MMMM
0000
0101
0000
,  // measure 66
MMMM
MMMM
1001
MMMM
MMMM
MMMM
MMMM
MMMM
,  // measure 67
1000
0100
0001
0100
1000
0010
0100
0010
0100
0001
0010
0100
1000
0001
1000
0010
,  // measure 68
0100
MMMM
0110
MMMM
MMMM
MMMM
MMMM
MMMM
,  // measure 69
1000
0010
0001
0010
1000
0100
0010
0100
1000
0001
0010
0100
0010
0001
1000
0010
,  // measure 70
0100
MMMM
0101
0011
MMMM
MMMM
0011
MMMM
,  // measure 71
0110
0000
MMMM
0000
1100
0000
1001
0000
MMMM
0000
MMMM
0000
2002
0000
3003
MMMM
,  // measure 72
1000
MMMM
0100
MMMM
0001
MMMM
0100
MMMM
1000
MMMM
0010
MMMM
0001
MMMM
0010
MMMM
,  // measure 73
1000
MMMM
0100
MMMM
0010
MMMM
0001
MMMM
0100
MMMM
1000
MMMM
0100
MMMM
0001
MMMM
,  // measure 74
0010
MMMM
1000
MMMM
0001
MMMM
0100
MMMM
1000
MMMM
0010
MMMM
0100
MMMM
0001
MMMM
,  // measure 75
0010
MMMM
0010
MMMM
0100
MMMM
0100
MMMM
1100
MMMM
1010
MMMM
0110
MMMM
0000
MMMM
,  // measure 76
0000
MMMM
0000
MMMM
0000
MMMM
0110
MMMM
0110
MMMM
0110
MMMM
0110
MMMM
0000
MMMM
,  // measure 77
0000
MMMM
0000
MMMM
0000
MMMM
0110
MMMM
0110
MMMM
0110
MMMM
0110
MMMM
0000
MMMM
,  // measure 78
0101
MMMM
0011
MMMM
0110
MMMM
1100
MMMM
0011
MMMM
1100
MMMM
0011
MMMM
1100
MMMM
,  // measure 79
0011
MMMM
0101
MMMM
1010
MMMM
0101
MMMM
1010
MMMM
0101
MMMM
1001
MMMM
0000
MMMM
,  // measure 80
0001
MMMM
0100
MMMM
0001
MMMM
0100
MMMM
0001
MMMM
0100
MMMM
0001
MMMM
0100
MMMM
,  // measure 81
0010
MMMM
1000
MMMM
0010
MMMM
1000
MMMM
0010
MMMM
1000
MMMM
0010
MMMM
1000
MMMM
,  // measure 82
0100
MMMM
0010
MMMM
0100
MMMM
0010
MMMM
0100
MMMM
0010
MMMM
0100
MMMM
0010
MMMM
,  // measure 83
0001
MMMM
0010
MMMM
0100
MMMM
1000
MMMM
0001
MMMM
0100
MMMM
0010
MMMM
0000
MMMM
,  // measure 84
0000
MMMM
0000
MMMM
0000
MMMM
0010
MMMM
0010
MMMM
0010
MMMM
0010
MMMM
0000
MMMM
,  // measure 85
0000
MMMM
0000
MMMM
0000
MMMM
0100
MMMM
0100
MMMM
0100
MMMM
0100
MMMM
0000
MMMM
,  // measure 86
1000
MMMM
0001
MMMM
1000
MMMM
0001
MMMM
,  // measure 87
1000
MMMM
0001
MMMM
1000
MMMM
0001
MMMM
,  // measure 88
2002
0000
0000
0000
,  // measure 89
3003
0000
0000
0000
,  // measure 90
1000
0100
0010
0001
1000
0010
0100
0010
1000
0001
1000
0100
0010
0001
0010
1000
,  // measure 91
0010
0001
0100
0010
0100
0001
1000
0001
0100
0010
1000
0010
0100
0001
1000
0001
,  // measure 92
1000
0100
0001
0100
1000
0010
0100
0010
1000
0001
0100
0010
0100
0001
1000
0010
,  // measure 93
0100
0010
1000
0001
1000
0100
0010
0001
0010
0100
1000
0100
1000
0010
0100
0001
,  // measure 94
0100
0010
0100
0010
0100
0010
0100
0001
0100
0010
1000
0001
1000
0100
0010
0001
,  // measure 95
0010
0100
0010
0100
0010
0100
0010
1000
0010
0100
0010
0001
1000
0010
0100
0001
,  // measure 96
1000
0100
0010
0001
1000
0001
0100
0010
1000
0010
0100
0001
1000
0100
0010
0001
,  // measure 97
1000
0001
0100
0010
0100
0010
1000
0001
1000
0100
0010
0001
1000
0001
0010
0100
,  // measure 98
1000
0001
0100
0010
1000
0010
0100
0001
1000
0100
0010
0001
1000
0001
0100
0010
,  // measure 99
1000
0001
0010
0100
0010
0100
0010
0001
0100
0010
0100
0010
0100
0001
1000
0010
,  // measure 100
1000
0010
1000
0010
0100
0001
0010
0100
1000
0001
1000
0100
1000
0010
0100
0010
,  // measure 101
1000
0001
1000
0100
0010
0001
0010
0100
0010
0001
1000
0100
0010
0100
1000
0010
,  // measure 102
0100
0010
1000
0001
0100
0001
0100
0010
1000
0001
0100
0001
0100
0010
1000
0001
,  // measure 103
1000
0100
0010
0001
0010
0100
1000
0001
0100
0010
1000
0010
0100
0010
0100
0010
,  // measure 104
2000
3200
0320
0230
2300
3020
0230
0320
,  // measure 105
2030
3020
0230
0302
0203
0302
0023
0230
,  // measure 106
2300
3200
0320
0032
2003
3002
0203
0320
,  // measure 107
2030
3020
0230
0302
2003
3200
0320
0032
,  // measure 108
2003
3002
0203
0320
2030
3020
2030
3200
,  // measure 109
0320
0230
2300
3200
0320
0032
2003
3002
,  // measure 110
0203
0320
2030
3020
0230
0302
2003
3002
,  // measure 111
0023
0230
2300
3020
0230
0302
0203
0310
,  // measure 112
1010
MMMM
MMMM
MMMM
0101
MMMM
MMMM
MMMM
,  // measure 113
0011
MMMM
MMMM
MMMM
0110
MMMM
MMMM
MMMM
,  // measure 114
1100
MMMM
MMMM
MMMM
0110
MMMM
MMMM
MMMM
,  // measure 115
0011
MMMM
MMMM
MMMM
0101
MMMM
MMMM
MMMM
,  // measure 116
1010
MMMM
MMMM
MMMM
0110
MMMM
MMMM
MMMM
,  // measure 117
0101
MMMM
MMMM
MMMM
MMMM
1001
MMMM
MMMM
,  // measure 118
MMMM
2002
0000
0000
0000
0000
0000
0000
,  // measure 119
0000
0000
0000
0000
,  // measure 120
0000
0000
0000
0000
0000
0000
0000
3003
,  // measure 121
MMMM
0000
0000
0000
;

//---------------dance-single - ----------------
#NOTEDATA:;
#CHARTNAME:;
#STEPSTYPE:dance-single;
#DESCRIPTION:;
#CHARTSTYLE:;
#DIFFICULTY:Hard;
#METER:13;
#RADARVALUES:0.526440,0.625086,0.189420,0.585480,0.000000,642.000000,609.000000,33.000000,102.000000,0.000000,0.000000,0.000000,0.000000,0.000000,0.526440,0.625086,0.189420,0.585480,0.000000,642.000000,609.000000,33.000000,102.000000,0.000000,0.000000,0.000000,0.000000,0.000000;
#CREDIT:S.Kyoufu;
#NOTES:
// measure 0
0000
0000
0000
0000
,  // measure 1
0000
0000
0000
1000
0000
0001
0000
1000
,  // measure 2
0001
0000
0000
0000
,  // measure 3
0000
0000
0000
0000
0000
0010
0100
0010
,  // measure 4
0000
0100
0000
0000
0000
0000
0000
0000
,  // measure 5
0000
0000
0000
0000
,  // measure 6
0000
0000
0000
0000
,  // measure 7
0000
0000
0000
0000
,  // measure 8
2000
0000
3100
0000
0000
0110
0000
1100
,  // measure 9
0000
1000
0020
0000
0130
0000
0000
0000
,  // measure 10
0200
0000
0301
0000
0000
0100
0001
0010
,  // measure 11
0000
0100
0100
0000
0110
0000
0000
0010
,  // measure 12
0001
0000
0001
1000
0001
0000
0100
0010
,  // measure 13
0000
0100
0010
0000
0110
0000
0101
0000
,  // measure 14
0002
0100
0100
0100
0103
0000
2000
0100
,  // measure 15
0100
0100
3100
0000
0100
0010
0100
0010
,  // measure 16
0002
0000
0013
0000
0000
0020
0000
0032
,  // measure 17
0000
1003
0020
0000
0130
0010
0200
0010
,  // measure 18
0320
0000
1030
0000
0000
1000
0010
1000
,  // measure 19
0000
1000
0001
0000
0011
0000
0000
0001
,  // measure 20
0002
0000
0023
0000
0230
0000
1300
2000
,  // measure 21
0000
0010
3000
0010
0200
0000
0302
0000
,  // measure 22
0003
0000
0000
0000
,  // measure 23
0000
0000
0000
2000
,  // measure 24
3020
0000
0100
0100
0000
0100
0130
0000
,  // measure 25
0110
0000
0100
0001
0000
0001
0010
0000
,  // measure 26
0200
2000
3300
0000
,  // measure 27
1000
0100
0010
0001
1000
0010
0100
0002
,  // measure 28
0000
0020
0033
0000
,  // measure 29
0002
0000
0010
0023
0000
0031
0002
0000
,  // measure 30
1000
0000
0000
0100
0000
0000
0023
0000
,  // measure 31
0100
0000
0000
1000
0000
0000
0031
0000
,  // measure 32
1000
0001
0010
0100
1000
0001
0100
0010
,  // measure 33
0100
0001
2000
0000
0100
0100
3100
0000
,  // measure 34
0100
0010
0001
0100
0010
0100
0001
0010
,  // measure 35
0100
1000
0001
0000
0100
0001
0101
0000
,  // measure 36
0001
0100
0010
1000
0010
0100
0001
0010
,  // measure 37
0100
1000
0010
0100
0010
0100
0101
0001
,  // measure 38
1000
0100
0001
0100
1000
0001
0100
0001
,  // measure 39
0200
0000
0000
0000
0010
0010
0310
0000
,  // measure 40
0210
0000
0301
0000
0000
0120
0000
1030
,  // measure 41
0000
1000
0001
0000
0011
0000
0000
0000
,  // measure 42
0002
0000
0023
0000
0032
2003
0000
3020
,  // measure 43
0000
0230
0320
0030
0110
0000
0000
0000
,  // measure 44
0200
0000
0302
0000
0023
0000
0230
2300
,  // measure 45
0000
3020
0200
0030
0302
0000
1003
0000
,  // measure 46
1000
0100
0010
0001
1000
0100
0010
0001
,  // measure 47
1000
0010
0100
0001
1000
0010
0100
0001
,  // measure 48
0200
0000
0301
0200
0000
0301
0100
0002
,  // measure 49
0003
2000
3000
0200
0010
0010
0310
0000
,  // measure 50
0010
0001
1000
0001
0100
0000
0000
0010
,  // measure 51
0100
0010
0100
0010
0110
0000
0000
0101
,  // measure 52
0000
0011
0020
0000
0031
0000
0000
1000
,  // measure 53
0000
0010
0100
0000
0001
0000
0002
0000
,  // measure 54
1003
0100
0010
0001
,  // measure 55
0010
0001
0100
0020
,  // measure 56
1030
0010
0010
1000
0010
0010
1000
0000
,  // measure 57
1001
0000
0001
0010
0000
0200
0000
2300
,  // measure 58
0000
0000
3001
0100
0010
1000
0001
0010
,  // measure 59
0001
0100
0010
1000
0010
0100
0002
0000
,  // measure 60
0023
0000
0230
0000
1300
0010
1000
0010
,  // measure 61
0100
0001
1000
0001
0100
0010
2000
0000
,  // measure 62
3200
0000
0000
0001
0000
0000
2300
0000
,  // measure 63
3020
0000
0000
0001
0000
0000
1030
0000
,  // measure 64
1000
0010
0001
0010
1000
0000
1100
0000
,  // measure 65
1000
0100
0001
0100
1000
0010
0200
0000
,  // measure 66
0010
0000
0310
0100
0001
1000
0100
0010
,  // measure 67
0001
1000
0001
0100
0010
2000
0000
3002
,  // measure 68
0000
0000
0020
0033
0001
0010
0100
1000
,  // measure 69
0100
1000
0010
0100
0001
0010
0002
0000
,  // measure 70
0203
0000
0000
1000
0000
0000
0302
0000
,  // measure 71
0023
0000
0000
1000
0000
0000
0031
0000
,  // measure 72
0001
0000
0101
0000
0001
0010
0100
0000
,  // measure 73
0010
0100
1000
0010
0100
0010
2000
0000
,  // measure 74
3100
0100
0010
0010
0001
0001
1000
0010
,  // measure 75
0100
0010
1000
0001
0010
0100
0020
0000
,  // measure 76
0030
0000
0000
0001
0010
0100
1000
0000
,  // measure 77
0000
0000
0000
0001
0010
0100
1000
0000
,  // measure 78
0001
0100
0010
0100
0001
1000
0010
0100
,  // measure 79
0010
1000
0001
1000
0100
0010
0001
0000
,  // measure 80
2000
0000
3020
0000
0130
0100
0200
0000
,  // measure 81
0302
0100
2003
0010
3002
0100
2003
0000
,  // measure 82
3100
0001
0100
1000
0010
0001
0010
1000
,  // measure 83
0100
0100
0010
0010
0001
0001
0002
0000
,  // measure 84
0003
0000
0000
1000
0010
0100
0001
0000
,  // measure 85
0000
0000
0000
1000
0010
0100
0001
0000
,  // measure 86
2000
3000
0002
0003
0200
0300
0020
0030
,  // measure 87
2000
3000
0002
0003
0020
0030
0200
0300
,  // measure 88
2000
0000
0000
0100
0000
0000
3002
0000
,  // measure 89
0203
0000
0000
1000
0000
0010
0310
0000
,  // measure 90
0101
0000
0001
0100
0010
0100
0001
0100
,  // measure 91
0010
1000
0100
0010
0100
1000
0001
0010
,  // measure 92
0100
1000
0001
1000
0100
0010
0100
1000
,  // measure 93
0001
0100
0010
0100
0001
1000
0001
0010
,  // measure 94
0200
0000
1000
2300
0000
0010
3020
0000
,  // measure 95
0230
0000
0001
0001
0000
0010
0310
0000
,  // measure 96
0010
0100
0001
0100
0010
1000
0001
1000
,  // measure 97
0100
0010
0001
0010
0100
1000
0100
0010
,  // measure 98
0100
1000
0001
0100
0010
0100
0001
1000
,  // measure 99
0001
0010
0100
0010
0001
1000
0100
0010
,  // measure 100
0100
1000
0001
0100
0010
1000
0010
0100
,  // measure 101
0001
0100
0010
1000
0010
0100
0001
1000
,  // measure 102
0002
0000
0010
0023
0000
0100
0230
0000
,  // measure 103
2300
0000
0010
0001
0000
0001
3010
0000
,  // measure 104
1000
0010
0100
0001
1000
0100
0001
0100
,  // measure 105
1000
0010
0100
0001
0010
1000
0010
0001
,  // measure 106
0100
0010
0100
0001
1000
0100
0010
0001
,  // measure 107
0100
0010
1000
0010
0100
0001
1000
0100
,  // measure 108
1000
0001
0100
0001
1000
0010
1000
0010
,  // measure 109
0100
0001
0010
0001
1000
0010
1000
0001
,  // measure 110
0100
0010
1000
0010
0100
0001
1000
0100
,  // measure 111
0010
0001
0010
0100
1000
0001
0100
0001
,  // measure 112
1001
0000
0101
0000
,  // measure 113
0011
0000
0110
0000
,  // measure 114
1100
0000
1001
0000
,  // measure 115
0011
0000
0101
0000
,  // measure 116
0110
0000
1001
0000
,  // measure 117
0110
0000
0000
0000
0000
1001
0000
0000
,  // measure 118
0000
0220
0000
0000
0000
0000
0000
0000
,  // measure 119
0000
0000
0000
0000
,  // measure 120
0000
0000
0000
0000
,  // measure 121
0330
0000
0000
0000
;
