#VERSION:0.83;
#TITLE:Without Me;
#SUBTITLE:;
#ARTIST:Halsey;
#TITLETRANSLIT:;
#SUBTITLETRANSLIT:;
#ARTISTTRANSLIT:;
#GENRE:;
#ORIGIN:;
#CREDIT:;
#BANNER:Without Me.png;
#BACKGROUND:Without Me-bg.png;
#PREVIEWVID:;
#JACKET:Without Me-jacket.png;
#CDIMAGE:;
#DISCIMAGE:;
#LYRICSPATH:;
#CDTITLE:;
#MUSIC:Without Me.ogg;
#OFFSET:0.012000;
#SAMPLESTART:97.919930;
#SAMPLELENGTH:14.999998;
#SELECTABLE:YES;
#DISPLAYBPM:136.000000;
#BPMS:0.000=136.000;
#STOPS:;
#DELAYS:;
#WARPS:73.000=8.000;
#TIMESIGNATURES:0.000=4=4;
#TICKCOUNTS:0.000=4;
#COMBOS:0.000=1;
#SPEEDS:0.000=1.000=0.000=0;
#SCROLLS:0.000=1.000;
#FAKES:;
#LABELS:0.000=Song Start;
#BGCHANGES:;
#KEYSOUNDS:;
#ATTACKS:
;

//---------------dance-single - ----------------
#NOTEDATA:;
#CHARTNAME:;
#STEPSTYPE:dance-single;
#DESCRIPTION:;
#CHARTSTYLE:;
#DIFFICULTY:Hard;
#METER:12;
#RADARVALUES:0.456037,0.626144,0.353841,0.353841,0.015384,415.000000,369.000000,46.000000,46.000000,3.000000,0.000000,2.000000,0.000000,14.000000,0.456037,0.626144,0.353841,0.353841,0.015384,415.000000,369.000000,46.000000,46.000000,3.000000,0.000000,2.000000,0.000000,14.000000;
#CREDIT:S.Kyoufu;
#DISPLAYBPM:136.000000;
#NOTES:
0000
0000
0000
0000
,
0000
0000
0000
0000
,
0000
0000
0000
0000
,
0000
0000
0000
0000
,
0000
0000
0000
0000
,
0000
0000
0000
0000
,
0000
0000
0000
0000
,
0000
0000
0000
0000
,
0101
0000
0000
0000
1001
0000
0000
1000
,
0100
0010
0001
0000
0001
0010
0100
0000
,
1000
1000
0010
0100
0001
0100
0010
1000
,
0100
0100
0100
0000
1100
0000
1000
0010
,
0110
0000
0000
0000
0101
0000
0000
0001
,
0010
0010
0200
0000
0310
0010
0002
0000
,
1003
0010
0100
0010
1000
0010
0100
0010
,
1000
0000
0001
0000
0100
0010
0000
0000
0110
0000
0010
0000
0100
0000
0001
0000
,
0010
0000
0000
0010
0100
0000
1000
0000
0001
0000
0100
0000
0010
0000
0010
0000
,
0200
0000
0001
0000
0310
0100
0010
1000
,
0001
0100
0FF0
0F00
0002
0000
0000
0000
,
00F3
0F00
F000
000F
F000
0F00
0F00
0F00
,
FF00
0000
0MM0
0M00
0002
0000
0000
0000
,
0013
0100
1000
0001
1000
0100
0100
0100
,
1100
0000
0000
1000
0010
0000
0100
0000
0001
0000
0010
0000
0001
0000
1000
0000
,
1001
0001
0100
0010
0110
0000
0100
0001
,
0010
0010
0001
0001
0100
0100
0100
0020
,
0000
0000
0100
0000
0130
0010
1000
0001
,
0020
0000
0031
0000
0001
0100
0010
0000
,
1001
0000
0000
0000
0100
0010
0100
0000
,
0110
0000
0010
1000
0001
1000
0100
0100
,
0020
0000
0130
0000
0100
1000
0100
1000
,
0002
0000
0103
0000
0010
1000
0010
0000
,
1010
0000
0000
0000
0210
0000
0301
0010
,
0100
0000
1000
1000
0001
0001
0200
0000
,
0301
0000
0201
0000
0010
0010
0010
0310
,
0110
0001
0110
1000
0110
0001
0110
0010
,
1000
0001
1000
0100
0010
0010
0001
0001
,
1001
0100
1001
0010
1001
0100
1001
0010
,
1000
0001
1000
0100
0010
0010
0100
0100
,
2000
0010
3002
0100
2003
0010
3010
0000
,
0220
0000
0330
0100
0001
0000
0011
0000
,
1100
0000
1000
0010
1010
0000
0101
0000
,
1001
0000
0000
0000
1000
0100
0010
0001
,
4000
0000
0000
0000
0100
0000
3001
0011
,
0000
1100
0000
0000
1000
1010
0000
0010
,
0400
0000
0000
0000
0001
0300
0101
1010
,
0000
1100
0000
0000
1000
0100
0001
0100
,
2000
0000
3020
0000
1030
0001
0020
0000
,
0002
0000
0033
0001
0010
0000
0011
0000
,
1100
0000
0000
0220
,
0330
0000
0100
0000
0001
0001
1000
1000
,
0100
0010
0001
1000
0010
0100
0000
0100
,
0001
0100
0001
0000
0100
0001
0100
0010
,
1000
0000
0100
1000
0100
0000
0000
0000
0000
0000
0100
0000
1000
0000
0010
0000
,
0100
0100
0001
0001
1000
1000
0001
0001
,
0020
0000
0100
0130
0200
0000
1000
1300
,
2000
0000
3010
0100
0100
0001
1000
0100
,
0020
0000
0031
1000
0020
0000
0130
0001
,
2000
0000
3000
0000
2002
0000
0000
3003
,
1000
0100
0010
0100
1000
0001
0020
0000
,
0031
0000
0011
0001
0100
0100
0010
0000
,
0220
0330
0100
0001
0010
0010
0100
0100
,
2000
0000
3020
0000
0130
0100
0010
0010
,
1000
0000
1010
0000
1000
0100
0020
0000
,
0200
0000
0330
0100
1000
0000
1000
0010
,
0100
0000
0100
0001
0010
0010
0002
0000
,
2003
0000
3020
0000
0130
0100
0100
0100
,
0100
1000
0100
0001
0100
1000
0100
0001
,
0000
0101
0000
0000
0001
0001
0010
0010
,
0010
1000
0010
0001
0010
1000
0010
0001
,
0000
0011
0000
0000
0001
0100
0010
1000
,
0200
0000
2300
0000
3010
1000
0020
0000
,
0200
0000
0330
0100
0001
0000
0101
0000
,
1010
0000
1000
0100
0010
0000
0100
0000
,
2002
0000
0000
0000
,
3003
0000
0000
0000
;

//---------------dance-single - ----------------
#NOTEDATA:;
#CHARTNAME:;
#STEPSTYPE:dance-single;
#DESCRIPTION:;
#CHARTSTYLE:;
#DIFFICULTY:Medium;
#METER:9;
#RADARVALUES:0.350544,0.449224,0.238458,0.292303,0.000000,319.000000,288.000000,31.000000,38.000000,2.000000,0.000000,0.000000,0.000000,7.000000,0.350544,0.449224,0.238458,0.292303,0.000000,319.000000,288.000000,31.000000,38.000000,2.000000,0.000000,0.000000,0.000000,7.000000;
#CREDIT:S.Kyoufu;
#DISPLAYBPM:136.000000;
#NOTES:
// measure 0
0000
0000
0000
0000
,  // measure 1
0000
0000
0000
0000
,  // measure 2
0000
0000
0000
0000
,  // measure 3
0000
0000
0000
0000
,  // measure 4
0000
0000
0000
0000
,  // measure 5
0000
0000
0000
0000
,  // measure 6
0000
0000
0000
0000
,  // measure 7
0000
0000
0000
0000
,  // measure 8
1001
0000
0101
0000
,  // measure 9
0001
0100
0010
0000
0110
0000
0000
0000
,  // measure 10
0010
1000
0100
0010
,  // measure 11
0001
0010
0001
0000
0011
0000
0001
1000
,  // measure 12
0010
0000
0110
0000
,  // measure 13
0100
0001
0100
0000
0010
0010
0010
0000
,  // measure 14
1000
0010
1000
0100
,  // measure 15
1000
1000
1000
0000
0000
0000
0000
0000
,  // measure 16
1010
0000
0010
0100
0200
0000
0300
0000
,  // measure 17
0200
0000
0000
0000
0300
0001
1000
0100
,  // measure 18
0010
0000
000F
00F0
0200
0000
0000
0000
,  // measure 19
F300
00F0
0F00
000F
,  // measure 20
0000
0000
000M
00M0
0200
0000
0000
0000
,  // measure 21
1300
0010
0100
0001
,  // measure 22
0100
0010
1000
0000
1100
0000
0100
0000
,  // measure 23
0010
0001
1000
0001
1000
0000
0010
0000
,  // measure 24
0100
0001
0100
0000
0001
0010
0100
1000
,  // measure 25
0000
1001
2000
3002
,  // measure 26
0103
0000
0100
0000
0010
0010
0010
0000
,  // measure 27
0220
0000
0330
0000
0100
0001
0100
0000
,  // measure 28
0020
0000
0030
0000
1000
0000
0100
0010
,  // measure 29
0200
0000
1300
0000
0001
0100
0001
0100
,  // measure 30
0002
0000
0023
0000
0130
0100
0020
0000
,  // measure 31
0031
0000
1001
0001
,  // measure 32
0100
0000
0010
1000
0010
1000
0010
0000
,  // measure 33
0100
0110
2002
3003
,  // measure 34
1000
0010
1000
0010
1000
0010
1000
0020
,  // measure 35
0000
1030
0000
0000
1001
0000
0000
0000
,  // measure 36
0001
0010
0001
0010
0001
0010
0001
0020
,  // measure 37
0000
0031
0000
0000
0001
1000
0001
0100
,  // measure 38
0020
0000
0130
0000
0010
0100
0020
0000
,  // measure 39
1030
0000
0000
1000
0100
0000
0010
0000
,  // measure 40
0110
0000
0100
1000
0100
0000
1000
0000
,  // measure 41
1010
0000
0110
0000
,  // measure 42
0100
0001
0100
0001
0100
0001
0100
0002
,  // measure 43
0000
0103
0000
0000
1001
0000
0000
0100
,  // measure 44
1000
0100
1000
0100
1000
0100
1000
0200
,  // measure 45
0000
1300
0000
0000
1000
0100
0010
0001
,  // measure 46
2000
0000
3001
0000
0001
1000
0020
0000
,  // measure 47
0130
0000
0000
0100
0010
0000
0110
0000
,  // measure 48
2002
3003
0000
0220
,  // measure 49
0330
0000
0000
0000
,  // measure 50
1000
0010
1000
0000
0000
0000
0000
0000
,  // measure 51
0001
0100
0001
0000
0000
0000
0000
0000
,  // measure 52
1000
0100
1000
0000
0000
0000
0000
0001
,  // measure 53
0010
0100
1000
0001
0010
0001
1000
0001
,  // measure 54
0000
0000
0101
0001
,  // measure 55
0100
0000
0110
0010
,  // measure 56
1000
0000
1010
1000
,  // measure 57
0001
0000
0000
0000
2002
0000
0000
3003
,  // measure 58
1000
0000
0100
0000
0010
0001
0010
0000
,  // measure 59
0011
0000
0000
0000
0001
0100
0010
0000
,  // measure 60
0110
0000
0010
1000
0010
1000
0010
1000
,  // measure 61
0200
0000
1300
0000
1000
0010
0100
0001
,  // measure 62
2000
0000
3001
0000
0001
1000
0020
0000
,  // measure 63
1030
0000
0000
0000
2000
0000
3100
0010
,  // measure 64
0002
0000
0013
0001
0010
0001
0010
0000
,  // measure 65
0011
0000
0101
0000
0001
0100
0010
1000
,  // measure 66
0001
0010
0001
0010
0001
0010
0001
0020
,  // measure 67
0000
0031
0000
0000
0001
0010
0100
1000
,  // measure 68
0001
0100
0001
0100
0001
0100
0001
0200
,  // measure 69
0000
0301
0000
0000
0001
0100
0010
1000
,  // measure 70
0200
0000
0320
0000
0130
1000
0020
0000
,  // measure 71
0130
0000
0000
0100
0001
0000
0101
0000
,  // measure 72
1001
0000
1000
0100
0010
0000
0100
0000
,  // measure 73
1001
0000
0000
0000
;
