#VERSION:0.83;
#TITLE:Whitney;
#SUBTITLE:;
#ARTIST:Reve;
#TITLETRANSLIT:;
#SUBTITLETRANSLIT:;
#ARTISTTRANSLIT:;
#GENRE:;
#ORIGIN:;
#CREDIT:;
#BANNER:Whitney.png;
#BACKGROUND:Whitney-bg.png;
#PREVIEWVID:;
#JACKET:Whitney-jacket.png;
#CDIMAGE:;
#DISCIMAGE:;
#LYRICSPATH:;
#CDTITLE:;
#MUSIC:Whitney.ogg;
#OFFSET:-1.120000;
#SAMPLESTART:49.140011;
#SAMPLELENGTH:15.000007;
#SELECTABLE:YES;
#BPMS:0.000=120.000;
#STOPS:;
#DELAYS:;
#WARPS:;
#TIMESIGNATURES:0.000=4=4;
#TICKCOUNTS:0.000=4;
#COMBOS:0.000=1;
#SPEEDS:0.000=1.000=0.000=0;
#SCROLLS:0.000=1.000;
#FAKES:;
#LABELS:0.000=Song Start;
#BGCHANGES:;
#KEYSOUNDS:;
#ATTACKS:
;

//---------------dance-single - ----------------
#NOTEDATA:;
#CHARTNAME:;
#STEPSTYPE:dance-single;
#DESCRIPTION:;
#CHARTSTYLE:;
#DIFFICULTY:Beginner;
#METER:3;
#RADARVALUES:0.108271,0.169769,0.020211,0.121264,0.000000,75.000000,73.000000,2.000000,12.000000,0.000000,0.000000,0.000000,0.000000,0.000000,0.108271,0.169769,0.020211,0.121264,0.000000,75.000000,73.000000,2.000000,12.000000,0.000000,0.000000,0.000000,0.000000,0.000000;
#CREDIT:G.Shawn;
#NOTES:
1000
0000
0000
0000
,
1000
0000
0000
0000
,
0001
0000
0000
0000
,
0001
0000
0000
0000
,
0100
0000
0000
0000
,
0100
0000
0000
0000
,
0001
0000
0000
0000
,
0001
0000
0000
0000
,
1000
1000
1000
0000
,
0010
0010
0010
0000
,
0000
0000
0100
0000
,
0100
0000
0000
0000
,
0000
0001
0001
0000
,
0010
0010
0010
0000
,
0000
0100
0000
0000
,
0100
0000
0000
0000
,
2000
0000
3000
0000
,
0020
0000
0030
0000
,
1000
0000
1000
0000
,
1000
0000
1000
0000
,
0002
0000
0003
0000
,
0200
0000
0300
0000
,
0002
0000
0000
0000
,
0003
0000
0000
0000
,
0001
0001
0000
0000
,
0001
0001
0000
0000
,
1000
1000
0000
0000
,
0000
0000
0000
0000
,
0100
0100
0000
0000
,
0100
0100
0000
0000
,
0010
0010
0000
0000
,
0010
0010
0010
0000
,
0001
0001
0001
0000
,
1000
1000
1000
0000
,
0000
0000
0010
0000
,
0010
0000
0000
0000
,
0000
0100
0100
0000
,
0001
0001
0001
0000
,
1000
0000
0001
0000
,
1001
0000
0000
0000
,
0200
0000
0300
0000
,
0002
0000
0003
0000
,
0200
0000
0300
0000
,
0020
0000
0030
0000
,
2000
0000
3000
0000
,
0020
0000
0030
0000
,
0200
0000
0300
0000
,
0001
0000
1000
0000
,
1001
0000
0000
0000
;

//---------------dance-single - ----------------
#NOTEDATA:;
#CHARTNAME:;
#STEPSTYPE:dance-single;
#DESCRIPTION:;
#CHARTSTYLE:;
#DIFFICULTY:Easy;
#METER:5;
#RADARVALUES:0.238196,0.316927,0.202106,0.161685,0.000000,165.000000,145.000000,20.000000,16.000000,0.000000,0.000000,0.000000,0.000000,0.000000,0.238196,0.316927,0.202106,0.161685,0.000000,165.000000,145.000000,20.000000,16.000000,0.000000,0.000000,0.000000,0.000000,0.000000;
#CREDIT:G.Shawn;
#NOTES:
1000
0010
0000
0010
,
0100
0001
0000
0001
,
1000
0100
0000
0100
,
1000
0010
0000
0010
,
0100
0010
0000
0010
,
0100
0001
0000
0001
,
1000
0100
0000
0100
,
0010
0001
1000
0001
,
0101
0101
0101
0100
,
0010
1000
0100
0010
,
0000
0001
0010
0100
,
0100
0000
1000
1000
,
0000
0010
0100
0010
,
0100
0100
0100
0100
,
0001
0010
0100
1000
,
1001
0000
0000
0001
,
0002
0000
0103
0000
,
0020
0000
1030
0000
,
0000
1000
0000
1000
0000
1000
0000
1000
,
0000
1000
0000
1000
0000
1000
0000
0000
,
0002
0000
0013
0000
,
0100
0000
1000
0000
,
2002
0000
0000
3003
,
1000
0100
0010
0001
,
1000
1100
0001
0101
,
1000
1100
0001
0100
,
0010
1010
0010
0011
,
0001
1000
0010
0100
,
0001
0011
1000
1100
,
0001
0011
1000
0100
,
0001
0101
1000
1010
,
0000
0010
0000
0100
0000
0001
0000
0000
,
1001
1001
1001
1000
,
0001
0100
0001
1000
,
0000
0001
1000
0100
,
0100
0000
0000
0100
,
0000
0100
0010
0100
,
1000
1000
1000
1000
,
0001
0010
0100
1000
,
1001
0000
0000
0000
,
2000
0000
3010
0000
,
0020
0000
0130
0000
,
0200
0000
0310
0000
,
0020
0000
1030
0000
,
2000
0000
3001
0000
,
0002
0000
0013
0000
,
0200
0000
1300
0000
,
0002
0003
2000
3000
,
2002
3003
0000
0000
;

//---------------dance-single - ----------------
#NOTEDATA:;
#CHARTNAME:;
#STEPSTYPE:dance-single;
#DESCRIPTION:;
#CHARTSTYLE:;
#DIFFICULTY:Medium;
#METER:10;
#RADARVALUES:0.355129,0.363791,0.141474,0.282948,0.025263,246.000000,232.000000,14.000000,28.000000,0.000000,0.000000,0.000000,0.000000,0.000000,0.355129,0.363791,0.141474,0.282948,0.025263,246.000000,232.000000,14.000000,28.000000,0.000000,0.000000,0.000000,0.000000,0.000000;
#CREDIT:G.Shawn;
#NOTES:
1000
0010
0100
0000
0001
0000
1000
0000
,
0100
0010
0001
0100
,
0001
0100
0001
0000
0100
0000
0010
0000
,
1000
0100
0020
0030
,
0001
0010
0100
0000
1000
0000
0010
0000
,
0100
0100
0001
0001
,
1000
0010
1000
0000
0100
0000
0010
0000
,
0001
0000
0001
0000
1000
0010
1000
0010
,
0100
0000
0101
0000
0100
0000
1100
0100
,
0000
0000
0001
0000
0000
1000
0000
0000
0100
0000
0000
0000
0100
0000
0010
0000
,
0000
0000
0001
0000
0010
0000
0100
1000
,
0001
0000
0001
0000
0100
0010
0100
0010
,
0000
0000
0010
0000
1010
0000
1000
0100
,
0010
0000
0011
0000
0001
0100
0010
0100
,
0010
0000
1000
0000
0000
0010
0000
0000
0100
0000
0001
0000
0000
0000
0001
0000
,
0020
0000
0230
0000
2300
0000
3002
0100
,
0203
0010
0320
1000
,
2030
0100
3200
0310
,
0010
0001
0010
0001
0000
0001
0100
0001
,
0000
0100
0010
0100
0000
0110
0000
0010
,
2000
0100
3200
0010
,
0320
0001
0032
1003
,
2002
0000
0000
3003
,
1000
0100
1000
0100
0010
0001
0010
0001
,
0000
0100
0001
0100
0000
0010
1000
0010
,
0000
0100
0001
0100
0000
1010
0000
0101
,
0000
0001
0010
0100
0000
1000
0100
0010
,
0000
0000
0011
0000
0000
0000
0010
0000
0100
0000
0000
1000
0000
0000
0010
0000
,
0000
0100
0001
0010
0000
0100
1000
0010
,
0000
0100
0001
0010
0000
0100
1000
0010
,
0000
0100
0001
1000
0000
0100
1000
0001
,
0000
0100
0001
0100
0001
0100
0001
0100
,
0001
0000
0101
0000
0100
0000
0100
0010
,
0000
0000
1000
0000
0000
0100
0000
0000
0010
0000
0000
0000
0001
0000
0100
0000
,
0000
0000
0110
0000
0100
0001
0010
0100
,
0200
0000
2300
0000
3001
0001
0001
0001
,
0000
0000
0101
0000
0100
0000
0010
1000
,
0010
0000
0110
0000
0101
0000
0001
0010
,
0000
0000
0100
0000
0000
1000
0000
0000
0010
0000
0100
0000
0010
0000
0100
0000
,
0002
0203
0320
2030
,
3020
0100
0000
0100
0000
0100
0000
0130
,
0002
0010
0000
0010
0000
0010
0000
0013
,
0020
0100
0000
0100
0000
0100
0000
0130
,
0200
0000
0000
0000
2000
0000
0000
3300
,
0000
0010
0000
1000
0000
0010
0000
0100
,
0000
0010
0000
0100
0000
0001
0000
0000
,
0000
0001
0000
0010
0000
0100
0000
0000
,
2000
0000
3002
0000
,
0103
0000
0000
0000
;

//---------------dance-single - ----------------
#NOTEDATA:;
#CHARTNAME:;
#STEPSTYPE:dance-single;
#DESCRIPTION:;
#CHARTSTYLE:;
#DIFFICULTY:Hard;
#METER:14;
#RADARVALUES:0.524032,0.635497,0.576002,0.394107,0.212211,363.000000,306.000000,57.000000,39.000000,0.000000,0.000000,8.000000,0.000000,0.000000,0.524032,0.635497,0.576002,0.394107,0.212211,363.000000,306.000000,57.000000,39.000000,0.000000,0.000000,8.000000,0.000000,0.000000;
#CREDIT:G.Shawn;
#NOTES:
// measure 0
1000
0010
0000
0100
0000
0001
0000
0010
0000
0010
0000
0100
0000
0000
2000
0000
,  // measure 1
0001
3020
0130
0110
,  // measure 2
0001
0100
0000
0010
0000
0100
0000
0001
0000
1000
0000
0100
0000
0000
0010
0000
,  // measure 3
0012
0000
0000
0203
0000
0000
0320
0000
0000
0000
0100
0000
0130
0010
0100
0000
,  // measure 4
0001
0010
0000
0001
0000
1000
0000
0010
0000
0100
0000
0010
0100
0000
0020
0000
,  // measure 5
2030
3100
0020
0031
,  // measure 6
0001
0010
0000
0100
0000
0010
0000
0001
0000
0100
0000
0000
0010
0000
0100
0000
,  // measure 7
0002
0000
0000
2003
0000
0000
3200
0000
0000
0000
0310
0000
0001
0000
0010
0000
,  // measure 8
1100
0010
0101
0010
1100
0010
0001
0100
,  // measure 9
1010
0100
0011
0100
1010
0100
0011
0001
,  // measure 10
0000
0000
0002
0000
0013
0100
1000
0001
,  // measure 11
0200
0000
0010
0000
1000
0010
0310
0010
,  // measure 12
0000
0000
0110
0000
0101
0000
0011
0010
,  // measure 13
0200
1300
2000
3010
0020
0130
0200
0301
,  // measure 14
0101
0000
0001
0000
0000
1000
0000
0000
0100
0000
0010
0000
0001
0000
1000
0000
,  // measure 15
0010
0010
0100
0100
0001
0001
1000
1000
,  // measure 16
0100
0000
0000
0010
0000
0000
0001
0000
0100
0000
0000
0010
0000
0000
1000
0000
,  // measure 17
0100
0000
0000
0010
0000
0000
0100
0000
1000
0000
0000
0010
0000
0000
0100
0000
,  // measure 18
0010
0110
0110
0101
0000
0011
0011
0110
,  // measure 19
0000
1100
1100
1010
0000
0101
0000
0002
,  // measure 20
1003
0000
0000
1000
0000
0000
1000
0000
0010
0000
0000
0010
0000
0000
0010
0000
,  // measure 21
0100
0000
0000
0100
0000
0000
0100
0000
0001
0000
0000
1000
0000
0000
0100
0000
,  // measure 22
0000
0220
0000
0000
0000
0000
0330
0000
,  // measure 23
0001
0010
0001
0000
0100
1000
0100
0000
0010
0100
0010
0000
0001
1000
0001
0000
,  // measure 24
1001
0010
0101
0010
1100
0010
0101
0010
,  // measure 25
1100
0010
0101
0010
1000
0010
0100
0001
,  // measure 26
0011
0100
1010
0100
0011
0100
1010
0100
,  // measure 27
0001
0000
0100
0000
0010
0000
1000
0000
0001
0000
0000
0001
0000
0000
0001
0000
,  // measure 28
0011
0100
1100
0010
0011
0100
1100
0010
,  // measure 29
0011
0100
1100
0010
0011
0001
1001
0000
,  // measure 30
0001
0100
1000
0100
0001
1000
0100
0001
,  // measure 31
0100
4000
0000
3040
0000
0430
0010
0310
,  // measure 32
0110
0001
0110
1000
0110
0001
0110
1000
,  // measure 33
0000
1001
0010
1001
0100
1001
0010
1001
,  // measure 34
0000
0000
0200
0000
0301
0010
0100
1000
,  // measure 35
0004
0403
0304
1003
,  // measure 36
0000
0000
2000
0000
3200
0000
0310
0100
,  // measure 37
2000
0100
3020
0100
2030
0100
3020
0100
,  // measure 38
0030
0000
0110
0000
0000
0101
0000
0000
0011
0000
0010
0000
0100
0000
1000
0000
,  // measure 39
0001
0000
0100
0000
0010
0000
1000
0000
0001
0000
1000
0000
0100
0000
0010
0001
,  // measure 40
2000
0010
0010
3020
0000
0100
0100
0230
,  // measure 41
0000
0001
0001
0302
0000
0200
0000
0303
,  // measure 42
1002
1000
1000
1000
0000
2000
0000
3003
,  // measure 43
0000
4000
0000
0000
0004
0000
0000
3003
,  // measure 44
0000
1000
0010
0100
0000
0001
0100
0010
,  // measure 45
0000
0010
1000
0001
0000
1001
0000
0000
,  // measure 46
0000
1000
0100
0010
0000
0110
0000
0010
,  // measure 47
0200
2300
3002
0103
,  // measure 48
0220
0000
0000
0330
0000
0000
0000
0000
;
