#VERSION:0.83;
#TITLE:Space;
#SUBTITLE:;
#ARTIST:APOKI;
#TITLETRANSLIT:;
#SUBTITLETRANSLIT:;
#ARTISTTRANSLIT:;
#GENRE:;
#ORIGIN:;
#CREDIT:;
#BANNER:Space.png;
#BACKGROUND:Space-bg.png;
#PREVIEWVID:;
#JACKET:Space-jacket.png;
#CDIMAGE:;
#DISCIMAGE:;
#LYRICSPATH:;
#CDTITLE:;
#MUSIC:Space.ogg;
#OFFSET:-0.680000;
#SAMPLESTART:47.448196;
#SAMPLELENGTH:15.000009;
#SELECTABLE:YES;
#BPMS:0.000=123.000;
#STOPS:;
#DELAYS:;
#WARPS:;
#TIMESIGNATURES:0.000=4=4;
#TICKCOUNTS:0.000=4;
#COMBOS:0.000=1;
#SPEEDS:0.000=1.000=0.000=0,
24.000=0.500=6.000=0,
32.000=1.000=0.250=1,
176.000=0.500=0.800=1,
178.000=1.000=0.800=1,
180.000=0.500=0.800=1,
182.000=1.000=0.800=1,
184.000=0.500=0.800=1,
186.000=1.000=0.800=1,
192.000=0.250=0.800=1,
199.000=1.000=0.200=1;
#SCROLLS:0.000=1.000,
51.500=3.000,
53.000=1.000,
55.000=3.000,
56.500=1.000;
#FAKES:;
#LABELS:0.000=Song Start;
#BGCHANGES:;
#KEYSOUNDS:;
#ATTACKS:
;

//---------------dance-single - ----------------
#NOTEDATA:;
#CHARTNAME:;
#STEPSTYPE:dance-single;
#DESCRIPTION:;
#CHARTSTYLE:;
#DIFFICULTY:Challenge;
#METER:17;
#RADARVALUES:0.771884,0.850867,0.324655,0.772989,1.051265,699.000000,657.000000,42.000000,100.000000,4.000000,0.000000,6.000000,0.000000,0.000000,0.771884,0.850867,0.324655,0.772989,1.051265,699.000000,657.000000,42.000000,100.000000,4.000000,0.000000,6.000000,0.000000,0.000000;
#CREDIT:A.Danvers;
#NOTES:
// measure 0
1000
0100
1000
0010
0100
0001
0100
0010
1000
0001
1000
0100
0010
0001
1000
0001
,  // measure 1
0100
0001
1000
0010
0100
0010
1000
0001
0100
0001
0010
0100
1000
0001
1000
0100
,  // measure 2
0010
0001
1000
0001
0100
0001
0010
0100
1000
0001
1000
0100
0010
0100
1000
0001
,  // measure 3
0010
0100
0010
0001
1000
0010
0100
0010
1000
0001
1000
0010
1000
0001
1000
0100
,  // measure 4
1000
0001
0010
0001
0100
0010
0100
0001
0100
0001
1000
0001
0010
0100
0010
0100
,  // measure 5
1000
0001
1000
0010
0100
0001
0100
0010
1000
0010
0100
0001
1000
0100
0010
0001
,  // measure 6
1000
0100
0010
0001
,  // measure 7
0010
0100
1000
0001
,  // measure 8
1001
0000
0001
0000
0100
0000
0010
1000
0001
1000
0200
0000
0310
0000
0200
0000
,  // measure 9
1300
0000
0001
0000
0200
0000
0010
0000
0301
0000
0100
0000
0101
0000
0001
1000
,  // measure 10
0100
0000
0110
0000
0011
0000
0001
0010
0100
1000
0001
0100
0010
0000
0100
0000
,  // measure 11
0004
0000
0043
0000
0430
0000
0320
0002
,  // measure 12
0033
0001
1000
0010
0100
0010
1000
1000
,  // measure 13
M000
0000
M000
1000
0100
0010
0001
000M
,  // measure 14
0000
000M
0011
0001
0200
0320
0230
0302
,  // measure 15
0023
0030
0220
0330
2200
3300
2002
3003
,  // measure 16
0202
0303
0000
0010
0202
0303
0000
0010
,  // measure 17
2200
3300
0010
0000
0202
0303
0010
0000
2200
0000
3300
0000
0000
0000
0100
0000
,  // measure 18
0022
0033
0000
0100
2020
3030
0000
0100
,  // measure 19
0022
0033
0100
0000
2020
3030
0100
0000
0022
0000
0033
0000
0000
0000
0002
0000
,  // measure 20
0020
0033
0110
0000
1100
0000
1010
0000
,  // measure 21
0110
0000
0000
0010
0000
0000
0100
0000
0000
0001
0000
0000
4000
0000
0000
0000
0000
0000
3000
0000
0000
0000
0001
0000
,  // measure 22
0010
0100
1000
1010
0000
0000
0000
0000
1000
0010
0100
0001
,  // measure 23
0010
0000
0440
0330
,  // measure 24
1001
0001
0100
0010
1000
0010
0100
0001
1000
0100
0010
0001
1000
0010
0100
0001
,  // measure 25
1000
0100
1000
0100
0010
0001
0010
0001
1000
0010
1000
0010
0100
0001
0010
0001
,  // measure 26
0100
0001
1000
0010
1000
0010
0100
0001
1000
0100
0010
0001
1000
0001
0100
0010
,  // measure 27
1000
0010
1000
0001
0100
0001
0100
0010
1000
0010
0100
0001
0010
0100
0010
0100
,  // measure 28
2000
0000
0000
0000
0000
0000
0000
0000
0000
0000
0000
0000
3000
0000
0000
0000
0000
0000
0000
0000
0001
0000
0000
0000
0100
0000
0000
0000
0010
0000
0000
0000
0100
0000
0000
0000
0202
0000
0000
0000
0000
0000
0000
0000
0000
0303
0000
0000
,  // measure 29
0000
0000
0000
0000
0000
0000
0000
0000
1000
0000
0000
0000
0100
0000
0000
0000
0010
0000
0000
0000
0100
0000
0000
0000
2200
0000
0000
0000
0000
0000
0000
0000
0000
3300
0000
0000
0000
0000
0000
0000
0000
0000
1000
0000
0000
0000
0000
0000
,  // measure 30
2200
0000
3300
0000
0202
0000
0303
0000
2000
3100
0000
0000
0002
0103
0000
0000
,  // measure 31
2000
3010
0000
0000
0002
0013
0000
0000
0220
0330
0010
0100
1000
0001
0100
0010
,  // measure 32
1000
0100
1000
0001
0010
0001
0100
0010
0100
0001
1000
0001
0010
0100
0010
0001
,  // measure 33
0100
0001
1000
0010
1000
0010
0100
0001
1000
0100
0010
0001
1000
0001
0010
0100
,  // measure 34
1000
0001
0100
0010
1000
0010
0100
0001
1000
0100
0010
0001
1000
0001
0100
0010
,  // measure 35
1000
0010
0100
0010
1000
0001
1000
0100
0010
0001
1000
0001
0100
0010
1000
0010
,  // measure 36
0100
0001
1000
0100
0010
0001
1000
0001
1000
0100
0010
0001
1000
0001
0010
0100
,  // measure 37
1000
0001
1000
0001
0010
0100
1000
0001
1000
0001
0100
0010
1000
0010
0100
0001
,  // measure 38
2000
0000
0000
3000
2020
0000
0000
3030
0020
0230
0000
0300
0200
0302
0000
0003
,  // measure 39
0002
0023
0000
0030
0020
0230
0000
0300
0200
0000
0000
0000
2300
0000
3002
0000
,  // measure 40
1003
0010
1000
0010
2000
3000
0200
0000
0320
0000
0000
0032
0000
0000
0000
0000
,  // measure 41
1003
0010
1000
0010
2000
0000
3200
0000
0320
0000
0000
0002
0030
0000
0000
0003
,  // measure 42
0001
0100
0001
0100
0002
0000
0023
0000
0230
0000
0000
2300
0000
0000
0000
3000
,  // measure 43
0002
0000
0000
0000
0100
0000
0000
0000
0003
0001
0100
0000
0001
0100
0001
0100
,  // measure 44
0010
1000
0100
0010
0001
0000
0100
0000
0110
0000
0000
1010
0000
0000
0000
0000
,  // measure 45
1000
0010
0100
0001
0010
0000
0100
0000
1100
0000
0000
0011
0000
0000
0000
0000
,  // measure 46
0001
0010
0100
1000
0001
0000
1000
0000
1001
0000
0000
0101
0000
0000
0000
0000
,  // measure 47
0220
0000
0000
0330
,  // measure 48
1001
0000
0000
0000
2000
0000
0000
3002
,  // measure 49
0023
0230
2300
3002
,  // measure 50
1003
0010
0100
0001
1000
0100
0010
0001
1000
0001
0100
0010
1000
0010
0100
0001
,  // measure 51
1000
0100
1000
0001
0010
0100
1000
0010
0100
0001
0010
0001
1000
0010
0100
0001
,  // measure 52
2000
0000
0000
3000
0000
1000
0100
0010
0001
2002
0000
0000
,  // measure 53
3003
0000
0000
0000
0001
0000
0100
0000
0010
0000
1000
0000
1001
0000
0000
0000
0000
0000
0000
0000
0000
2000
0000
0000
,  // measure 54
3002
0000
0003
0000
0202
0000
0303
0000
0002
0103
0000
0000
0020
1030
0000
0000
,  // measure 55
0002
0013
0000
0000
0200
1300
0000
1000
0100
0000
0010
0001
1000
0001
0100
0010
,  // measure 56
1000
0001
1000
0010
0100
0001
1000
0001
0010
0100
1000
0001
1000
0010
0100
0010
,  // measure 57
1000
0001
1000
0100
0010
0001
1000
0001
0100
0010
1000
0010
0100
0001
1000
0100
,  // measure 58
1000
0001
0010
0001
1000
0001
0010
0001
1000
0010
1000
0001
0100
0001
1000
0100
,  // measure 59
0010
0001
0010
0100
1000
0010
0100
0001
1000
0100
0010
0001
1000
0001
0100
0010
,  // measure 60
1000
0010
0100
0001
1000
0010
0100
0010
1000
0001
1000
0100
0010
0100
1000
0001
,  // measure 61
0010
0100
0010
0001
1000
0001
0100
0010
1000
0010
0100
0001
1000
0001
0010
0100
,  // measure 62
1000
0100
1000
0100
0010
0001
0010
0001
0100
0010
0100
0001
1000
0001
1000
0010
,  // measure 63
0100
0010
0100
0001
1000
0001
1000
0001
0100
0010
1000
0010
0100
0001
1000
0100
,  // measure 64
0020
0000
0000
0030
;
