#VERSION:0.83;
#TITLE:Seven;
#SUBTITLE:(ft. Latto);
#ARTIST:Jung Kook;
#TITLETRANSLIT:;
#SUBTITLETRANSLIT:;
#ARTISTTRANSLIT:;
#GENRE:;
#ORIGIN:;
#CREDIT:;
#BANNER:Seven (ft. Latto).png;
#BACKGROUND:Seven (ft. Latto)-bg.png;
#PREVIEWVID:;
#JACKET:Seven (ft. Latto)-jacket.png;
#CDIMAGE:;
#DISCIMAGE:;
#LYRICSPATH:;
#CDTITLE:;
#MUSIC:Seven (ft. Latto).ogg;
#OFFSET:0.000000;
#SAMPLESTART:38.407856;
#SAMPLELENGTH:15.000000;
#SELECTABLE:YES;
#BPMS:0.000=125.000;
#STOPS:;
#DELAYS:;
#WARPS:;
#TIMESIGNATURES:0.000=4=4;
#TICKCOUNTS:0.000=4;
#COMBOS:0.000=1;
#SPEEDS:0.000=1.000=0.000=0;
#SCROLLS:0.000=1.000;
#FAKES:;
#LABELS:0.000=Song Start;
#BGCHANGES:;
#KEYSOUNDS:;
#ATTACKS:
;

//---------------dance-single - ----------------
#NOTEDATA:;
#CHARTNAME:;
#STEPSTYPE:dance-single;
#DESCRIPTION:;
#CHARTSTYLE:;
#DIFFICULTY:Challenge;
#METER:17;
#RADARVALUES:0.675139,0.777506,0.232153,0.754498,0.708896,570.000000,542.000000,28.000000,91.000000,130.000000,0.000000,6.000000,0.000000,0.000000,0.675139,0.777506,0.232153,0.754498,0.708896,570.000000,542.000000,28.000000,91.000000,130.000000,0.000000,6.000000,0.000000,0.000000;
#CREDIT:S.Kyoufu;
#NOTES:
// measure 0
0000
0000
0000
0000
,  // measure 1
0000
0000
0000
0000
,  // measure 2
0000
0000
0000
0000
,  // measure 3
1000
0010
0200
0300
0001
0010
0200
0300
,  // measure 4
1100
0000
1000
0010
0100
0000
0010
0100
0001
0000
0001
0000
0011
0000
0100
0000
,  // measure 5
0011
0000
0001
0100
0010
0000
1000
0001
0011
0000
0020
0000
0230
0000
0300
0000
,  // measure 6
1100
0000
0010
0100
0001
0000
0020
0000
0030
0000
0001
0010
0001
0000
0100
0000
,  // measure 7
0010
1000
0010
1000
0200
0000
0300
0000
0010
0001
0010
0001
2000
0000
3010
0000
,  // measure 8
1010
0000
0100
0010
0100
0000
0002
0000
0000
0000
0013
0000
0100
0000
1000
0000
,  // measure 9
0400
0000
0000
0000
1300
0000
0010
0000
0100
0001
0100
0000
0001
1000
0001
4000
,  // measure 10
0004
0000
0000
3000
0003
0000
0110
0000
0000
0000
0010
1000
0001
0000
0010
0000
,  // measure 11
0200
0000
2300
0000
3020
0000
0100
0200
,  // measure 12
0330
0000
0000
0000
0000
0000
0000
0000
0000
0001
0000
0000
0000
0000
0000
0001
0000
0000
0100
0000
M00M
0100
0000
0000
1000
0000
0000
0100
0000
0000
0010
0000
0000
0000
0000
0000
MMMM
0000
0000
0000
0000
0000
0010
0000
0000
0001
0000
0000
,  // measure 13
0000
0000
0000
0010
M00M
0000
0010
0000
0000
1000
0000
0000
0100
0000
0000
0010
0000
0000
0001
0000
0000
0000
0000
0000
MMMM
0000
0000
0000
0000
0000
0002
0000
0000
0003
0000
0000
0020
0000
0000
0030
0000
0000
0200
0000
0000
0300
0000
0000
,  // measure 14
2000
3010
0010
0100
0010
0100
0010
0010
0100
0010
0100
0000
MMMM
0001
0001
1000
,  // measure 15
0001
0001
1000
0001
1000
0001
1000
0000
MMMM
0000
M20M
0300
M20M
0300
M20M
0300
,  // measure 16
M20M
0300
2000
0000
3020
0000
0230
0000
0320
0000
2030
0000
3002
0000
0023
0000
,  // measure 17
0230
2300
0002
3003
MMMM
1000
1000
1000
,  // measure 18
0020
0230
0302
0023
0030
MMMM
0020
0230
,  // measure 19
2300
3002
0203
0320
0230
0300
0020
0030
,  // measure 20
1001
0000
MMMM
0000
0001
0100
0010
0000
1000
0100
0010
0000
0001
0100
0010
0000
,  // measure 21
1000
0100
0010
0000
0001
0100
0010
0000
1000
0100
0001
0100
1000
0001
0100
0010
,  // measure 22
0200
0300
MMMM
0000
0010
1000
0001
0000
0010
0001
1000
0000
0010
1000
0001
0000
,  // measure 23
0010
0001
1000
0000
0010
1000
0001
0000
0001
0010
0100
1000
0100
1000
0010
0100
,  // measure 24
0001
0000
MMMM
0000
0001
0100
1000
0100
0001
0000
1001
0000
1000
0100
0001
0100
,  // measure 25
1000
0000
1001
0000
1000
0010
0001
0010
1000
0000
1001
0000
1000
0100
0001
0100
,  // measure 26
2000
3020
0230
0302
0003
0000
0002
0203
,  // measure 27
0320
0000
2030
0000
3002
0000
2003
0000
3100
0010
0100
0010
0001
1000
0001
1000
,  // measure 28
0010
0000
0100
0010
0000
1000
0001
0000
0011
0000
0010
0100
0000
1000
0010
0000
,  // measure 29
0110
0000
0100
0001
0000
0001
0010
0100
1000
0000
0001
1000
0000
1000
0001
0000
,  // measure 30
MMMM
0000
0000
0000
0000
0000
0001
0100
0001
0000
0100
0001
0200
0000
0000
0000
,  // measure 31
0310
1000
0001
1000
0100
0000
0010
0100
1000
1000
0000
0010
0000
0100
0001
MMMM
,  // measure 32
0001
0100
0010
0000
0100
0010
1000
0000
1000
0100
0010
0000
0010
0001
0100
0000
,  // measure 33
0010
1000
0010
0000
1000
0010
0100
0001
0100
0001
0010
0000
0110
0000
MMMM
0000
,  // measure 34
0001
0010
0100
1000
1001
0000
MMMM
0000
1000
0010
0100
0001
1001
0000
MMMM
0000
,  // measure 35
1000
0000
0000
0001
0000
0000
1000
0000
0000
0001
0000
0000
0100
0000
M00M
0100
0000
0000
1000
0000
0000
0010
M00M
0000
0010
0000
0000
0001
0000
0000
0000
0000
0000
1000
0000
0000
0001
0000
0000
0000
0000
0000
1001
0000
0000
MMMM
0000
0000
,  // measure 36
MMMM
MMMM
MMMM
MMMM
MMMM
MMMM
1000
0010
0200
0000
0320
0000
4030
0000
0000
0000
,  // measure 37
3001
0000
0010
0010
0100
0100
1000
1000
0001
0001
0100
0000
0020
0000
0030
0000
,  // measure 38
0040
0000
0130
0010
0100
0000
0100
0010
0100
0000
0110
0000
1001
0000
MMMM
0000
,  // measure 39
MMMM
0000
1000
0100
0010
0001
0010
0100
1100
0000
1010
0000
0202
0000
0303
0000
,  // measure 40
MMMM
0000
0000
0000
0000
0001
0100
0000
0010
0000
0010
0000
1000
0000
1000
0000
,  // measure 41
0001
0000
0011
0000
0000
0000
0010
0100
1000
0000
0010
0100
0001
0000
0010
0000
,  // measure 42
1100
0000
1010
0000
0000
0000
0010
0100
0010
0000
0010
0100
0010
0000
1000
0000
,  // measure 43
0004
0000
0003
1000
0002
2000
3003
0000
,  // measure 44
MMMM
0000
1000
1000
0100
0100
0010
0010
,  // measure 45
0001
0000
0001
0000
0100
0000
0100
0000
0010
0100
0010
0000
1000
0001
1000
0000
,  // measure 46
1001
0000
0001
0001
0100
0100
0010
0010
,  // measure 47
1000
1000
0001
0001
2000
3200
0320
0230
,  // measure 48
2300
0000
0000
0000
3001
0000
1000
0000
0010
M00M
0010
0000
0001
0000
1000
0000
,  // measure 49
0100
M00M
0100
0000
0001
0000
1000
0000
0100
M00M
0100
0000
0001
0000
0100
0000
,  // measure 50
0020
2030
3002
2003
3000
0000
2000
3002
,  // measure 51
0023
0230
2300
3002
2003
3020
0230
0301
,  // measure 52
1001
0000
0000
0000
0001
0010
0010
1000
0100
0100
0001
0010
0010
1000
0100
0100
,  // measure 53
0001
0010
0010
1000
0100
0100
0001
0010
0010
1000
0100
0100
0001
0000
1000
0000
,  // measure 54
1001
0000
MMMM
0000
0001
0100
1000
0100
0001
0010
1000
0010
0001
0100
0010
0100
,  // measure 55
0001
0010
0100
0010
0001
1000
0010
0100
0001
0100
0010
1000
0100
0010
0001
0100
,  // measure 56
0020
0030
MMMM
0000
1000
0010
0100
0001
0010
0100
0010
0100
1000
0010
0100
0001
,  // measure 57
0010
0100
0010
0100
1000
0001
0100
0010
1000
0001
1000
0001
0010
0100
1000
0010
,  // measure 58
0200
0302
0023
0230
0000
0300
0200
2300
,  // measure 59
3020
0000
0230
0000
0302
0000
0023
0000
0130
1000
0001
0100
0010
1000
0100
1000
,  // measure 60
0020
0000
0030
0000
;
