#VERSION:0.83;
#TITLE:Say My Name;
#SUBTITLE:;
#ARTIST:ATEEZ;
#TITLETRANSLIT:;
#SUBTITLETRANSLIT:;
#ARTISTTRANSLIT:;
#GENRE:;
#ORIGIN:;
#CREDIT:;
#BANNER:Say My Name.png;
#BACKGROUND:Say My Name-bg.png;
#PREVIEWVID:;
#JACKET:Say My Name-jacket.png;
#CDIMAGE:;
#DISCIMAGE:;
#LYRICSPATH:;
#CDTITLE:;
#MUSIC:Say My Name.ogg;
#OFFSET:0.020000;
#SAMPLESTART:62.727997;
#SAMPLELENGTH:15.000003;
#SELECTABLE:YES;
#BPMS:0.000=153.000;
#STOPS:;
#DELAYS:;
#WARPS:;
#TIMESIGNATURES:0.000=4=4;
#TICKCOUNTS:0.000=4;
#COMBOS:0.000=1;
#SPEEDS:0.000=1.000=0.000=0;
#SCROLLS:0.000=1.000;
#FAKES:;
#LABELS:0.000=Song Start;
#BGCHANGES:;
#KEYSOUNDS:;
#ATTACKS:
;

//---------------dance-single - ----------------
#NOTEDATA:;
#CHARTNAME:;
#STEPSTYPE:dance-single;
#DESCRIPTION:;
#CHARTSTYLE:;
#DIFFICULTY:Hard;
#METER:14;
#RADARVALUES:0.571980,0.684732,0.244003,0.488005,0.160820,361.000000,339.000000,22.000000,44.000000,0.000000,0.000000,3.000000,0.000000,0.000000,0.571980,0.684732,0.244003,0.488005,0.160820,361.000000,339.000000,22.000000,44.000000,0.000000,0.000000,3.000000,0.000000,0.000000;
#CREDIT:G.Shawn;
#NOTES:
0000
0000
0000
0000
,
0000
0000
0000
0000
,
0000
0000
0000
0000
,
0000
0000
0000
0000
0000
1000
0010
0100
,
0001
0000
0000
0011
0000
0010
0100
1000
,
0010
0000
0000
0110
0000
0010
0100
0010
,
0100
0100
0400
0000
0000
0000
0300
0000
,
0110
0000
0101
0000
0001
0010
0100
1000
,
1001
0000
0001
0100
1000
0000
1000
0100
,
0002
0023
0230
0300
,
0000
0000
1000
0010
0100
0010
1000
0010
,
0200
0302
0023
0430
,
0300
0000
1000
1000
0020
0000
1030
0100
,
0020
0000
0000
0230
0000
0000
2300
0000
0000
3100
0010
0001
,
0100
0100
0010
1000
0100
0010
0002
0000
0000
0013
0100
1000
,
0001
0001
1000
0100
0010
0001
0200
0000
0000
0320
0000
0000
,
0130
0001
0100
0010
1000
0100
0010
0010
,
0002
0000
0023
0000
0230
0000
2300
0010
,
3010
0100
0001
0010
0100
0010
0001
1000
,
0020
0230
0320
4030
,
3000
0000
0001
0010
0100
1000
0002
0000
,
0003
0000
0000
1000
0010
1000
0002
0000
,
0023
0000
0000
0000
0000
0000
0130
0000
0100
0000
0100
0000
1000
0000
0000
1000
0000
0000
0010
0000
0000
0010
0000
0000
,
0100
0001
0100
0001
0010
0100
1000
0100
1000
0010
0000
0000
,
0110
0000
0100
0001
0100
0001
0010
0010
,
0110
0000
0000
0000
0100
0000
1000
0000
0100
0000
1000
0000
0010
1000
0010
1000
,
0010
0000
0100
0001
1000
0001
0010
0200
,
0300
2000
3000
0020
0030
0200
0300
0000
,
0001
0100
0001
0010
0001
0100
0010
1000
,
0100
0010
0100
1000
0100
0010
0001
1000
,
0010
0100
0010
1000
0010
0100
0001
1000
,
0001
0010
0100
1000
0001
1000
0010
0100
,
0001
0001
0100
0100
0010
1000
0001
0010
,
0100
0100
1000
1000
0010
0100
0001
0010
,
0100
0100
0010
0010
0001
1000
0001
0100
,
0010
0010
1000
1000
0001
0010
0100
1000
,
0001
0001
0100
0100
0010
1000
0010
0100
,
0001
0001
0010
0010
0100
0100
1000
1000
,
1001
0000
0000
0000
,
2002
0000
0000
3003
,
2020
3030
0010
0100
0001
0001
0010
0100
,
1000
1000
0010
0100
0001
0001
0001
0001
,
0022
0033
0010
0100
1000
1000
0010
0100
,
0001
0000
0001
0000
0010
0000
0100
0000
1000
0010
1000
0010
1000
0010
1000
0000
,
1010
0010
0100
0001
0011
0000
0010
0010
,
0100
1000
0001
1000
0010
0000
0010
0000
,
0010
0100
0000
0000
0100
0001
0000
0000
1001
0000
0000
0000
1100
0000
0000
0000
,
1000
0100
0000
0000
0010
0001
0000
0000
0011
0000
0000
0000
1001
0000
0000
0000
,
1010
0000
0010
0100
0001
0001
0100
0010
,
1000
1000
0200
0000
0320
0001
0032
0000
,
1003
0000
1000
0010
0100
0100
0001
0010
,
0100
0100
1000
0010
1000
1000
1010
0000
,
0101
0000
0001
0100
0010
0010
0100
0001
,
0020
0000
0230
0000
1300
0001
0100
0000
,
0110
0000
0010
0100
0102
0000
0023
0000
,
0230
0000
2300
0000
3020
0100
0100
0100
,
0200
0330
0000
0000
0000
0000
0000
0000
;

//---------------dance-single - ----------------
#NOTEDATA:;
#CHARTNAME:;
#STEPSTYPE:dance-single;
#DESCRIPTION:;
#CHARTSTYLE:;
#DIFFICULTY:Challenge;
#METER:16;
#RADARVALUES:0.770034,1.091773,0.488005,0.632188,0.571188,486.000000,442.000000,44.000000,57.000000,0.000000,0.000000,10.000000,0.000000,0.000000,0.770034,1.091773,0.488005,0.632188,0.571188,486.000000,442.000000,44.000000,57.000000,0.000000,0.000000,10.000000,0.000000,0.000000;
#CREDIT:G.Shawn;
#NOTES:
// measure 0
0000
0000
0000
0000
,  // measure 1
0000
0000
0000
0000
,  // measure 2
0000
0000
0000
0000
,  // measure 3
0000
0000
0000
0000
0000
1000
0010
0100
,  // measure 4
0022
0033
0000
0022
0033
0010
0100
1000
,  // measure 5
2020
3030
0000
2020
3030
0010
0100
0001
,  // measure 6
0010
0000
0010
0000
0040
0400
0000
0000
0000
0000
0000
0300
0030
0000
0000
0000
,  // measure 7
0110
0000
0000
0000
1100
0000
0000
0000
1010
0000
0110
0000
0100
0001
0100
0001
,  // measure 8
0010
0000
0010
0100
1000
1000
0010
0100
,  // measure 9
0002
0100
2003
0100
3001
0000
1001
0000
,  // measure 10
0011
0000
0010
0100
0010
0010
0001
0001
,  // measure 11
2000
0000
3020
0000
0230
0000
0010
0310
,  // measure 12
0110
0000
0100
0001
0020
0000
0031
0100
,  // measure 13
0020
0000
0000
0230
0000
0000
0320
0000
0000
1030
1000
1000
,  // measure 14
1010
0010
0010
0110
0100
0100
0102
0000
0000
0013
0010
0010
,  // measure 15
0110
0100
0100
1100
1000
1000
1002
0000
0000
0023
0000
0000
,  // measure 16
0031
0100
0001
0010
0001
0100
0010
1000
,  // measure 17
0200
0010
2300
0010
3200
0010
4300
0000
,  // measure 18
3010
0010
0100
0001
0010
0010
0001
0001
,  // measure 19
2000
0010
3002
0010
2003
0010
3004
0000
,  // measure 20
0103
0000
0001
0100
0010
2000
0200
0000
,  // measure 21
3300
0000
0000
0010
0001
0200
0002
0003
,  // measure 22
0302
0000
0000
0000
0000
0000
0013
0000
0010
0000
0100
0000
0100
0000
0000
1000
0000
0000
1010
0000
0000
0010
0000
0000
,  // measure 23
0100
0100
0001
0001
0010
0010
0001
0001
0001
1001
0000
0000
,  // measure 24
1001
0000
0001
0000
0100
0000
0010
0000
1000
0000
0010
0000
0100
0001
0100
0001
,  // measure 25
0010
0000
0100
0000
1000
0000
0001
0000
0010
0000
0100
0000
1000
0010
1000
0010
,  // measure 26
0100
0000
0010
0000
0100
0000
0001
0000
1000
0000
0100
0000
0010
0100
1000
0010
,  // measure 27
0400
0304
0043
0430
,  // measure 28
1300
0000
0100
0000
0010
0000
0001
0000
1000
0010
0100
0001
1000
0010
0100
0001
,  // measure 29
1000
0000
0100
0000
0010
0000
0001
0000
1000
0010
1000
0100
0010
0100
1000
0010
,  // measure 30
0100
0000
0010
0000
0100
0000
0001
0000
0010
0001
0010
0001
0100
0010
0100
0001
,  // measure 31
1000
1010
0001
0011
1000
1100
0001
0101
,  // measure 32
1001
1000
0100
0010
0001
1000
0001
0100
,  // measure 33
0010
0010
1000
1000
0100
0100
0010
0010
,  // measure 34
0010
0001
0100
0010
0100
0001
0010
0100
,  // measure 35
1000
0000
1000
0000
0010
0000
0010
0000
0100
0000
0100
0000
0001
0100
0001
0100
,  // measure 36
0001
0000
0100
0000
0010
0000
1000
0000
0100
0000
0010
0000
0001
0010
0100
1000
,  // measure 37
0010
0000
0100
0000
0010
0000
0100
0000
0001
0010
0100
1000
0001
1000
0010
0100
,  // measure 38
0002
0000
0023
0000
0230
0000
1300
1000
,  // measure 39
2002
0000
0000
3003
0110
0000
1001
0000
,  // measure 40
1010
0000
0101
0000
0001
0010
0100
1000
0020
0000
0130
0000
0001
0010
0100
1000
,  // measure 41
0020
0000
0130
0000
0001
0010
0100
1000
0010
0100
0010
0100
0001
1000
0001
1000
,  // measure 42
1001
0000
0101
0000
0001
0100
0010
1000
0002
0000
1003
0000
0001
0100
0010
1000
,  // measure 43
0002
0000
0000
0000
0000
0000
1003
0000
0000
0000
0000
0000
0001
0000
0000
0100
0000
0000
0010
0000
0000
1000
0000
0000
0001
0000
1000
0000
0001
0000
1000
0000
0001
0000
1000
0000
0001
0000
1000
0000
0001
0000
1000
0000
0001
0000
1000
0000
,  // measure 44
0002
0000
0000
0203
0000
0000
0320
0000
0000
0230
0000
0000
0301
0100
0001
0100
0001
0100
0001
0100
0001
0100
0001
0100
,  // measure 45
0001
0010
0100
1000
0010
0010
0100
0001
,  // measure 46
0011
0000
0000
0100
0000
0000
0000
0000
0000
0000
0000
0000
1010
0000
0000
0100
0000
0000
0000
0000
0000
0000
0000
0000
0010
0000
0100
0000
0010
0000
0100
0000
0010
0000
0100
0000
0001
0000
1000
0000
0001
0000
1000
0000
0001
0000
1000
0000
,  // measure 47
0001
0100
0000
0000
0010
1000
0000
0000
1010
0000
0000
0000
1100
0000
0000
0000
,  // measure 48
1100
0000
1100
0000
0100
0010
0001
1000
0002
0000
0000
0000
0103
0010
0100
0010
,  // measure 49
2000
0000
3100
0000
0110
0100
1000
0000
,  // measure 50
1010
0000
0010
0000
0100
0001
0100
0001
0020
0000
0000
0000
0130
1000
0100
1000
,  // measure 51
0002
0000
0203
0000
0301
0010
0220
0330
,  // measure 52
2200
3300
1000
1000
0010
0010
0100
0100
,  // measure 53
0004
0000
0000
0000
0043
0000
0000
0000
0031
0010
0100
1000
0001
0000
0000
0000
,  // measure 54
1001
0000
0001
0001
0200
0000
0320
0000
,  // measure 55
1030
0100
0010
0001
1000
0001
0100
0100
,  // measure 56
0220
0330
0000
0000
;
